osu file format v14

[General]
AudioFilename: audio.mp3
AudioLeadIn: 0
PreviewTime: 49337
Countdown: 0
SampleSet: Soft
StackLeniency: 0.4
Mode: 0
LetterboxInBreaks: 0
WidescreenStoryboard: 1

[Editor]
DistanceSpacing: 0.9
BeatDivisor: 2
GridSize: 32
TimelineZoom: 2.7

[Metadata]
Title:mononoke in the fiction (TV Size)
TitleUnicode:モノノケ・イン・ザ・フィクション (TV Size)
Artist:Lie and a Chameleon
ArtistUnicode:嘘とカメレオン
Creator:Shiino
Version:Normal
Source:虚構推理
Tags:In/Spectre Invented Inference Kyokou Suiri tv size anime opening op japanese jpop j-pop pop
BeatmapID:2304994
BeatmapSetID:1102376

[Difficulty]
HPDrainRate:3.4
CircleSize:3.2
OverallDifficulty:4
ApproachRate:5.2
SliderMultiplier:1.12
SliderTickRate:1

[Events]
//Background and Video events
0,0,"bg.jpg",0,0
Video,160,"video.mp4"
//Break Periods
//Storyboard Layer 0 (Background)
//Storyboard Layer 1 (Fail)
//Storyboard Layer 2 (Pass)
//Storyboard Layer 3 (Foreground)
//Storyboard Layer 4 (Overlay)
//Storyboard Sound Samples

[TimingPoints]
7936,307.692307692308,4,2,1,70,1,0
7936,-100,4,2,1,70,0,0
8089,400,4,2,1,60,1,0
8089,-100,4,2,1,60,0,0
9089,480,4,2,1,60,1,0
9089,-100,4,2,1,60,0,0
9329,400,4,2,1,70,1,0
9329,-100,4,2,1,70,0,0
9955,300,4,2,1,40,1,0
9955,-100,4,2,1,40,0,0
10030,-100,4,2,1,50,0,0
10105,-100,4,2,1,60,0,0
10180,-100,4,2,1,70,0,0
10255,292.682926829268,4,2,1,80,1,0
10255,-100,4,2,1,80,0,0
10564,307.692307692308,4,2,1,70,1,0
10564,-100,4,2,1,70,0,0
15025,272.727272727273,4,2,1,70,1,0
15025,-100,4,2,1,70,0,0
15161,300,4,2,1,70,1,0
15161,-100,4,2,1,70,0,0
15483,300,4,2,1,70,1,0
15483,-100,4,2,1,70,0,0
16533,312.093628088427,4,2,1,70,1,0
16533,-100,4,2,1,70,0,0
17313,312.093628088427,4,2,1,70,1,0
17313,-100,4,2,1,70,0,0
17937,307.692307692308,4,2,1,70,1,0
17937,-100,4,2,1,70,0,0
19937,272.727272727273,4,2,1,70,1,0
19937,-100,4,2,1,70,0,0
20073,300,4,2,1,70,1,0
20073,-100,4,2,1,70,0,0
20388,314.96062992126,4,2,1,60,1,0
20388,-100,4,2,1,60,0,0
22569,307.692307692308,4,2,1,60,1,0
22569,-100,4,2,1,60,0,0
22870,308.08729139923,4,2,1,60,1,0
22870,-100,4,2,1,60,0,0
30250,308.166409861325,4,2,1,70,1,0
30250,-100,4,2,1,70,0,0
38724,-100,4,2,1,45,0,0
38801,-100,4,2,1,50,0,0
38878,-100,4,2,1,55,0,0
38955,-100,4,2,1,60,0,0
39032,-100,4,2,1,65,0,0
39109,-100,4,2,1,70,0,0
39186,-100,4,2,1,75,0,0
39494,-100,4,2,1,70,0,0
40097,308.166409861325,4,2,1,70,1,0
45027,308.245568969946,4,2,1,70,1,0
45027,-100,4,2,1,70,0,0
48109,-101.010101010101,4,2,1,70,0,0
48428,303.030303030303,4,2,1,70,1,0
48428,-100,4,2,1,70,0,0
49941,307.345558856675,4,2,1,80,1,1
49941,-100,4,2,1,80,0,1
56530,307.345558856675,4,2,1,80,1,1
56530,-100,4,2,1,80,0,1
56702,307.345558856675,4,2,1,80,1,1
56702,-100,4,2,1,80,0,1
59780,307.676529408748,4,2,1,70,1,0
59780,-100,4,2,1,70,0,0
62714,307.676529408748,4,2,1,70,1,0
62714,-100,4,2,1,70,0,0
62850,307.676529408748,4,2,1,70,1,0
62850,-100,4,2,1,70,0,0
63157,333.333333333333,4,2,1,70,1,0
63157,-100,4,2,1,70,0,0
63490,307.676529408748,4,2,1,70,1,0
63490,-100,4,2,1,70,0,0
64097,304.568527918782,4,2,1,70,1,0
64097,-95.2380952380952,4,2,1,70,0,0
64391,304.568527918782,4,2,1,70,1,0
64391,-100,4,2,1,70,0,0
64709,311.364815775817,4,2,1,80,1,1
64709,-100,4,2,1,80,0,1
67026,306.122448979592,4,2,1,80,1,1
67026,-100,4,2,1,80,0,1
67628,315.789473684211,4,2,1,80,1,1
67628,-100,4,2,1,80,0,1
68259,311.364815775817,4,2,1,80,1,0
68259,-100,4,2,1,80,0,0
69654,304.568527918782,4,2,1,80,1,0
69654,-100,4,2,1,80,0,0
73613,315.789473684211,4,2,1,80,1,0
73613,-100,4,2,1,80,0,0
73929,309.278350515464,4,2,1,70,1,0
73929,-96.1538461538461,4,2,1,70,0,0
74083,285.714285714286,4,2,1,70,1,0
74083,-100,4,2,1,70,0,0
74382,322.58064516129,4,2,1,70,1,0
74382,-100,4,2,1,70,0,0
74557,306.122448979592,4,2,1,70,1,0
74557,-100,4,2,1,70,0,0
75477,310.880829015544,4,2,1,70,1,0
75477,-100,4,2,1,70,0,0
76700,310.880829015544,4,2,1,70,1,0
76700,-100,4,2,1,70,0,0
77005,307.692307692308,4,2,1,70,1,0
77005,-100,4,2,1,70,0,0
78089,307.692307692308,4,2,1,70,1,0
78089,-100,4,2,1,70,0,0
79012,285.714285714286,4,2,1,70,1,0
79012,-100,4,2,1,70,0,0
79166,307.692307692308,4,2,1,70,1,0
79166,-100,4,2,1,70,0,0
79464,312.5,4,2,1,70,1,0
79464,-100,4,2,1,70,0,0
80245,285.714285714286,4,2,1,70,1,0
80245,-105.263157894737,4,2,1,70,0,0
80395,312.5,4,2,1,70,1,0
80395,-100,4,2,1,70,0,0
80688,400,4,2,1,70,1,0
80688,-100,4,2,1,70,0,0
81120,458.015267175573,4,2,1,70,1,0
81120,-100,4,2,1,70,0,0
81346,458.015267175573,4,2,1,70,1,0
81346,-100,4,2,1,70,0,0
81549,410.958904109589,4,2,1,70,1,0
81549,-100,4,2,1,70,0,0
81958,307.692307692308,4,2,1,70,1,0
81958,-100,4,2,1,70,0,0
83152,300,4,2,1,70,1,0
84068,307.692307692308,4,2,1,70,1,0
84068,-100,4,2,1,70,0,0
84529,-100,4,2,1,65,0,0
85298,-100,4,2,1,60,0,0
85914,-100,4,2,1,55,0,0
86529,-100,4,2,1,50,0,0
87144,-100,4,2,1,45,0,0
87760,-100,4,2,1,40,0,0
88068,-100,4,2,1,50,0,0

[Colours]
Combo1 : 255,128,191
Combo2 : 191,191,191
Combo3 : 191,128,255
Combo4 : 128,191,255

[HitObjects]
256,192,8089,12,8,9955,0:0:0:0:
508,287,10564,6,0,P|516:207|522:184,1,56,14|2,0:1|0:0,0:0:0:0:
477,194,10871,2,0,P|473:165|462:103,1,56,10|10,0:0|0:0,0:0:0:0:
500,98,11179,1,10,0:1:0:0:
454,15,11487,1,8,0:0:0:0:
454,15,11640,2,0,B|350:42|413:80|307:105,1,168,10|10,0:1|0:0,0:0:0:0:
228,52,12410,1,10,0:1:0:0:
143,8,12717,1,10,0:0:0:0:
46,38,13025,6,0,P|50:65|53:93,1,56,14|2,0:1|0:0,0:0:0:0:
80,136,13333,2,0,P|75:163|72:191,1,56,10|10,0:0|0:0,0:0:0:0:
49,236,13640,1,10,0:1:0:0:
51,340,13948,1,8,0:0:0:0:
51,340,14102,2,0,P|114:350|166:360,1,112,10|10,0:1|0:1,0:0:0:0:
203,384,14564,2,0,P|210:346|228:253,1,112,10|10,0:0|0:1,0:0:0:0:
126,273,15161,1,10,0:1:0:0:
71,191,15483,6,0,P|66:163|61:135,1,56,14|2,0:1|0:0,0:0:0:0:
103,108,15783,2,0,P|106:80|112:52,1,56,10|10,0:0|0:0,0:0:0:0:
103,3,16083,1,10,0:1:0:0:
203,12,16383,1,8,0:0:0:0:
203,12,16533,2,0,B|302:21|247:73|376:92,1,168,10|10,0:1|0:0,0:0:0:0:
449,68,17313,1,10,0:1:0:0:
428,166,17625,1,10,0:0:0:0:
399,264,17937,6,0,P|368:261|342:259,1,56,14|2,0:1|0:0,0:0:0:0:
296,239,18244,2,0,P|268:241|240:243,1,56,10|10,0:0|0:0,0:0:0:0:
195,267,18552,1,10,0:1:0:0:
113,218,18860,1,8,0:0:0:0:
113,218,19013,2,0,P|75:294|124:382,1,168,10|10,0:1|0:0,0:0:0:0:
204,356,19783,1,10,0:1:0:0:
304,346,20073,1,10,0:1:0:0:
290,246,20388,6,0,L|426:228,1,112,14|10,0:1|0:1,0:0:0:0:
451,318,21017,2,0,P|450:221|472:73,1,224,10|10,0:1|0:1,0:0:0:0:
421,4,21962,2,0,P|382:23|308:38,1,112,10|10,0:1|0:1,0:0:0:0:
224,7,22569,1,10,0:3:0:0:
173,88,22870,6,0,B|330:128|330:128|346:159|340:191,1,224,14|8,0:1|0:1,0:0:0:0:
284,272,23794,1,8,0:1:0:0:
332,360,24102,2,0,P|419:346|479:346,1,112,10|10,0:1|0:1,0:0:0:0:
508,268,24718,2,0,P|452:259|398:247,1,112,10|10,0:1|0:1,0:0:0:0:
371,149,25334,6,0,B|267:157|267:157|223:195|223:195|111:203,1,224,10|10,0:1|0:1,0:0:0:0:
128,104,26258,1,8,0:1:0:0:
27,92,26567,2,0,P|43:184|48:319,1,224,10|10,0:1|0:1,0:0:0:0:
118,384,27491,1,8,0:1:0:0:
207,338,27799,6,0,L|340:355,1,112,10|8,0:1|0:1,0:0:0:0:
383,279,28415,2,0,L|271:267,1,112,10|10,0:1|0:1,0:0:0:0:
203,192,29031,1,8,0:1:0:0:
269,115,29339,1,10,0:1:0:0:
213,30,29647,1,14,0:1:0:0:
39,123,30250,5,12,0:1:0:0:
112,192,30558,2,0,P|154:194|194:197,1,56,10|2,0:0|0:0,0:0:0:0:
179,145,30866,2,0,B|275:152|235:90|336:94,1,168,10|2,0:1|0:0,0:0:0:0:
378,74,31482,1,10,0:1:0:0:
473,111,31790,2,0,L|457:199,1,56,10|2,0:0|0:0,0:0:0:0:
465,216,32098,1,10,0:1:0:0:
495,312,32407,1,10,0:0:0:0:
417,376,32715,6,0,P|406:322|369:203,1,168,10|0,0:1|0:0,0:0:0:0:
385,165,33331,2,0,P|329:161|282:189,1,112,10|8,0:1|0:0,0:0:0:0:
289,290,33947,1,10,0:1:0:0:
230,373,34256,1,10,0:0:0:0:
129,365,34564,2,0,P|122:309|116:253,1,112,10|10,0:1|0:0,0:0:0:0:
56,172,35180,6,0,P|2:77|25:10,1,168,14|2,0:1|0:0,0:0:0:0:
63,10,35796,2,0,P|113:23|185:39,1,112,10|8,0:1|0:0,0:0:0:0:
249,101,36413,2,0,L|217:288,1,168,10|2,0:1|0:0,0:0:0:0:
235,314,37029,2,0,P|265:361|328:370,1,112,10|10,0:1|0:0,0:0:0:0:
412,338,37645,6,0,L|440:167,1,168,10|2,0:1|0:0,0:0:0:0:
482,146,38262,1,8,0:1:0:0:
470,48,38570,1,10,0:0:0:0:
370,38,38878,1,10,0:1:0:0:
321,124,39186,1,2,0:0:0:0:
392,196,39494,1,6,0:0:0:0:
317,378,40097,6,0,B|105:344|230:224|41:210,1,336,10|10,0:1|0:1,0:0:0:0:
10,304,41329,2,0,P|82:297|146:289,1,112,10|8,0:1|0:1,0:0:0:0:
212,248,41945,1,10,0:1:0:0:
312,252,42254,1,10,0:1:0:0:
384,324,42562,6,0,P|482:260|404:76,1,336,10|10,0:1|0:1,0:0:0:0:
327,39,43794,2,0,P|273:53|213:62,1,112,10|10,0:1|0:1,0:0:0:0:
172,151,44411,1,14,0:1:0:0:
116,340,45027,6,0,P|220:315|331:377,1,224,14|14,0:1|0:0,0:0:0:0:
397,300,45951,1,10,0:0:0:0:
467,227,46259,2,0,P|483:122|492:74,1,112,10|10,0:0|0:0,0:0:0:0:
401,52,46876,1,10,0:0:0:0:
325,118,47184,1,10,0:1:0:0:
246,55,47492,5,14,0:1:0:0:
48,119,48109,6,0,P|31:178|55:247,1,115.35999903186,12|8,0:1|0:0,0:0:0:0:
78,264,48579,2,0,L|207:248,1,112,10|8,0:1|0:0,0:0:0:0:
219,210,49034,2,0,L|307:198,1,56,8|8,0:0|0:0,0:0:0:0:
322,216,49337,1,4,0:0:0:0:
409,166,49640,1,2,0:0:0:0:
474,240,49941,6,0,P|416:249|375:304,1,112,14|10,0:1|0:0,0:0:0:0:
340,378,50555,2,0,L|246:359,1,56,10|8,0:1|0:1,0:0:0:0:
257,324,50863,1,10,0:0:0:0:
161,356,51170,2,0,P|110:363|47:373,1,112,10|10,0:1|0:0,0:0:0:0:
7,281,51785,2,0,L|79:272,1,56,10|8,0:1|0:1,0:0:0:0:
102,242,52092,1,10,0:0:0:0:
63,149,52399,6,0,L|71:12,1,112,10|10,0:1|0:0,0:0:0:0:
153,92,53014,2,0,L|214:82,1,56,10|10,0:1|0:1,0:0:0:0:
246,115,53321,1,10,0:0:0:0:
325,50,53629,2,0,B|367:60|381:89|381:89|347:285,1,224,10|8,0:1|0:1,0:0:0:0:
393,333,54551,1,10,0:0:0:0:
487,299,54858,6,0,P|486:247|499:163,1,112,14|10,0:1|0:0,0:0:0:0:
444,99,55473,2,0,P|404:120|373:127,1,56,10|8,0:1|0:1,0:0:0:0:
343,123,55780,1,10,0:0:0:0:
299,31,56087,2,0,P|254:15|169:27,1,112,10|10,0:1|0:0,0:0:0:0:
89,20,56702,2,0,P|92:47|96:75,1,56,10|10,0:1|0:1,0:0:0:0:
127,114,57009,1,10,0:0:0:0:
152,211,57316,6,0,P|103:193|5:294,1,168,10|2,0:1|0:0,0:0:0:0:
11,300,57931,1,10,0:1:0:0:
88,364,58238,2,0,P|126:352|148:345,1,56,8|2,0:0|0:0,0:0:0:0:
184,374,58546,2,0,B|292:343|228:304|357:268,1,168,10|10,0:1|0:0,0:0:0:0:
362,306,59160,1,10,0:1:0:0:
416,218,59468,2,0,L|422:139,1,56,8|8,0:1|0:0,0:0:0:0:
422,109,59780,6,0,P|363:157|312:152,1,112,14|8,0:1|0:1,0:0:0:0:
302,121,60241,1,10,0:0:0:0:
302,121,60395,1,10,0:1:0:0:
164,61,60856,1,10,0:0:0:0:
164,61,61010,2,0,P|85:105|72:221,1,168,10|10,0:1|0:0,0:0:0:0:
80,222,61626,1,10,0:1:0:0:
164,276,61933,1,10,0:1:0:0:
241,210,62241,6,0,P|295:199|351:188,1,112,14|10,0:1|0:1,0:0:0:0:
448,175,62850,1,10,0:1:0:0:
452,267,63157,1,10,0:1:0:0:
464,369,63490,2,0,P|392:355|326:343,1,112,12|10,0:1|0:1,0:0:0:0:
266,305,64097,2,0,P|210:315|151:326,1,114.240000697266,8|10,0:1|0:1,0:0:0:0:
56,340,64709,6,0,P|42:277|79:210,1,112,14|8,0:1|0:0,0:0:0:0:
152,198,65331,2,0,P|153:170|155:142,1,56,10|8,0:0|0:1,0:0:0:0:
113,114,65643,2,0,P|111:86|109:58,1,56,8|8,0:0|0:1,0:0:0:0:
94,9,65954,2,0,P|149:14|205:19,1,112,8|8,0:0|0:0,0:0:0:0:
305,10,66577,2,0,L|299:88,1,56,8|8,0:0|0:1,0:0:0:0:
290,115,66888,1,10,0:0:0:0:
239,202,67179,6,0,P|247:285|250:352,1,112,14|8,0:0|0:1,0:0:0:0:
256,363,67628,2,0,B|164:343|164:343|146:307|146:307|44:288,1,224,10|10,0:0|0:1,0:0:0:0:
133,109,69348,5,10,0:0:0:0:
229,79,69654,6,0,P|305:90|329:92,1,56,14|2,0:1|0:0,0:0:0:0:
313,128,69958,2,0,P|380:136|393:137,1,56,10|10,0:0|0:0,0:0:0:0:
405,169,70263,1,10,0:1:0:0:
401,273,70567,1,8,0:0:0:0:
401,273,70719,2,0,P|313:255|231:299,1,168,10|10,0:1|0:0,0:0:0:0:
195,374,71481,1,10,0:1:0:0:
104,329,71785,1,10,0:0:0:0:
14,281,72090,6,0,P|3:234|-11:195,1,56,14|2,0:1|0:0,0:0:0:0:
39,194,72395,2,0,P|50:147|64:108,1,56,10|10,0:0|0:0,0:0:0:0:
38,91,72699,1,10,0:1:0:0:
139,73,73004,1,8,0:0:0:0:
139,73,73156,2,0,B|237:54|188:23|314:-6,1,168,10|10,0:1|0:0,0:0:0:0:
372,65,73929,2,0,P|364:105|347:196,1,112,10|10,0:1|0:2,0:0:0:0:
318,275,74557,6,0,P|266:281|220:285,1,56,14|2,0:1|0:0,0:0:0:0:
226,245,74863,2,0,P|186:248|142:256,1,56,10|10,0:0|0:0,0:0:0:0:
120,243,75169,1,10,0:1:0:0:
38,299,75477,1,8,0:0:0:0:
38,299,75632,2,0,B|98:316|98:316|123:353|123:353|211:379,1,168,10|10,0:1|0:0,0:0:0:0:
268,319,76409,1,10,0:1:0:0:
349,270,76700,1,10,0:0:0:0:
445,305,77005,6,0,P|442:277|440:249,1,56,14|2,0:1|0:0,0:0:0:0:
473,211,77312,2,0,P|470:183|468:155,1,56,10|10,0:0|0:0,0:0:0:0:
431,119,77620,1,10,0:1:0:0:
351,66,77928,1,8,0:0:0:0:
351,66,78089,2,0,P|270:53|184:130,1,168,10|10,0:1|0:0,0:0:0:0:
178,195,78858,1,10,0:1:0:0:
78,212,79166,1,10,0:0:0:0:
58,361,79620,5,14,0:0:0:0:
58,361,79776,2,0,L|147:351,1,56,14|2,0:0|0:0,0:0:0:0:
161,334,80089,1,10,0:1:0:0:
161,334,80245,2,0,L|250:318,1,56,10|10,0:0|0:1,0:0:0:0:
261,302,80551,1,10,0:0:0:0:
470,44,83152,6,0,P|381:42|320:179,1,224,10|10,0:1|0:1,0:0:0:0:
378,220,84068,1,14,0:0:0:0:
378,220,84221,1,14,0:0:0:0:
256,192,84375,12,12,88068,0:1:0:0:
