osu file format v14

[General]
AudioFilename: audio.mp3
AudioLeadIn: 0
PreviewTime: 49337
Countdown: 0
SampleSet: Soft
StackLeniency: 0.4
Mode: 0
LetterboxInBreaks: 0
WidescreenStoryboard: 1

[Editor]
DistanceSpacing: 1.3
BeatDivisor: 4
GridSize: 16
TimelineZoom: 3.999998

[Metadata]
Title:mononoke in the fiction (TV Size)
TitleUnicode:モノノケ・イン・ザ・フィクション (TV Size)
Artist:Lie and a Chameleon
ArtistUnicode:嘘とカメレオン
Creator:Shiino
Version:Hard
Source:虚構推理
Tags:In/Spectre Invented Inference Kyokou Suiri tv size anime opening op japanese jpop j-pop pop
BeatmapID:2305419
BeatmapSetID:1102376

[Difficulty]
HPDrainRate:4.7
CircleSize:3.6
OverallDifficulty:6
ApproachRate:8
SliderMultiplier:1.42
SliderTickRate:1

[Events]
//Background and Video events
0,0,"bg.jpg",0,0
Video,160,"video.mp4"
//Break Periods
//Storyboard Layer 0 (Background)
//Storyboard Layer 1 (Fail)
//Storyboard Layer 2 (Pass)
//Storyboard Layer 3 (Foreground)
//Storyboard Layer 4 (Overlay)
//Storyboard Sound Samples

[TimingPoints]
7936,307.692307692308,4,2,1,70,1,0
7936,-100,4,2,1,70,0,0
8089,400,4,2,1,60,1,0
8089,-142.857142857143,4,2,1,60,0,0
9089,480,4,2,1,60,1,0
9089,-100,4,2,1,60,0,0
9329,400,4,2,1,70,1,0
9329,-111.111111111111,4,2,1,70,0,0
9955,300,4,2,1,40,1,0
9955,-100,4,2,1,40,0,0
10030,-100,4,2,1,50,0,0
10105,-100,4,2,1,60,0,0
10180,-100,4,2,1,70,0,0
10255,292.682926829268,4,2,1,80,1,0
10255,-100,4,2,1,80,0,0
10564,307.692307692308,4,2,1,70,1,0
10564,-100,4,2,1,70,0,0
11179,-83.3333333333333,4,2,1,70,0,0
11640,-100,4,2,1,70,0,0
13640,-83.3333333333333,4,2,1,70,0,0
14102,-100,4,2,1,70,0,0
15025,272.727272727273,4,2,1,70,1,0
15025,-100,4,2,1,70,0,0
15161,300,4,2,1,70,1,0
15161,-100,4,2,1,70,0,0
15483,300,4,2,1,70,1,0
15483,-100,4,2,1,70,0,0
16083,-83.3333333333333,4,2,1,70,0,0
16533,312.093628088427,4,2,1,70,1,0
16533,-100,4,2,1,70,0,0
17313,312.093628088427,4,2,1,70,1,0
17313,-100,4,2,1,70,0,0
17937,307.692307692308,4,2,1,70,1,0
17937,-100,4,2,1,70,0,0
18552,-83.3333333333333,4,2,1,70,0,0
19013,-100,4,2,1,70,0,0
19937,272.727272727273,4,2,1,70,1,0
19937,-100,4,2,1,70,0,0
20073,300,4,2,1,70,1,0
20073,-100,4,2,1,70,0,0
20388,314.96062992126,4,2,1,60,1,0
20388,-111.111111111111,4,2,1,60,0,0
22569,307.692307692308,4,2,1,60,1,0
22569,-100,4,2,1,60,0,0
22870,308.08729139923,4,2,1,60,1,0
22870,-100,4,2,1,60,0,0
30250,308.166409861325,4,2,1,70,1,0
30250,-100,4,2,1,70,0,0
32715,-83.3333333333333,4,2,1,70,0,0
33177,-100,4,2,1,70,0,0
35180,-83.3333333333333,4,2,1,70,0,0
35488,-100,4,2,1,70,0,0
38724,-100,4,2,1,45,0,0
38801,-100,4,2,1,50,0,0
38878,-100,4,2,1,55,0,0
38955,-100,4,2,1,60,0,0
39032,-100,4,2,1,65,0,0
39109,-100,4,2,1,70,0,0
39186,-100,4,2,1,75,0,0
39494,-100,4,2,1,70,0,0
40097,308.166409861325,4,2,1,70,1,0
40097,-111.111111111111,4,2,1,70,0,0
44565,-100,4,2,1,50,0,0
44642,-100,4,2,1,55,0,0
44719,-100,4,2,1,60,0,0
44798,-100,4,2,1,65,0,0
44875,-100,4,2,1,70,0,0
44952,-100,4,2,1,70,0,0
45027,308.245568969946,4,2,1,70,1,0
45027,-83.3333333333333,4,2,1,70,0,0
45489,-100,4,2,1,70,0,0
48428,303.030303030303,4,2,1,70,1,0
48428,-100,4,2,1,70,0,0
49941,307.345558856675,4,2,1,80,1,1
49941,-83.3333333333333,4,2,1,80,0,1
50248,-100,4,2,1,80,0,1
52399,-83.3333333333333,4,2,1,80,0,1
53014,-100,4,2,1,80,0,1
54858,-83.3333333333333,4,2,1,80,0,1
55473,-100,4,2,1,80,0,1
56395,-88.4955752212389,4,2,1,80,0,1
56530,307.345558856675,4,2,1,80,1,1
56530,-100,4,2,1,80,0,1
56702,307.345558856675,4,2,1,80,1,1
56702,-100,4,2,1,80,0,1
59780,307.676529408748,4,2,1,70,1,0
59780,-100,4,2,1,70,0,0
62714,307.676529408748,4,2,1,70,1,0
62714,-100,4,2,1,70,0,0
62850,307.676529408748,4,2,1,70,1,0
62850,-100,4,2,1,70,0,0
63157,333.333333333333,4,2,1,70,1,0
63157,-100,4,2,1,70,0,0
63490,307.676529408748,4,2,1,70,1,0
63490,-100,4,2,1,70,0,0
64097,304.568527918782,4,2,1,70,1,0
64097,-100,4,2,1,70,0,0
64391,304.568527918782,4,2,1,70,1,0
64709,311.364815775817,4,2,1,80,1,1
64709,-83.3333333333333,4,2,1,80,0,1
65020,-100,4,2,1,80,0,1
67026,306.122448979592,4,2,1,80,1,1
67026,-100,4,2,1,80,0,1
67628,315.789473684211,4,2,1,80,1,1
67628,-100,4,2,1,80,0,1
68259,311.364815775817,4,2,1,80,1,0
68259,-100,4,2,1,80,0,0
69654,304.568527918782,4,2,1,80,1,0
69654,-100,4,2,1,80,0,0
70719,-83.3333333333333,4,2,1,80,0,0
71024,-100,4,2,1,80,0,0
72699,-83.3333333333333,4,2,1,80,0,0
73004,-100,4,2,1,80,0,0
73613,315.789473684211,4,2,1,80,1,0
73613,-100,4,2,1,80,0,0
73929,309.278350515464,4,2,1,70,1,0
73929,-100,4,2,1,70,0,0
74083,285.714285714286,4,2,1,70,1,0
74083,-100,4,2,1,70,0,0
74382,322.58064516129,4,2,1,70,1,0
74382,-100,4,2,1,70,0,0
74557,306.122448979592,4,2,1,70,1,0
74557,-100,4,2,1,70,0,0
75169,-83.3333333333333,4,2,1,70,0,0
75477,310.880829015544,4,2,1,70,1,0
75477,-100,4,2,1,70,0,0
76700,310.880829015544,4,2,1,70,1,0
76700,-100,4,2,1,70,0,0
77005,307.692307692308,4,2,1,70,1,0
77005,-100,4,2,1,70,0,0
77620,-83.3333333333333,4,2,1,70,0,0
78089,307.692307692308,4,2,1,70,1,0
78089,-100,4,2,1,70,0,0
79012,285.714285714286,4,2,1,70,1,0
79012,-100,4,2,1,70,0,0
79166,307.692307692308,4,2,1,70,1,0
79166,-100,4,2,1,70,0,0
79464,312.5,4,2,1,70,1,0
79464,-100,4,2,1,70,0,0
80245,285.714285714286,4,2,1,70,1,0
80245,-100,4,2,1,70,0,0
80395,312.5,4,2,1,70,1,0
80395,-100,4,2,1,70,0,0
80688,400,4,2,1,70,1,0
80688,-166.666666666667,4,2,1,70,0,0
81120,458.015267175573,4,2,1,70,1,0
81120,-100,4,2,1,70,0,0
81346,458.015267175573,4,2,1,70,1,0
81346,-100,4,2,1,70,0,0
81549,410.958904109589,4,2,1,70,1,0
81549,-166.666666666667,4,2,1,70,0,0
81958,307.692307692308,4,2,1,70,1,0
81958,-100,4,2,1,70,0,0
83152,300,4,2,1,70,1,0
83152,-100,4,2,1,70,0,0
84068,307.692307692308,4,2,1,70,1,0
84068,-100,4,2,1,70,0,0
84221,-100,4,2,1,70,0,0
84529,-100,4,2,1,65,0,0
85298,-100,4,2,1,60,0,0
85914,-100,4,2,1,55,0,0
86529,-100,4,2,1,50,0,0
87144,-100,4,2,1,45,0,0
87760,-100,4,2,1,40,0,0
88068,-100,4,2,1,50,0,0

[Colours]
Combo1 : 255,128,191
Combo2 : 191,191,191
Combo3 : 191,128,255
Combo4 : 128,191,255

[HitObjects]
270,34,8089,6,0,L|200:28,1,49.6999984832764,10|10,0:0|0:1,0:0:0:0:
150,77,8489,1,10,0:0:0:0:
150,77,8689,1,10,0:1:0:0:
73,43,8889,2,0,L|63:105,1,49.6999984832764,10|10,0:0|0:0,0:0:0:0:
12,167,9329,6,0,B|103:145|76:200|173:178,1,159.749995124817,14|0,0:1|0:0,0:0:0:0:
217,146,9955,6,0,L|222:108,3,35.5,8|8|8|8,0:0|0:0|0:0|0:0,0:0:0:0:
254,94,10255,2,0,L|246:59,3,35.5,8|8|8|8,0:0|0:0|0:0|0:0,0:0:0:0:
293,20,10564,6,0,P|340:10|386:-1,1,71,14|2,0:1|0:0,0:0:0:0:
421,68,10871,1,10,0:0:0:0:
394,149,11025,1,10,0:0:0:0:
476,209,11179,22,0,B|471:187|449:177|449:177|306:207,1,170.399994799805,10|8,0:1|0:0,0:0:0:0:
301,284,11640,2,0,B|245:286|245:286|214:313|214:313|141:318,1,142,10|10,0:1|0:1,0:0:0:0:
88,287,12102,1,10,0:0:0:0:
156,235,12256,1,10,0:0:0:0:
75,207,12410,21,10,0:1:0:0:
205,316,12717,5,10,0:0:0:0:
225,146,13025,6,0,P|239:203|244:246,1,71,14|2,0:1|0:0,0:0:0:0:
306,270,13333,1,10,0:0:0:0:
379,227,13487,1,10,0:0:0:0:
458,291,13640,6,0,B|486:305|504:280|504:280|477:129,1,170.399994799805,10|8,0:1|0:0,0:0:0:0:
506,81,14102,2,0,P|439:81|395:162,1,142,10|10,0:1|0:1,0:0:0:0:
318,172,14564,2,0,P|264:159|218:150,1,71,10|10,0:0|0:0,0:0:0:0:
186,98,14871,2,0,P|146:106|107:116,1,71,10|10,0:1|0:0,0:0:0:0:
33,93,15161,1,10,0:1:0:0:
88,28,15311,1,10,0:0:0:0:
121,141,15483,6,0,P|113:209|110:237,1,71,14|2,0:1|0:0,0:0:0:0:
98,296,15783,1,10,0:0:0:0:
152,361,15933,1,10,0:0:0:0:
228,291,16083,38,0,B|342:278|283:225|413:215,1,170.399994799805,10|8,0:1|0:0,0:0:0:0:
445,171,16533,2,0,B|409:167|389:200|389:200|408:302,1,142,10|10,0:1|0:1,0:0:0:0:
365,350,17001,1,10,0:0:0:0:
316,279,17157,1,10,0:0:0:0:
267,208,17313,5,10,0:1:0:0:
145,327,17625,5,10,0:0:0:0:
16,212,17937,6,0,P|25:133|27:109,1,71,14|2,0:1|0:0,0:0:0:0:
67,67,18244,1,10,0:0:0:0:
103,143,18398,1,10,0:0:0:0:
180,76,18552,6,0,B|247:73|247:73|285:98|285:98|375:92,1,170.399994799805,10|8,0:1|0:0,0:0:0:0:
414,45,19013,2,0,P|378:88|374:198,1,142,10|10,0:1|0:1,0:0:0:0:
320,243,19475,1,10,0:0:0:0:
263,179,19629,1,10,0:0:0:0:
189,222,19783,2,0,P|198:290|202:320,1,71,10|10,0:1|0:0,0:0:0:0:
118,323,20073,2,0,P|112:282|107:242,1,71,10|10,0:1|0:0,0:0:0:0:
0,145,20388,6,0,P|70:133|132:116,1,127.799996099854,14|10,0:1|0:1,0:0:0:0:
159,49,20860,1,2,0:0:0:0:
223,90,21017,2,0,P|211:162|200:228,1,127.799996099854,10|8,0:1|0:1,0:0:0:0:
145,268,21490,1,2,0:0:0:0:
201,319,21647,6,0,P|250:307|333:290,1,127.799996099854,10|10,0:1|0:1,0:0:0:0:
363,223,22120,1,0,0:0:0:0:
435,246,22277,5,10,0:1:0:0:
360,99,22569,5,10,0:3:0:0:
202,141,22870,6,0,B|97:107|97:107|66:112|52:149,1,142,14|8,0:1|0:1,0:0:0:0:
38,191,23332,1,2,0:0:0:0:
11,264,23486,2,0,P|60:215|157:218,1,142,8|8,0:1|0:1,0:0:0:0:
159,279,23948,1,8,0:3:0:0:
238,286,24102,6,0,P|245:232|247:187,1,71,10|0,0:1|0:0,0:0:0:0:
317,184,24410,2,0,P|306:134|298:81,1,71,10|0,0:1|0:0,0:0:0:0:
182,47,24718,6,0,P|238:48|282:45,1,71,10|0,0:1|0:0,0:0:0:0:
330,36,25026,1,10,0:1:0:0:
394,79,25180,1,4,0:3:0:0:
467,31,25334,6,0,B|450:33|435:52|435:52|444:186,1,142,10|8,0:1|0:1,0:0:0:0:
477,224,25796,1,2,0:0:0:0:
397,255,25950,2,0,B|300:232|358:190|250:169,1,142,10|8,0:1|0:1,0:0:0:0:
204,188,26413,1,10,0:3:0:0:
143,127,26567,6,0,P|161:204|176:292,1,142,10|8,0:1|0:1,0:0:0:0:
137,336,27029,1,2,0:0:0:0:
52,317,27183,2,0,P|89:262|180:264,1,142,10|8,0:1|0:1,0:0:0:0:
214,309,27645,1,6,0:3:0:0:
298,290,27799,6,0,B|351:280|351:280|375:254|375:254|454:238,1,142,10|8,0:1|0:1,0:0:0:0:
427,167,28261,1,2,0:0:0:0:
507,136,28415,2,0,P|419:83|371:115,1,142,10|10,0:1|0:1,0:0:0:0:
340,152,28877,1,8,0:3:0:0:
268,120,29031,5,8,0:1:0:0:
132,42,29339,5,10,0:1:0:0:
15,145,29647,5,14,0:1:0:0:
15,145,30250,6,0,L|32:245,1,71,12|2,0:1|0:0,0:0:0:0:
77,274,30558,1,10,0:0:0:0:
65,351,30712,1,2,0:0:0:0:
145,378,30866,6,0,B|241:376|191:331|297:324,1,142,10|8,0:1|0:0,0:0:0:0:
353,358,31328,1,2,0:0:0:0:
428,319,31482,2,0,P|433:235|442:162,1,142,10|10,0:1|0:0,0:0:0:0:
497,114,31944,1,2,0:0:0:0:
421,75,32098,6,0,P|350:64|325:59,1,71,10|0,0:1|0:0,0:0:0:0:
303,144,32407,2,0,P|358:144|388:142,1,71,10|0,0:0|0:0,0:0:0:0:
273,70,32715,6,0,B|240:63|217:79|217:79|205:221,1,170.399994799805,10|8,0:1|0:0,0:0:0:0:
210,275,33177,1,0,0:0:0:0:
309,278,33331,2,0,P|274:214|189:210,1,142,10|8,0:1|0:0,0:0:0:0:
138,246,33793,1,2,0:0:0:0:
40,267,33947,2,0,P|46:190|47:162,1,71,10|0,0:1|0:0,0:0:0:0:
19,114,34256,5,10,0:0:0:0:
102,96,34410,1,2,0:0:0:0:
144,24,34564,2,0,P|187:7|235:18,1,71,10|2,0:1|0:0,0:0:0:0:
256,84,34872,2,0,P|292:100|332:96,1,71,10|2,0:0|0:0,0:0:0:0:
414,33,35180,6,0,P|371:98|365:225,1,170.399994799805,14|8,0:1|0:0,0:0:0:0:
404,259,35642,1,2,0:0:0:0:
467,193,35796,2,0,B|462:174|443:158|443:158|320:166,1,142,10|8,0:1|0:0,0:0:0:0:
286,227,36259,1,2,0:0:0:0:
338,303,36413,6,0,B|282:283|282:283|240:301|240:301|178:280,1,142,10|8,0:1|0:0,0:0:0:0:
128,326,36875,1,2,0:0:0:0:
42,276,37029,2,0,P|32:185|22:102,1,142,10|10,0:1|0:0,0:0:0:0:
36,50,37491,1,2,0:0:0:0:
110,115,37645,6,0,P|177:151|244:95,1,142,10|8,0:1|0:0,0:0:0:0:
219,38,38108,1,2,0:0:0:0:
317,21,38262,2,0,B|341:21|352:48|352:48|336:169,1,142,8|10,0:1|0:0,0:0:0:0:
277,200,38724,1,2,0:0:0:0:
277,200,38801,1,2,0:0:0:0:
277,200,38878,2,0,L|269:259,2,35.5,10|2|2,0:1|0:0|0:0,0:0:0:0:
357,226,39186,5,2,0:0:0:0:
464,93,39494,5,6,0:0:0:0:
134,2,40097,5,10,0:1:0:0:
199,55,40251,2,0,L|184:144,1,63.8999980499268,2|8,0:0|0:1,0:0:0:0:
149,191,40559,1,2,0:0:0:0:
232,190,40713,6,0,P|282:175|311:167,2,63.8999980499268,10|2|10,0:1|0:0|0:1,0:0:0:0:
189,261,41175,1,2,0:0:0:0:
146,324,41329,2,0,P|105:320|72:316,2,63.8999980499268,10|2|8,0:1|0:0|0:1,0:0:0:0:
198,380,41791,1,2,0:0:0:0:
247,321,41945,5,10,0:1:0:0:
118,237,42254,5,10,0:1:0:0:
197,105,42562,5,10,0:1:0:0:
256,153,42716,2,0,P|336:144|345:144,1,63.8999980499268,2|8,0:0|0:1,0:0:0:0:
387,179,43024,1,2,0:0:0:0:
398,103,43178,6,0,P|407:52|411:19,2,63.8999980499268,10|2|10,0:1|0:0|0:1,0:0:0:0:
460,148,43640,1,2,0:0:0:0:
456,224,43794,2,0,P|465:291|468:310,2,63.8999980499268,10|2|10,0:1|0:0|0:1,0:0:0:0:
390,184,44257,1,2,0:0:0:0:
318,212,44411,5,14,0:1:0:0:
301,292,44565,1,8,0:0:0:0:
301,292,44642,1,10,0:0:0:0:
301,292,44719,2,0,L|316:355,3,35.5,8|10|8|8,0:0|0:0|0:0|0:0,0:0:0:0:
302,369,45027,6,0,B|192:356|237:295|121:290,1,170.399994799805,14|8,0:1|0:0,0:0:0:0:
140,377,45489,1,10,0:1:0:0:
62,352,45643,2,0,P|47:306|53:272,1,71,14|8,0:0|0:1,0:0:0:0:
118,226,45951,2,0,P|132:188|127:148,1,71,10|8,0:0|0:1,0:0:0:0:
9,49,46259,6,0,P|38:101|62:112,1,71,10|8,0:0|0:1,0:0:0:0:
135,66,46568,2,0,L|236:54,1,71,10|10,0:0|0:1,0:0:0:0:
283,113,46876,1,10,0:0:0:0:
283,113,46953,1,8,0:0:0:0:
283,113,47030,2,0,L|334:107,2,35.5,8|8|10,0:0|0:0|0:1,0:0:0:0:
229,172,47338,1,8,0:0:0:0:
285,229,47492,5,14,0:1:0:0:
285,229,48109,5,12,0:1:0:0:
433,165,48428,5,8,0:0:0:0:
484,102,48579,2,0,P|412:86|350:150,1,142,10|8,0:1|0:0,0:0:0:0:
274,166,49034,5,8,0:0:0:0:
296,243,49185,1,8,0:0:0:0:
374,220,49337,5,4,0:0:0:0:
374,220,49941,6,0,B|262:231|328:278|193:302,2,170.399994799805,14|10|10,0:1|0:0|0:1,0:0:0:0:
451,157,50709,1,8,0:1:0:0:
512,236,50863,2,0,P|507:276|504:316,1,71,10|0,0:0|0:0,0:0:0:0:
435,357,51170,5,10,0:1:0:0:
351,339,51324,1,0,0:0:0:0:
294,275,51477,2,0,P|255:288|216:296,1,71,10|0,0:0|0:0,0:0:0:0:
176,364,51785,1,10,0:1:0:0:
117,303,51938,1,8,0:1:0:0:
69,374,52092,5,10,0:0:0:0:
3,145,52399,6,0,B|18:22|18:22|44:-4|87:10,2,170.399994799805,10|10|10,0:1|0:0|0:1,0:0:0:0:
55,230,53168,1,10,0:1:0:0:
116,152,53321,2,0,P|172:136|209:158,1,71,10|2,0:0|0:0,0:0:0:0:
228,228,53629,2,0,B|280:237|280:237|303:269|303:269|377:286,1,142,10|8,0:1|0:0,0:0:0:0:
461,152,54243,5,8,0:1:0:0:
408,219,54397,1,8,0:1:0:0:
375,139,54551,2,0,P|383:74|387:54,1,71,10|0,0:0|0:0,0:0:0:0:
272,24,54858,6,0,P|186:-4|128:78,2,170.399994799805,14|10|10,0:1|0:0|0:1,0:0:0:0:
216,106,55626,1,8,0:1:0:0:
283,179,55780,2,0,P|294:221|302:264,1,71,10|0,0:0|0:0,0:0:0:0:
436,288,56087,5,10,0:1:0:0:
362,315,56241,1,2,0:0:0:0:
316,380,56395,2,0,P|274:370|234:364,1,71,10|2,0:0|0:0,0:0:0:0:
150,344,56702,1,10,0:1:0:0:
208,292,56855,1,10,0:1:0:0:
146,243,57009,5,10,0:0:0:0:
263,88,57316,6,0,B|350:84|308:142|419:142,2,142,10|8|10,0:1|0:0|0:1,0:0:0:0:
195,152,58085,1,8,0:1:0:0:
147,73,58238,2,0,P|110:57|70:62,1,71,8|2,0:0|0:0,0:0:0:0:
13,123,58546,1,10,0:1:0:0:
86,178,58699,6,0,L|126:172,2,35.5,8|8|8,0:0|0:0|0:0,0:0:0:0:
39,238,59007,2,0,L|-1:232,2,35.5,10|8|10,0:0|0:0|0:1,0:0:0:0:
88,302,59314,2,0,L|128:296,2,35.5,8|8|8,0:0|0:0|0:1,0:0:0:0:
36,365,59621,1,8,0:0:0:0:
174,374,59780,6,0,B|196:385|217:372|217:372|206:253,1,142,14|8,0:1|0:1,0:0:0:0:
284,244,60241,1,10,0:0:0:0:
341,317,60395,2,0,B|398:312|398:312|422:285|422:285|500:277,1,142,10|8,0:1|0:1,0:0:0:0:
465,368,60856,1,10,0:0:0:0:
423,286,61010,6,0,P|430:204|436:117,1,142,10|8,0:1|0:1,0:0:0:0:
480,72,61472,1,10,0:0:0:0:
404,18,61626,2,0,P|316:29|304:30,1,71,10|0,0:1|0:0,0:0:0:0:
289,102,61933,2,0,P|248:97|205:94,1,71,10|8,0:1|0:0,0:0:0:0:
134,29,62241,6,0,P|197:83|178:161,1,142,14|10,0:1|0:1,0:0:0:0:
112,112,62714,1,8,0:0:0:0:
58,200,62850,2,0,B|118:206|118:206|141:230|141:230|219:238,1,142,10|10,0:1|0:1,0:0:0:0:
282,269,63323,6,0,P|338:255|376:248,1,71,10|12,0:0|0:1,0:0:0:0:
389,174,63643,2,0,P|428:184|467:192,1,71,8|10,0:0|0:1,0:0:0:0:
508,263,63951,1,8,0:0:0:0:
481,339,64097,2,0,L|490:378,2,35.5,8|8|8,0:1|0:0|0:0,0:0:0:0:
422,282,64391,1,10,0:1:0:0:
375,347,64543,1,10,0:0:0:0:
320,242,64709,6,0,B|186:216|186:216|152:228|148:264,1,170.399994799805,14|8,0:1|0:0,0:0:0:0:
111,307,65176,1,10,0:1:0:0:
16,287,65331,2,0,P|25:233|28:195,1,71,10|8,0:0|0:1,0:0:0:0:
105,173,65643,2,0,P|96:119|93:81,1,71,8|8,0:0|0:1,0:0:0:0:
0,29,65954,6,0,P|40:24|80:17,1,71,8|8,0:0|0:1,0:0:0:0:
121,82,66265,2,0,P|160:89|201:93,1,71,8|8,0:0|0:1,0:0:0:0:
258,36,66577,2,0,P|295:21|351:27,1,71,8|8,0:0|0:1,0:0:0:0:
379,88,66888,1,10,0:0:0:0:
457,107,67026,1,8,0:1:0:0:
512,223,67179,6,0,P|499:292|495:322,1,71,14|8,0:0|0:1,0:0:0:0:
441,359,67485,1,8,0:1:0:0:
388,297,67628,2,0,P|319:310|288:314,1,71,10|10,0:0|0:1,0:0:0:0:
242,358,67943,5,8,0:1:0:0:
192,294,68101,1,8,0:0:0:0:
223,217,68259,5,10,0:1:0:0:
223,217,69348,5,10,0:0:0:0:
223,217,69654,6,0,P|220:172|215:122,1,71,14|2,0:1|0:0,0:0:0:0:
232,56,69958,1,10,0:0:0:0:
159,19,70110,1,10,0:0:0:0:
108,82,70263,2,0,B|124:109|147:120|147:120|260:97,1,142,10|8,0:1|0:0,0:0:0:0:
319,27,70719,6,0,B|334:14|369:21|369:21|387:167,1,170.399994799805,10|10,0:1|0:1,0:0:0:0:
455,209,71176,1,10,0:0:0:0:
404,272,71329,1,10,0:0:0:0:
460,329,71481,5,10,0:1:0:0:
307,382,71785,5,10,0:0:0:0:
224,242,72090,6,0,L|134:233,1,71,14|2,0:1|0:0,0:0:0:0:
79,284,72395,1,10,0:0:0:0:
122,352,72547,1,10,0:0:0:0:
220,326,72699,6,0,B|331:313|262:258|407:242,1,170.399994799805,10|8,0:1|0:0,0:0:0:0:
462,279,73156,2,0,P|416:227|410:126,1,142,10|10,0:1|0:1,0:0:0:0:
433,77,73613,2,0,P|361:60|339:54,1,71,10|10,0:0|0:0,0:0:0:0:
304,135,73929,2,0,P|264:137|219:144,1,71,10|10,0:1|0:0,0:0:0:0:
176,77,74225,1,10,0:2:0:0:
146,156,74382,1,10,0:0:0:0:
26,109,74557,6,0,P|39:165|48:205,1,71,14|2,0:1|0:0,0:0:0:0:
118,243,74863,1,10,0:0:0:0:
70,308,75016,1,10,0:0:0:0:
178,345,75169,6,0,B|246:339|246:339|282:312|282:312|368:305,1,170.399994799805,10|8,0:1|0:0,0:0:0:0:
402,364,75632,2,0,B|425:372|451:353|451:353|438:236,1,142,10|10,0:1|0:1,0:0:0:0:
400,172,76098,1,10,0:0:0:0:
455,112,76254,1,10,0:0:0:0:
376,91,76409,5,10,0:1:0:0:
495,190,76700,5,10,0:0:0:0:
332,248,77005,6,0,P|269:240|235:237,1,71,14|2,0:1|0:0,0:0:0:0:
186,290,77312,1,10,0:0:0:0:
137,225,77466,1,10,0:0:0:0:
60,285,77620,6,0,B|31:158|31:158|36:125|76:112,1,170.399994799805,10|8,0:1|0:0,0:0:0:0:
127,147,78089,2,0,B|220:157|177:93|286:103,1,142,10|10,0:1|0:1,0:0:0:0:
349,71,78550,2,0,P|326:136|319:161,1,71,10|10,0:0|0:0,0:0:0:0:
265,190,78858,2,0,P|288:255|294:282,1,71,10|10,0:1|0:0,0:0:0:0:
343,334,79166,1,10,0:0:0:0:
343,334,79319,1,10,0:0:0:0:
184,211,79620,5,14,0:0:0:0:
288,256,79776,2,0,P|339:241|384:231,1,71,14|2,0:0|0:0,0:0:0:0:
415,169,80089,2,0,P|364:154|319:144,1,71,10|10,0:1|0:0,0:0:0:0:
289,88,80395,1,10,0:1:0:0:
250,159,80551,1,10,0:0:0:0:
189,112,80688,6,0,P|182:75|174:54,1,42.5999986999512,14|10,0:1|0:1,0:0:0:0:
120,25,81120,1,14,0:0:0:0:
120,25,81346,1,10,0:1:0:0:
65,78,81549,2,0,L|8:70,2,42.5999986999512,14|10|14,0:0|0:0|0:1,0:0:0:0:
407,313,83152,6,0,L|412:264,3,35.5,10|10|10|10,0:1|0:0|0:0|0:0,0:0:0:0:
378,248,83452,2,0,L|373:199,3,35.5,10|10|10|10,0:1|0:0|0:0|0:0,0:0:0:0:
388,170,83752,1,10,0:1:0:0:
269,294,84068,5,14,0:0:0:0:
269,294,84221,1,14,0:0:0:0:
256,192,84375,12,12,88068,0:1:0:0:
