osu file format v14

[General]
AudioFilename: audio.mp3
AudioLeadIn: 0
PreviewTime: 136567
Countdown: 0
SampleSet: Soft
StackLeniency: 0.7
Mode: 0
LetterboxInBreaks: 0
WidescreenStoryboard: 1

[Editor]
DistanceSpacing: 1
BeatDivisor: 2
GridSize: 32
TimelineZoom: 3.099999

[Metadata]
Title:self-dissociation
TitleUnicode:self-dissociation
Artist:Lidelle x Sobrem x Sennzai
ArtistUnicode:Lidelle × Sobrem × Sennzai
Creator:Zekk
Version:normal
Source:THE BMS OF FIGHTERS XVII -VISION THE RETRO FUTURE-
Tags:electronic english bofxvii fa featured artist mpg mappers guild mappers' guild vision future 黒皇帝 kurokotei
BeatmapID:4287979
BeatmapSetID:2052931

[Difficulty]
HPDrainRate:3
CircleSize:3.1
OverallDifficulty:4
ApproachRate:5
SliderMultiplier:1
SliderTickRate:1

[Events]
//Background and Video events
0,0,"ba9a756bbbe039f41a2f1ec127e941dc2c2c7f40_s2_n3_y1.jpg",0,0
//Break Periods
2,66800,85504
//Storyboard Layer 0 (Background)
//Storyboard Layer 1 (Fail)
//Storyboard Layer 2 (Pass)
//Storyboard Layer 3 (Foreground)
//Storyboard Layer 4 (Overlay)
//Storyboard Sound Samples

[TimingPoints]
6286,314.13612565445,4,2,0,100,1,0
26390,-100,4,2,0,65,0,0
46495,-111.111111111111,4,2,0,65,0,0
61573,-100,4,2,0,65,0,0
66600,306.122448979592,4,2,0,100,1,0
67824,320.855614973262,4,2,0,100,1,0
69107,310.077519379845,4,2,0,100,1,0
70347,298.507462686567,4,2,0,100,1,0
70944,329.67032967033,4,2,0,100,1,0
71603,331.491712707183,4,2,0,100,1,0
72265,322.580645161291,4,2,0,100,1,0
72910,294.117647058824,4,2,0,100,1,0
73498,322.58064516129,4,2,0,100,1,0
74143,317.460317460317,4,2,0,100,1,0
76047,300,4,2,0,100,1,0
76647,333.333333333334,4,2,0,100,1,0
77313,307.692307692308,4,2,0,100,1,0
77928,314.13612565445,4,2,0,100,1,0
78425,382.165605095541,4,2,0,100,1,0
79189,307.692307692306,4,2,0,100,1,0
80419,315.789473684209,4,2,0,100,1,0
81366,355.029585798814,4,2,0,100,1,0
86704,314.13612565445,4,2,0,55,1,0
86704,-125,4,2,0,55,0,0
106808,-111.111111111111,4,2,0,65,0,0
116703,-111.111111111111,4,2,0,80,0,0
116861,-100,4,2,0,75,0,0
134452,-100,4,2,0,85,0,0
147018,-100,4,2,0,90,0,0
153929,-100,4,2,0,70,0,0

[Colours]
Combo1 : 17,254,176
Combo2 : 173,255,95
Combo3 : 255,88,100
Combo4 : 255,94,55

[HitObjects]
31,123,26390,6,0,L|150:146,1,100,4|8,1:0|0:0,0:0:0:0:
163,178,26861,2,0,P|207:161|233:98,1,100,0|0,0:0|1:0,0:0:0:0:
247,68,27333,1,8,0:0:0:0:
335,20,27647,2,0,L|349:84,2,50,0|0|8,3:0|0:0|0:0,0:0:0:0:
433,34,28275,2,0,L|449:97,1,50,0|0,3:0|1:0,0:0:0:0:
481,117,28589,1,8,0:0:0:0:
403,180,28903,6,0,B|342:157|360:191|280:151,1,100,0|8,3:0|0:0,0:0:0:0:
261,186,29375,2,0,L|139:160,1,100
117,145,29846,1,8,0:0:0:0:
67,231,30160,6,0,P|74:287|124:308,1,100,0|8,3:0|0:0,0:0:0:0:
199,348,30788,2,0,P|242:338|255:269,1,100,0|8,0:0|0:0,0:0:0:0:
181,231,31416,6,0,L|166:121,1,100,2|8,3:2|0:0,0:0:0:0:
122,108,31888,2,0,L|211:32,1,100,2|0,0:0|1:0,0:0:0:0:
242,19,32359,1,8,0:0:0:0:
326,72,32673,2,0,L|415:93,1,50,2|0,0:0|0:0,0:0:0:0:
424,77,32987,1,8,0:0:0:0:
500,140,33301,2,0,L|511:91,2,50,0|0|8,1:0|3:0|0:0,0:0:0:0:
409,181,33929,6,0,P|363:203|282:193,1,100,0|8,1:0|0:0,0:0:0:0:
271,229,34401,2,0,P|228:214|192:159,1,100,0|0,0:0|3:0,0:0:0:0:
179,124,34872,1,8,0:0:0:0:
95,178,35186,2,0,L|72:258,1,50,0|0,3:0|1:0,0:0:0:0:
47,263,35500,2,0,P|70:308|121:336,1,100,8|0,0:0|0:0,0:0:0:0:
198,285,36128,2,0,L|280:272,1,50,8|0,0:0|0:0,0:0:0:0:
297,270,36443,5,4,1:0:0:0:
482,343,36914,1,0,3:0:0:0:
482,343,37071,2,0,P|497:308|481:238,2,100,0|8|0,0:0|0:0|3:0,0:0:0:0:
389,306,38013,2,0,L|258:319,1,100,8|0,0:0|0:0,0:0:0:0:
250,347,38484,1,0,3:0:0:0:
250,347,38642,2,0,P|206:342|145:277,1,100,8|0,0:0|3:0,0:0:0:0:
131,214,39270,1,8,0:0:0:0:
87,124,39584,2,0,L|150:117,1,50,0|0,0:0|3:0,0:0:0:0:
181,95,39898,6,0,P|212:116|297:116,1,100,8|0,0:0|3:0,0:0:0:0:
363,80,40526,2,0,L|376:169,2,75,8|8|0,0:0|0:0|3:0,0:0:0:0:
352,30,41155,1,8,0:0:0:0:
254,50,41469,6,0,B|215:57|215:57|196:53|196:53|131:63,1,100,2|8,3:2|0:0,0:0:0:0:
110,38,41940,2,0,P|80:83|85:132,1,100,2|0,0:0|3:0,0:0:0:0:
50,164,42411,1,8,0:0:0:0:
23,260,42725,6,0,L|136:240,1,100,0|8,0:0|0:0,0:0:0:0:
217,214,43354,2,0,L|237:274,1,50,0|0,3:0|3:0,0:0:0:0:
216,308,43668,1,8,0:0:0:0:
313,329,43982,6,0,P|365:333|430:303,1,100,2|8,3:2|0:0,0:0:0:0:
443,280,44453,2,0,P|459:230|434:173,1,100,2|0,0:0|0:0,0:0:0:0:
398,168,44924,1,8,0:0:0:0:
301,193,45238,2,0,L|217:179,1,50,0|0,1:0|3:0,0:0:0:0:
206,206,45553,1,8,0:0:0:0:
111,174,45867,1,2,1:2:0:0:
111,174,46495,6,0,L|129:60,1,89.9999972534181,2|2,3:2|0:0,0:0:0:0:
205,45,47123,2,0,B|252:55|252:55|254:58|254:58|370:78,1,134.999995880127,10|0,0:0|0:0,0:0:0:0:
378,58,47751,2,0,L|389:128,2,44.999998626709,2|2|2,0:0|3:2|3:2,0:0:0:0:
467,45,48380,2,0,P|496:73|479:145,1,89.9999972534181,10|0,0:0|0:0,0:0:0:0:
424,172,49008,6,0,L|345:183,1,44.999998626709,0|0,3:0|0:0,0:0:0:0:
335,188,49322,1,2,3:2:0:0:
271,251,49636,2,0,P|230:251|170:216,1,89.9999972534181,10|0,0:0|0:0,0:0:0:0:
119,170,50265,2,0,L|23:187,1,89.9999972534181,2|0,3:2|1:0,0:0:0:0:
12,227,50736,2,0,B|3:277|3:277|29:337,1,89.9999972534181,0|0,3:0|0:0,0:0:0:0:
54,339,51207,1,10,1:2:0:0:
125,284,51521,5,2,3:1:0:0:
198,336,51835,2,0,P|249:337|310:298,2,89.9999972534181,0|8|2,3:0|0:0|0:0,0:0:0:0:
160,311,52621,1,2,3:2:0:0:
160,311,52778,2,0,L|186:187,1,89.9999972534181,2|0,0:0|3:0,0:0:0:0:
229,148,53406,2,2,B|281:137|281:137|285:133|285:133|290:135|290:135|339:122|339:122|319:151,1,134.999995880127,10|2,0:0|3:1,0:1:0:0:
330,182,54034,6,0,L|353:286,1,89.9999972534181,2|0,0:0|1:0,0:0:0:0:
407,338,54662,2,2,P|447:317|453:259,1,89.9999972534181,8|2,0:0|0:1,0:1:0:0:
490,244,55134,1,0,0:0:0:0:
490,244,55291,2,0,L|470:135,1,89.9999972534181,2|8,3:2|0:0,0:0:0:0:
434,74,55919,2,0,L|381:60,1,44.999998626709,8|8,1:2|1:2,0:0:0:0:
345,68,56233,1,0,0:0:0:0:
268,115,56547,6,0,L|143:145,1,89.9999972534181,2|2,0:0|3:2,0:0:0:0:
101,179,57176,1,8,0:0:0:0:
33,95,57490,2,0,L|19:153,2,44.999998626709,0|0|2,0:0|0:0|3:2,0:0:0:0:
105,41,58118,1,0,3:0:0:0:
193,59,58432,2,0,P|232:77|291:78,1,89.9999972534181,10|0,0:0|0:0,0:0:0:0:
364,107,59060,6,0,P|270:128|221:210,1,179.999994506836,2|8,0:0|0:0,0:0:0:0:
272,269,60003,1,0,3:0:0:0:
190,306,60317,2,0,L|110:293,2,59.9999981689454,2|0|0,1:0|0:0|0:0,0:0:0:0:
229,351,60945,2,0,P|273:360|319:349,1,89.9999972534181,8|2,0:0|3:2,0:0:0:0:
403,301,61573,6,0,L|376:139,1,150,4|0,1:2|3:0,0:0:0:0:
352,109,62202,2,0,P|315:144|241:140,1,100,8|0,0:0|3:0,0:0:0:0:
177,191,62830,1,4,3:2:0:0:
160,92,63144,1,0,1:0:0:0:
85,158,63458,2,0,L|105:293,1,100,8|0,0:0|0:0,0:0:0:0:
80,303,63929,1,0,1:0:0:0:
80,303,64087,6,0,P|118:333|177:341,1,100,8|0,0:0|3:0,0:0:0:0:
267,331,64715,2,0,P|321:304|348:236,1,100,8|2,0:0|3:2,0:0:0:0:
279,193,65343,2,0,B|181:171|218:212|116:173,1,150,10|2,0:2|0:2,0:0:0:0:
92,146,65971,1,8,0:0:0:0:
166,79,66285,1,8,0:0:0:0:
265,106,66600,1,2,0:0:0:0:
18,187,86704,5,4,0:0:0:0:
336,157,87960,1,2,0:0:0:0:
321,316,88588,1,2,0:0:0:0:
163,286,89217,2,0,P|156:187|201:38,1,240,2|0,0:0|0:0,0:0:0:0:
432,68,91101,1,2,0:0:0:0:
353,85,91416,1,2,0:0:0:0:
369,163,91730,5,2,0:0:0:0:
369,163,92986,1,2,0:0:0:0:
349,321,93614,1,2,0:0:0:0:
235,207,94243,2,0,P|178:227|21:192,1,200,2|0,0:0|0:0,0:0:0:0:
51,86,95499,1,2,0:0:0:0:
211,85,96128,1,2,0:0:0:0:
215,244,96756,5,2,0:0:0:0:
293,227,97070,2,0,L|398:238,1,80,2|2,0:0|0:0,0:0:0:0:
427,128,97855,2,0,P|415:85|369:49,1,80
198,5,98955,1,2,0:0:0:0:
133,52,99269,2,0,L|103:241,1,160,2|2,0:0|0:0,0:0:0:0:
15,340,100525,6,0,P|55:334|105:334,1,80,2|0,0:0|0:0,0:0:0:0:
166,298,101154,2,0,P|207:307|290:288,1,120,2|0,0:0|0:0,0:0:0:0:
316,270,101782,1,2,0:0:0:0:
316,270,103039,1,2,0:0:0:0:
67,68,104295,1,2,0:0:0:0:
225,46,104923,1,2,0:0:0:0:
247,204,105552,1,2,0:0:0:0:
90,236,106180,1,2,0:0:0:0:
253,310,106808,6,0,L|377:332,1,89.9999972534181,4|0,1:2|1:0,0:0:0:0:
409,266,107436,2,0,P|432:222|422:163,1,89.9999972534181,0|0,1:0|1:0,0:0:0:0:
351,138,108065,1,0,1:0:0:0:
272,182,108379,1,0,1:0:0:0:
188,149,108693,2,0,L|71:112,2,89.9999972534181,0|0|0,1:0|1:0|1:0,0:0:0:0:
188,238,109635,6,0,P|181:273|135:316,1,89.9999972534181,0|0,1:0|1:0,0:0:0:0:
58,285,110264,1,0,1:0:0:0:
42,196,110578,2,0,L|56:96,1,89.9999972534181,0|0,1:0|1:0,0:0:0:0:
119,44,111206,2,0,L|221:66,1,89.9999972534181,0|0,1:0|1:0,0:0:0:0:
290,29,111834,6,0,L|300:79,1,44.999998626709,0|0,1:0|1:0,0:0:0:0:
315,115,112149,1,0,1:0:0:0:
287,205,112463,1,0,1:0:0:0:
287,205,112620,1,0,1:0:0:0:
287,205,112777,2,0,L|275:268,1,44.999998626709,0|0,1:0|1:0,0:0:0:0:
262,291,113091,6,0,P|227:302|157:271,1,89.9999972534181,0|0,1:0|1:0,0:0:0:0:
131,289,113562,1,0,3:0:0:0:
90,263,113719,2,0,P|76:217|97:151,1,89.9999972534181,0|0,1:0|1:3,0:0:0:0:
146,112,114347,1,2,3:0:0:0:
224,157,114662,2,0,L|291:147,1,44.999998626709,0|0,3:0|3:0,0:0:0:0:
307,127,114976,1,2,3:3:0:0:
372,176,115290,2,0,L|428:160,2,44.999998626709,8|8|0,3:2|3:2|0:0,0:0:0:0:
2,329,116861,6,0,L|111:316,1,100,4|8,1:0|0:0,0:0:0:0:
137,282,117332,1,0,3:0:0:0:
137,282,117489,2,0,P|164:304|234:325,1,100,0|8,1:0|0:0,0:2:0:0:
324,334,118117,1,0,1:0:0:0:
385,255,118431,2,0,L|373:202,1,50,8|2,3:2|3:0,0:0:0:0:
344,166,118745,6,0,L|225:187,1,100,0|8,1:0|0:0,0:0:0:0:
197,197,119217,1,0,3:0:0:0:
197,197,119374,2,0,P|176:138|198:85,1,100,0|10,1:0|3:2,0:0:0:0:
154,63,119845,1,2,0:0:0:0:
113,33,120002,2,0,P|80:46|53:119,1,100,2|10,1:2|3:2,0:0:0:0:
75,197,120630,1,0,1:0:0:0:
75,197,120787,2,0,L|53:300,1,100,0|0,3:0|3:0,0:0:0:0:
39,342,121258,1,2,1:2:0:0:
133,309,121573,5,8,0:0:0:0:
172,339,121730,2,0,P|240:347|347:298,1,150,0|8,3:0|0:0,0:0:0:0:
369,237,122515,2,0,P|366:177|351:137,1,100,0|8,1:0|0:0,0:0:0:0:
263,94,123143,2,0,L|135:111,1,100,0|14,1:0|0:0,0:0:0:0:
117,126,123614,2,0,P|125:173|122:232,1,100,0|0,0:0|3:0,0:0:0:0:
89,262,124086,1,8,0:0:0:0:
27,182,124400,6,0,P|25:132|41:75,1,100,0|10,1:0|0:2,0:0:0:0:
77,55,124871,2,0,L|215:74,1,100,0|0,3:0|0:0,0:0:0:0:
211,104,125342,2,0,L|199:172,1,50,8|0,0:0|0:0,0:0:0:0:
229,194,125656,1,0,1:0:0:0:
311,157,125971,1,8,0:0:0:0:
392,214,126285,2,2,P|407:155|391:82,1,100,2|0,1:2|1:0,0:2:0:0:
320,60,126913,5,4,1:2:0:0:
222,36,127227,1,4,1:2:0:0:
148,103,127541,1,4,1:2:0:0:
55,65,127855,1,4,1:2:0:0:
41,164,128169,6,0,L|65:284,1,100,0|4,1:0|1:2,0:0:0:0:
153,299,128798,1,0,1:0:0:0:
153,299,129007,2,0,L|243:319,1,66.6666666666667,4|4,1:2|1:2,0:0:0:0:
276,346,129426,6,0,P|321:329|358:263,1,100,0|0,1:0|1:0,0:0:0:0:
363,189,130054,2,0,L|280:209,2,66.6666666666667,2|0|0,1:0|1:0|1:0,0:0:0:0:
413,145,130683,2,0,P|420:99|386:19,2,100,8|8|8,1:2|1:2|1:2,0:0:0:0:
244,252,131939,6,0,L|128:273,1,100,4|4,1:2|1:2,0:0:0:0:
98,253,132410,1,0,0:0:0:0:
98,253,132567,2,0,P|74:209|98:132,1,100,4|4,1:2|1:2,0:0:0:0:
108,120,133039,1,4,1:2:0:0:
108,120,133196,1,0,1:0:0:0:
203,150,133510,1,4,1:1:0:0:
300,173,133824,2,0,L|419:152,1,100,2|2,1:3|1:2,0:0:0:0:
437,186,134295,1,2,1:2:0:0:
437,186,134452,6,0,L|429:271,1,50,0|0,1:0|0:0,0:0:0:0:
410,280,134766,1,0,1:0:0:0:
310,269,135080,2,0,L|299:342,1,50,0|0,1:0|0:0,0:0:0:0:
268,355,135395,1,0,1:0:0:0:
192,289,135709,1,0,1:0:0:0:
92,302,136023,2,2,P|83:252|108:199,1,100,4|8,1:0|3:0,0:1:0:0:
142,180,136494,1,4,3:0:0:0:
142,180,136651,2,2,L|219:202,1,50,2|2,1:1|0:1,0:1:0:0:
236,212,136965,6,0,P|281:217|348:176,1,100,4|8,1:2|0:0,0:0:0:0:
366,102,137594,2,0,L|250:83,1,100,0|8,1:0|0:0,0:0:0:0:
226,57,138065,1,0,3:0:0:0:
226,57,138222,2,0,P|194:87|109:97,1,100,0|8,1:0|0:0,0:0:0:0:
74,176,138850,1,0,1:0:0:0:
74,176,139007,1,2,3:2:0:0:
74,176,139164,2,0,L|100:250,1,50,8|0,0:0|0:0,0:0:0:0:
135,257,139478,6,0,P|172:223|235:209,1,100,0|8,1:0|0:0,0:0:0:0:
317,225,140107,1,2,1:2:0:0:
317,324,140421,2,0,L|385:337,1,50,8|0,0:0|3:0,0:0:0:0:
415,338,140735,6,0,P|452:297|447:236,1,100,0|8,1:0|0:0,0:0:0:0:
440,206,141206,2,0,P|412:163|349:149,1,100,0|0,3:0|3:0,0:0:0:0:
321,166,141677,1,8,0:0:0:0:
238,211,141991,2,0,L|146:237,1,50,4|0,1:2|0:0,0:0:0:0:
139,222,142306,1,14,0:2:0:0:
73,146,142620,5,0,1:2:0:0:
73,146,142777,1,2,3:2:0:0:
73,146,142934,2,0,L|86:41,1,100,10|2,3:2|1:2,0:0:0:0:
179,12,143562,2,0,L|251:27,1,50,8|0,0:0|3:0,0:0:0:0:
237,71,143876,1,0,1:0:0:0:
336,44,144190,1,8,0:0:0:0:
336,44,144347,1,0,0:0:0:0:
336,44,144505,6,0,P|368:82|358:157,1,100,0|10,1:0|3:2,0:0:0:0:
343,226,145133,2,0,P|299:228|243:198,1,100,0|8,1:0|0:0,0:0:0:0:
197,118,145761,2,0,L|77:143,1,100,0|8,1:0|0:0,0:0:0:0:
51,154,146232,2,0,B|45:201|45:201|58:270,1,100,0|0,3:0|3:0,0:0:0:0:
85,291,146703,1,4,3:2:0:0:
128,316,146861,1,0,3:0:0:0:
171,340,147018,6,0,L|309:316,1,100,4|0,1:2|1:0,0:0:0:0:
367,340,147646,2,0,B|388:298|388:298|362:218,1,100,0|0,1:0|1:0,0:1:0:0:
291,195,148274,1,0,1:0:0:0:
204,244,148588,1,0,1:0:0:0:
129,177,148902,2,0,L|151:89,2,66.6666666666667,0|0|0,1:0|1:0|1:0,0:0:0:0:
75,217,149531,6,0,P|74:279|101:318,1,100,0|0,1:0|1:0,0:0:0:0:
191,323,150159,2,0,L|282:344,2,66.6666666666667,0|0|0,1:0|1:0|1:0,0:0:0:0:
174,258,150787,2,0,L|209:129,1,100,0|0,1:0|1:0,0:0:0:0:
291,120,151416,1,0,3:0:0:0:
362,190,151730,1,8,1:2:0:0:
311,276,152044,6,0,P|269:286|192:270,1,100,2|2,3:0|3:0,0:0:0:0:
116,306,152672,2,0,P|94:283|81:205,1,100,2|2,3:0|3:0,0:0:0:0:
85,118,153300,1,0,1:0:0:0:
171,168,153614,1,0,1:0:0:0:
253,111,153929,2,0,B|277:103|277:103|282:104|282:104|367:83,1,100,2|2,1:3|0:3,0:0:0:0:
431,144,154557,5,2,1:3:0:0:
402,239,154871,1,2,1:3:0:0:
308,204,155185,1,2,1:3:0:0:
285,301,155499,1,2,1:3:0:0:
192,262,155813,2,0,L|64:280,1,100,2|2,1:3|0:1,0:0:0:0:
36,193,156442,1,2,0:1:0:0:
126,149,156756,2,2,L|191:171,1,50,2|2,0:1|0:1,0:1:0:0:
219,183,157070,1,4,0:2:0:0:
