osu file format v14

[General]
AudioFilename: audio.mp3
AudioLeadIn: 0
PreviewTime: 136567
Countdown: 0
SampleSet: Soft
StackLeniency: 0.7
Mode: 0
LetterboxInBreaks: 0
WidescreenStoryboard: 1

[Editor]
DistanceSpacing: 1
BeatDivisor: 4
GridSize: 32
TimelineZoom: 3.099999

[Metadata]
Title:self-dissociation
TitleUnicode:self-dissociation
Artist:Lidelle x Sobrem x Sennzai
ArtistUnicode:Lidelle × Sobrem × Sennzai
Creator:Zekk
Version:insane
Source:THE BMS OF FIGHTERS XVII -VISION THE RETRO FUTURE-
Tags:electronic english bofxvii fa featured artist mpg mappers guild mappers' guild vision future 黒皇帝 kurokotei
BeatmapID:4287978
BeatmapSetID:2052931

[Difficulty]
HPDrainRate:5
CircleSize:4.1
OverallDifficulty:8
ApproachRate:8.7
SliderMultiplier:1.6
SliderTickRate:1

[Events]
//Background and Video events
0,0,"ba9a756bbbe039f41a2f1ec127e941dc2c2c7f40_s2_n3_y1.jpg",0,0
//Break Periods
2,66800,86059
//Storyboard Layer 0 (Background)
//Storyboard Layer 1 (Fail)
//Storyboard Layer 2 (Pass)
//Storyboard Layer 3 (Foreground)
//Storyboard Layer 4 (Overlay)
//Storyboard Sound Samples

[TimingPoints]
6286,314.13612565445,4,2,0,100,1,0
26390,-100,4,2,0,65,0,0
45867,-133.333333333333,4,2,0,65,0,0
46495,-111.111111111111,4,2,0,65,0,0
51207,-86.9565217391304,4,2,0,65,0,0
51521,-111.111111111111,4,2,0,65,0,0
53406,-76.9230769230769,4,2,0,65,0,0
53877,-111.111111111111,4,2,0,65,0,0
56076,-100,4,2,0,65,0,0
63694,-66.6666666666667,4,2,0,65,0,0
64087,-100,4,2,0,65,0,0
66600,306.122448979592,4,2,0,100,1,0
67824,320.855614973262,4,2,0,100,1,0
69107,310.077519379845,4,2,0,100,1,0
70347,298.507462686567,4,2,0,100,1,0
70944,329.67032967033,4,2,0,100,1,0
71603,331.491712707183,4,2,0,100,1,0
72265,322.580645161291,4,2,0,100,1,0
72910,294.117647058824,4,2,0,100,1,0
73498,322.58064516129,4,2,0,100,1,0
74143,317.460317460317,4,2,0,100,1,0
76047,300,4,2,0,100,1,0
76647,333.333333333334,4,2,0,100,1,0
77313,307.692307692308,4,2,0,100,1,0
77928,314.13612565445,4,2,0,100,1,0
78425,382.165605095541,4,2,0,100,1,0
79189,307.692307692306,4,2,0,100,1,0
80419,315.789473684209,4,2,0,100,1,0
81366,355.029585798814,4,2,0,100,1,0
86704,314.13612565445,4,2,0,55,1,0
86704,-222.222222222221,4,2,0,55,0,0
97070,-133.333333333333,4,2,0,55,0,0
106808,-111.111111111111,4,2,0,65,0,0
112463,-100,4,2,0,65,0,0
116703,-100,4,2,0,80,0,0
116861,-100,4,2,0,75,0,0
126913,-90.9090909090909,4,2,0,75,0,0
134452,-90.9090909090909,4,2,0,85,0,0
135709,-66.6666666666667,4,2,0,85,0,0
136965,-90.9090909090909,4,2,0,85,0,0
147018,-90.9090909090909,4,2,0,90,0,0
153929,-90.9090909090909,4,2,0,70,0,0

[Colours]
Combo1 : 17,254,176
Combo2 : 173,255,95
Combo3 : 255,88,100
Combo4 : 255,94,55

[HitObjects]
463,130,26390,6,0,P|410:173|309:152,1,160,4|8,1:0|0:0,0:0:0:0:
247,170,26861,2,0,L|277:75,1,80,0|0,0:0|3:0,0:0:0:0:
99,183,27176,5,0,1:0:0:0:
99,183,27333,2,0,P|75:234|84:308,1,120,8|0,0:0|0:0,0:0:0:0:
79,296,27647,2,0,L|159:316,1,80,0|0,3:0|0:0,0:0:0:0:
273,375,27961,5,8,0:0:0:0:
322,317,28118,2,0,L|306:257,2,40,2|2|0,0:0|0:0|3:0,0:0:0:0:
248,204,28432,1,0,1:0:0:0:
250,193,28511,1,0,0:0:0:0:
256,183,28589,2,0,L|386:208,1,120,8|0,0:0|0:0,0:0:0:0:
373,205,28903,6,0,P|387:236|401:297,1,80,0|0,3:0|0:0,0:0:0:0:
184,373,29217,2,0,P|142:307|180:212,1,160,8|0,0:0|0:0,0:0:0:0:
256,183,29689,1,0,0:0:0:0:
176,75,29846,6,0,L|33:36,1,120,8|0,0:0|0:0,0:0:0:0:
60,43,30160,2,0,P|46:77|45:138,1,80,0|0,3:0|0:0,0:0:0:0:
21,239,30474,6,0,L|117:226,1,80,8|0,0:0|1:0,0:0:0:0:
131,245,30710,2,0,P|183:255|264:205,1,120,8|0,0:0|1:0,0:0:0:0:
390,185,31102,1,8,0:0:0:0:
290,129,31259,1,0,0:0:0:0:
302,320,31416,6,0,B|384:298|374:352|473:310,1,160,2|8,3:2|0:0,0:0:0:0:
499,203,31888,2,0,P|481:158|511:67,1,120,2|0,0:0|0:0,0:0:0:0:
499,83,32202,1,0,1:0:0:0:
347,13,32359,6,0,L|366:104,1,80,8|2,0:0|0:0,0:0:0:0:
405,173,32673,1,2,0:0:0:0:
403,180,32751,2,0,P|348:167|277:156,1,120,0|8,0:0|0:0,0:0:0:0:
153,95,33144,1,0,0:0:0:0:
153,95,33223,1,0,3:0:0:0:
153,95,33301,1,0,1:0:0:0:
187,251,33458,1,0,3:0:0:0:
50,189,33615,1,8,0:0:0:0:
35,281,33772,5,0,3:0:0:0:
41,288,33851,1,0,3:0:0:0:
41,288,33929,2,0,B|87:295|87:295|114:322|114:322|201:335,1,160,0|8,1:0|0:0,0:0:0:0:
355,347,34401,2,0,B|309:363|309:363|247:328|284:251,1,160,0|0,0:0|3:0,0:0:0:0:
386,137,34872,2,0,P|398:169|385:229,1,80,8|0,0:0|0:0,0:0:0:0:
392,213,35107,2,0,L|318:200,1,40,8|0,0:0|3:0,0:0:0:0:
255,199,35265,5,0,0:0:0:0:
255,199,35343,1,0,1:0:0:0:
104,56,35500,2,0,L|194:68,1,80,8|0,0:0|0:0,0:0:0:0:
183,66,35736,2,0,P|172:101|171:159,1,80,0|0,1:0|3:0,0:0:0:0:
170,144,35971,1,0,0:0:0:0:
160,248,36128,6,0,P|99:257|27:215,1,120,8|0,0:0|3:0,0:0:0:0:
26,213,36443,2,0,L|17:275,1,40,4|0,1:0|0:0,0:0:0:0:
288,348,36757,6,0,L|476:336,1,160,8|0,0:0|0:0,0:0:0:0:
334,211,37228,1,0,3:0:0:0:
334,211,37385,2,0,P|312:156|329:86,1,120,8|0,0:0|0:0,0:0:0:0:
324,77,37699,6,0,P|357:74|419:100,1,80,0|0,3:0|0:0,0:0:0:0:
236,163,38013,1,8,0:0:0:0:
236,163,38170,2,0,B|144:138|165:189|51:141,1,160,0|0,0:0|3:0,0:0:0:0:
7,268,38642,2,0,B|53:303|109:273|109:273|91:301|49:297,1,160,8|0,0:0|3:0,0:0:0:0:
236,163,39270,6,0,L|245:255,1,80,8|2,0:0|0:0,0:0:0:0:
179,311,39584,2,0,L|325:339,1,120
313,344,39898,1,8,0:0:0:0:
361,186,40055,1,0,0:0:0:0:
504,329,40212,6,0,P|456:290|344:280,1,160,0|8,3:0|0:0,0:0:0:0:
189,156,40683,1,0,3:0:0:0:
189,156,40762,1,8,0:0:0:0:
189,156,40840,2,0,P|235:155|285:145,1,80,0|0,0:0|3:0,0:0:0:0:
268,149,41155,2,0,P|277:186|274:247,1,80,8|0,0:0|0:0,0:0:0:0:
74,345,41469,6,0,P|44:294|67:211,1,120,2|0,3:2|0:0,0:0:0:0:
75,222,41783,1,8,0:0:0:0:
62,73,41940,2,0,P|96:129|201:144,1,160,2|0,0:0|3:0,0:0:0:0:
352,169,42411,2,0,P|370:112|364:28,1,120,8|0,0:0|0:0,0:0:0:0:
373,42,42725,6,0,L|469:59,1,80,0|0,0:0|3:0,0:0:0:0:
262,164,43039,2,0,L|166:146,1,80,8|0,0:0|0:0,0:0:0:0:
183,149,43275,1,0,3:0:0:0:
183,149,43354,1,0,3:0:0:0:
227,236,43511,2,0,L|244:304,1,40,0|0,3:0|0:0,0:0:0:0:
177,333,43668,2,0,B|229:323|229:323|264:351|323:333,1,120,8|0,0:0|3:0,0:0:0:0:
307,356,43982,6,0,P|338:321|463:311,1,160,2|8,3:2|0:0,0:0:0:0:
328,104,44453,2,0,P|357:156|440:184,1,120,2|0,0:0|0:0,0:0:0:0:
424,180,44767,1,0,0:0:0:0:
230,194,44924,6,0,L|134:200,1,80,8|0,0:0|0:0,0:0:0:0:
134,214,45160,2,0,B|113:176|113:176|132:108,1,80,8|0,1:0|0:0,0:0:0:0:
176,83,45395,5,0,3:0:0:0:
176,83,45474,1,0,3:0:0:0:
176,83,45553,2,0,P|216:86|263:98,1,80,8|0,0:0|0:0,0:0:0:0:
365,294,45867,6,0,P|314:316|207:254,1,180.000006866455,2|2,1:2|0:3,0:0:0:0:
211,263,46495,6,0,P|219:224|239:171,1,71.9999978027344,2|0,3:2|0:0,0:0:0:0:
370,84,46809,2,0,P|382:138|335:213,1,143.999995605469,2|10,0:0|0:0,0:0:0:0:
202,92,47280,6,0,L|154:110,2,35.9999989013672
321,28,47594,1,0,0:0:0:0:
321,28,47673,1,0,0:0:0:0:
321,28,47751,2,0,L|398:47,1,71.9999978027344,2|2,0:0|3:2,0:0:0:0:
491,152,48066,5,2,3:2:0:0:
470,227,48223,1,0,0:0:0:0:
423,289,48380,2,0,B|372:261|376:200|376:200|411:161,1,143.999995605469,10|0,0:0|0:0,0:0:0:0:
116,222,49008,5,0,3:0:0:0:
116,222,49165,1,0,0:0:0:0:
18,128,49322,2,0,B|97:109|84:159|168:124,1,143.999995605469,2|10,3:2|0:0,3:0:0:0:
158,127,49793,1,0,0:0:0:0:
199,315,49950,6,0,P|209:280|201:233,1,71.9999978027344,0|0,0:0|3:0,0:0:0:0:
350,122,50265,1,2,3:2:0:0:
325,220,50422,1,8,0:0:0:0:
431,243,50579,1,0,1:0:0:0:
412,50,50736,6,0,P|370:75|254:51,1,143.999995605469,0|0,3:0|0:0,0:0:0:0:
47,47,51207,2,2,P|108:23|197:41,1,138.000002632141,10|2,1:2|3:1,0:1:0:0:
178,31,51521,6,0,L|162:125,1,71.9999978027344,2|0,3:1|0:0,0:0:0:0:
78,173,51835,2,0,L|91:220,1,35.9999989013672,0|0,3:0|0:0,0:0:0:0:
87,207,51992,2,0,L|100:254,1,35.9999989013672
55,316,52149,2,0,P|103:273|201:284,1,143.999995605469,8|2,0:0|0:0,0:0:0:0:
282,345,52621,1,2,3:2:0:0:
282,345,52778,2,0,P|316:348|365:329,1,71.9999978027344,2|2,0:0|3:2,0:0:0:0:
286,196,53092,6,0,L|357:205,2,47.9999985351563,0|0|0,3:0|0:0|0:0,0:0:0:0:
181,272,53406,5,10,0:0:0:0:
181,272,53563,2,0,P|204:217|173:114,1,155.999992858887
182,126,53877,2,0,L|124:138,1,35.9999989013672,2|0,3:1|0:0,0:0:0:0:
26,185,54034,6,0,L|110:202,1,71.9999978027344,2|0,0:0|3:0,0:0:0:0:
132,331,54348,2,0,P|169:350|254:343,1,107.999996704102,0|2,1:0|3:0,0:0:0:0:
298,312,54662,2,2,L|287:265,3,35.9999989013672,8|0|0|0,0:0|0:0|0:0|0:0,0:1:0:0:
248,135,54977,5,2,0:1:0:0:
329,154,55134,1,0,0:0:0:0:
453,213,55291,6,0,L|436:117,1,71.9999978027344,2|2,3:2|0:3,0:0:0:0:
440,142,55526,1,0,3:0:0:0:
440,142,55605,2,0,P|480:135|525:137,1,71.9999978027344,8|0,0:0|0:0,0:0:0:0:
372,306,55919,5,8,1:2:0:0:
289,275,56076,2,0,P|230:291|159:274,1,120,8|0,1:2|0:0,0:0:0:0:
86,303,56390,5,2,0:3:0:0:
86,303,56469,1,0,0:0:0:0:
86,303,56547,2,0,L|114:120,1,160,2|2,0:0|3:2,0:0:0:0:
208,62,57176,6,0,B|173:81|173:81|138:75|138:75|74:108|130:173,1,160,8|0,0:0|0:0,0:0:0:0:
196,208,57647,1,0,0:0:0:0:
196,208,57725,1,0,0:0:0:0:
196,208,57804,2,0,B|237:202|237:202|269:211|269:211|334:201,1,120,2|0,3:2|0:0,0:0:0:0:
314,204,58118,2,0,L|300:250,1,40,0|0,3:0|0:0,0:0:0:0:
416,345,58275,5,0,0:0:0:0:
416,345,58432,2,0,B|456:305|452:248|452:248|414:228,1,120,10|0,0:0|0:0,0:0:0:0:
440,241,58746,2,0,L|378:254,1,40
70,295,59060,5,2,0:0:0:0:
207,325,59217,1,0,3:0:0:0:
76,295,59375,2,0,P|87:250|89:195,1,80,0|0,1:0|0:0,0:0:0:0:
200,142,59689,2,0,L|335:126,1,120,8|0,0:0|3:0,0:0:0:0:
319,127,60003,2,0,L|301:191,1,40,0|0,3:0|0:0,0:0:0:0:
308,165,60160,2,0,L|290:229,1,40,0|0,1:0|0:0,0:0:0:0:
331,298,60317,5,2,1:0:0:0:
331,298,60395,1,0,0:0:0:0:
331,298,60474,1,0,0:0:0:0:
196,229,60631,1,0,3:0:0:0:
394,192,60788,6,0,L|453:203,1,40,2|2,0:0|0:0,0:0:0:0:
446,204,60945,2,0,B|449:242|449:242|435:297,1,80,8|0,0:0|1:0,0:0:0:0:
232,376,61259,2,0,B|229:338|229:338|243:283,1,80,2|0,3:2|3:0,0:0:0:0:
283,237,61495,1,0,3:0:0:0:
283,237,61573,2,0,B|193:264|193:264|101:221,1,160,4|0,1:2|3:0,0:0:0:0:
58,76,62045,1,0,3:0:0:0:
58,76,62202,2,0,B|97:104|160:77|160:77|148:112|104:102,1,160,8|0,0:0|3:0,0:0:0:0:
2,18,62673,2,0,P|31:2|71:6,1,40,0|0,1:0|0:0,0:0:0:0:
211,59,62830,6,0,L|352:78,1,120,4|0,3:2|3:0,0:0:0:0:
329,75,63144,2,0,L|345:157,2,53.3333333333333,0|0|0,1:0|0:0|0:0,0:0:0:0:
474,256,63458,6,0,P|438:231|386:219,1,80,8|0,0:0|0:0,0:0:0:0:
422,133,63694,2,2,P|388:191|268:182,1,180.000006866455,2|0,0:0|1:0,0:1:0:0:
222,156,64008,1,0,0:0:0:0:
222,156,64087,2,0,L|239:68,1,80,8|0,0:0|0:0,0:0:0:0:
210,265,64401,1,0,3:0:0:0:
142,288,64558,1,0,1:0:0:0:
75,312,64715,2,0,P|33:299|-12:282,1,80,8|0,0:0|0:0,0:0:0:0:
210,265,65029,6,0,L|279:291,2,53.3333333333333,2|2|2,3:2|0:2|0:2,0:2:0:0:
332,336,65343,2,0,P|385:333|442:267,1,120,10|2,0:2|3:2,0:0:0:0:
433,290,65657,2,0,L|413:184,1,80,2|2,0:2|0:2,0:2:0:0:
283,64,65971,2,0,B|252:117|252:117|271:182,1,120,8|0,0:0|0:0,0:0:0:0:
320,196,66285,2,0,L|251:180,1,40,8|0,0:0|0:0,0:0:0:0:
176,219,66443,2,0,L|221:230,1,40
236,325,66600,5,2,0:0:0:0:
49,131,86704,6,0,P|88:152|275:81,1,251.999992309571,4|0,0:0|0:0,0:0:0:0:
269,89,87960,1,2,0:0:0:0:
429,197,88588,2,0,P|461:203|512:271,1,107.999996704102,2|0,0:0|0:0,0:0:0:0:
509,257,89217,1,2,0:0:0:0:
251,363,91101,5,2,0:0:0:0:
251,363,91416,1,2,0:0:0:0:
264,364,91730,2,0,B|319:318|309:227|309:227|234:252,1,215.999993408203,2|0,0:0|0:0,0:0:0:0:
34,102,92986,2,0,P|78:148|158:144,1,143.999995605469,2|2,0:0|0:0,0:0:0:0:
412,120,94243,6,0,P|287:79|147:154,2,287.999991210938,2|2|2,0:0|0:0|0:0,0:0:0:0:
412,120,97070,2,0,L|421:191,1,60.0000022888184,2|0,0:0|0:0,0:0:0:0:
312,288,97384,1,2,0:0:0:0:
312,288,97541,2,0,P|298:234|309:161,1,120.000004577637,2|0,0:0|0:0,0:0:0:0:
305,170,97934,2,0,L|356:180,1,30.0000011444092,0|2,0:0|0:0,0:0:0:0:
101,203,98327,6,0,L|13:216,1,60.0000022888184
41,211,98641,1,0,0:0:0:0:
175,312,98798,5,2,0:0:0:0:
175,312,98955,1,2,0:0:0:0:
175,312,99112,2,0,L|201:119,1,180.000006866455,2|0,0:0|0:0,0:0:0:0:
199,133,100054,2,0,P|238:159|310:155,1,120.000004577637,2|0,0:0|0:0,0:0:0:0:
308,155,100525,1,2,0:0:0:0:
381,104,100683,6,0,P|395:127|397:175,1,60.0000022888184
418,214,100997,2,0,P|404:191|402:143,1,60.0000022888184,0|2,0:0|0:0,0:0:0:0:
496,285,101311,1,0,0:0:0:0:
426,308,101468,1,0,0:0:0:0:
349,326,101625,1,0,0:0:0:0:
349,326,101782,2,0,P|211:325|173:234,1,240.000009155274,2|0,0:0|0:0,0:0:0:0:
172,246,103039,2,0,P|187:200|189:154,2,90.0000034332277,2|0|0,0:0|0:0|0:0,0:0:0:0:
50,58,104138,5,2,0:0:0:0:
50,58,104217,1,2,0:0:0:0:
50,58,104295,2,0,P|118:51|191:77,1,120.000004577637,2|0,0:0|0:0,0:0:0:0:
194,163,104766,1,0,0:0:0:0:
194,163,104923,2,0,P|242:176|294:65,1,180.000006866455,2|0,0:0|0:0,0:0:0:0:
302,81,105552,1,2,0:0:0:0:
300,248,106023,6,0,L|311:288,1,30.0000011444092
307,276,106180,1,2,0:0:0:0:
143,211,106808,6,0,P|119:211|50:183,1,71.9999978027344,4|0,1:2|0:0,0:0:0:0:
73,197,107122,2,0,L|57:274,1,71.9999978027344,0|0,1:0|0:0,0:0:0:0:
236,374,107436,2,0,P|256:327|240:248,1,107.999996704102,0|0,1:0|0:0,0:0:0:0:
251,271,107751,2,0,P|275:243|325:223,1,71.9999978027344,0|0,1:0|0:0,0:0:0:0:
483,225,108065,5,0,1:0:0:0:
197,86,108379,1,0,1:0:0:0:
278,66,108536,1,0,0:0:0:0:
197,86,108693,2,0,L|187:147,1,35.9999989013672,0|0,1:0|0:0,0:0:0:0:
191,121,108850,2,0,L|183:181,1,35.9999989013672,2|2,0:0|0:0,0:0:0:0:
254,224,109007,5,0,1:0:0:0:
254,224,109086,2,0,L|243:315,1,71.9999978027344,0|0,1:0|1:0,0:0:0:0:
177,343,109321,2,0,B|261:320|241:382|336:335,2,143.999995605469,0|0|0,1:0|1:0|1:0,0:0:0:0:
38,261,110107,2,0,P|16:208|39:135,1,107.999996704102
23,159,110421,1,0,0:0:0:0:
152,92,110578,6,0,P|150:127|136:179,1,71.9999978027344,0|0,1:0|0:0,0:0:0:0:
177,343,110892,2,0,P|179:308|193:256,1,71.9999978027344,0|0,1:0|0:0,0:0:0:0:
329,190,111206,2,0,L|445:176,1,107.999996704102,0|0,1:0|0:0,0:0:0:0:
436,177,111520,2,0,L|451:259,1,71.9999978027344,0|0,1:0|1:0,0:0:0:0:
449,247,111756,1,0,1:0:0:0:
449,247,111834,5,0,1:0:0:0:
369,304,111991,1,0,1:0:0:0:
285,267,112149,1,0,1:0:0:0:
206,323,112306,1,0,1:0:0:0:
47,234,112463,6,0,P|48:187|62:141,1,80,0|0,1:0|1:0,0:0:0:0:
176,40,112777,2,0,L|188:126,1,80,0|0,1:0|1:0,0:0:0:0:
285,267,113091,5,0,1:0:0:0:
373,206,113248,1,0,3:0:0:0:
308,134,113405,1,0,1:0:0:0:
229,187,113562,1,0,3:0:0:0:
121,293,113719,6,0,L|20:283,1,80,0|0,1:0|3:0,0:0:0:0:
353,352,114033,2,0,L|454:362,1,80,0|0,1:3|3:3,0:0:0:0:
262,238,114347,5,2,3:0:0:0:
259,222,114425,1,0,3:0:0:0:
257,206,114504,1,0,3:0:0:0:
254,190,114582,1,0,0:0:0:0:
252,174,114661,1,0,3:0:0:0:
250,158,114739,1,0,3:0:0:0:
247,143,114818,1,0,3:0:0:0:
245,127,114896,1,0,3:0:0:0:
243,111,114975,1,2,3:3:0:0:
367,54,115133,6,0,L|426:66,1,40,4|0,3:0|0:0,0:0:0:0:
406,61,115290,1,8,3:2:0:0:
400,89,115368,1,8,3:2:0:0:
393,116,115447,1,8,3:2:0:0:
387,143,115525,1,8,3:2:0:0:
381,171,115604,1,0,0:0:0:0:
39,233,116861,6,0,P|97:238|176:188,1,120,4|0,1:0|3:0,0:0:0:0:
152,213,117175,2,0,L|171:313,1,80,8|0,0:0|3:0,0:0:0:0:
291,343,117489,5,0,1:0:0:0:
291,343,117567,1,0,3:0:0:0:
291,343,117646,1,0,3:0:0:0:
291,343,117724,1,0,3:0:0:0:
291,343,117803,2,0,P|339:333|374:330,1,80,8|0,0:0|3:0,0:0:0:0:
132,116,118117,6,0,P|84:126|49:129,1,80,0|0,1:0|3:0,0:0:0:0:
252,219,118431,2,0,P|303:200|376:203,1,120,8|0,3:2|0:0,0:0:0:0:
367,200,118745,1,0,1:0:0:0:
391,173,118824,1,0,3:0:0:0:
391,135,118902,1,0,3:0:0:0:
365,105,118981,1,0,3:0:0:0:
337,83,119060,6,0,L|315:-4,1,80,8|0,0:0|3:0,0:0:0:0:
153,113,119374,2,0,L|132:209,1,80,0|0,1:0|3:0,0:0:0:0:
66,259,119688,5,10,3:2:0:0:
86,270,119766,1,2,3:2:0:0:
112,283,119845,5,2,3:2:0:0:
135,297,119923,2,0,P|193:276|257:260,1,120,2|2,3:2|3:2,0:0:0:0:
249,261,120238,1,2,3:2:0:0:
249,261,120316,2,0,P|295:282|351:299,1,80,10|0,3:2|3:2,0:0:0:0:
446,352,120630,6,0,L|426:293,1,40,0|0,1:0|3:0,0:0:0:0:
459,240,120787,2,0,L|440:188,2,40,0|0|8,3:0|3:0|0:0,0:0:0:0:
311,50,121101,5,0,3:0:0:0:
311,50,121180,1,0,3:0:0:0:
311,50,121258,2,0,L|300:117,1,40,2|2,1:2|3:2,0:0:0:0:
246,132,121416,1,2,3:2:0:0:
225,137,121494,1,2,3:2:0:0:
201,143,121573,1,8,0:0:0:0:
181,149,121651,1,0,0:0:0:0:
162,153,121730,1,0,3:0:0:0:
36,221,121887,6,0,P|79:237|137:246,1,80,0|0,1:0|0:0,0:0:0:0:
253,313,122201,1,8,0:0:0:0:
90,318,122358,2,0,P|138:278|245:236,1,160,0|0,3:0|3:0,0:0:0:0:
373,178,122829,5,8,0:0:0:0:
369,197,122907,1,0,3:0:0:0:
366,217,122986,1,0,3:0:0:0:
363,237,123064,1,0,3:0:0:0:
360,256,123143,1,0,1:0:0:0:
465,356,123300,2,0,L|449:300,1,40,0|0,3:0|0:0,0:0:0:0:
454,317,123457,2,0,P|464:271|460:217,1,80,14|0,0:0|0:0,0:0:0:0:
373,178,123772,5,0,1:0:0:0:
350,187,123850,1,0,3:0:0:0:
327,190,123929,1,0,3:0:0:0:
303,186,124007,1,0,3:0:0:0:
281,177,124086,1,8,0:0:0:0:
263,162,124164,1,0,3:0:0:0:
249,142,124243,1,0,3:0:0:0:
241,120,124321,1,0,3:0:0:0:
239,96,124400,1,0,1:0:0:0:
327,35,124557,2,0,L|372:29,2,40,0|0|10,0:0|0:0|0:2,0:0:0:0:
127,111,124871,5,2,3:2:0:0:
127,111,124950,2,0,P|110:149|92:202,1,80,2|2,3:2|3:2,0:0:0:0:
97,185,125185,1,2,3:2:0:0:
111,216,125264,1,2,3:2:0:0:
127,239,125342,2,0,L|103:302,3,40,8|0|2|0,0:2|0:2|0:0|0:0,0:2:0:0:
55,329,125656,6,0,B|139:301|127:367|223:328,1,160,0|8,1:0|0:0,0:0:0:0:
362,361,126128,2,0,L|345:291,1,40,0|0,3:0|3:0,0:0:0:0:
352,322,126285,2,2,L|368:216,1,80,2|2,1:2|0:2,0:2:0:0:
222,57,126599,6,0,L|280:70,1,40,0|0,1:0|0:0,0:0:0:0:
394,163,126756,2,0,L|336:150,1,40,0|0,3:0|3:0,3:0:0:0:
180,206,126913,6,0,P|126:235|41:209,1,132.00000402832,4|0,1:2|0:0,0:0:0:0:
181,213,127227,2,0,P|131:248|43:231,1,132.00000402832,4|0,1:2|0:0,0:0:0:0:
184,221,127541,2,0,P|137:261|49:253,1,132.00000402832,4|0,1:2|0:0,0:0:0:0:
188,228,127855,2,0,P|145:273|56:274,1,132.00000402832,4|0,1:2|0:0,0:0:0:0:
22,155,128169,5,0,1:0:0:0:
22,155,128274,1,0,1:0:0:0:
22,155,128379,1,0,1:0:0:0:
22,155,128484,2,0,P|23:88|42:32,1,117.333336914063,4|0,1:2|0:0,0:0:0:0:
147,11,128798,5,0,1:0:0:0:
191,22,128902,1,0,1:0:0:0:
228,31,129007,2,0,L|209:107,1,58.6666684570313,4|0,1:2|0:0,0:0:0:0:
291,197,129217,2,0,L|315:116,1,58.6666684570313,4|0,1:2|0:0,0:0:0:0:
442,275,129426,6,0,P|393:278|329:292,1,88.000002685547,0|0,1:0|0:0,0:0:0:0:
69,249,129740,2,0,P|118:246|182:232,1,88.000002685547,0|2,1:0|3:2,0:0:0:0:
156,239,129976,1,2,3:2:0:0:
156,239,130054,2,0,P|156:298|131:361,2,117.333336914063,2|0|0,1:0|1:0|1:0,0:0:0:0:
111,157,130578,5,0,1:0:0:0:
111,157,130683,2,0,L|190:146,1,58.6666684570313,8|0,1:2|0:0,0:0:0:0:
258,229,130997,6,0,L|337:218,1,58.6666684570313,8|0,1:2|0:0,0:0:0:0:
395,100,131311,6,0,L|474:89,1,58.6666684570313,8|0,1:2|0:0,0:0:0:0:
474,221,131625,6,0,L|425:208,1,44.0000013427735,6|0,0:0|0:0,0:0:0:0:
431,209,131782,2,0,L|359:190,1,44.0000013427735
260,143,131939,6,0,L|242:33,1,88.000002685547,4|0,1:2|0:0,0:0:0:0:
245,56,132175,1,0,0:0:0:0:
245,56,132253,1,4,1:2:0:0:
141,201,132410,5,0,0:0:0:0:
141,201,132567,2,0,L|159:311,1,88.000002685547,4|0,1:2|0:0,0:0:0:0:
155,287,132803,1,0,0:0:0:0:
155,287,132881,1,4,1:2:0:0:
21,222,133039,1,4,1:2:0:0:
234,171,133196,6,0,L|287:180,1,44.0000013427735,0|0,1:0|0:0,0:0:0:0:
354,165,133353,2,0,L|363:198,4,22.0000006713867,0|0|0|0|4,1:0|0:0|1:0|0:0|1:1,0:0:0:0:
234,171,133824,6,0,P|154:171|83:129,1,132.00000402832,2|0,1:3|0:0,0:0:0:0:
51,99,134138,1,2,1:2:0:0:
51,99,134217,1,2,1:2:0:0:
51,99,134295,1,2,1:2:0:0:
51,99,134374,1,2,1:2:0:0:
51,99,134452,2,0,P|90:79|158:91,1,88.000002685547,0|0,1:0|0:0,0:0:0:0:
206,255,134766,2,0,P|249:255|288:235,1,88.000002685547,0|0,1:0|0:0,0:0:0:0:
233,170,135080,6,0,P|189:169|151:190,1,88.000002685547,0|0,1:0|0:0,0:0:0:0:
151,189,135316,1,0,1:0:0:0:
151,189,135395,1,0,1:0:0:0:
253,338,135552,1,0,1:0:0:0:
58,329,135709,6,0,P|107:289|185:283,1,120.000004577637,0|0,1:0|1:0,0:0:0:0:
206,255,135918,2,0,L|253:264,2,40.000001525879,0|0|4,1:0|3:0|1:0,0:0:0:0:
433,328,136337,5,8,3:0:0:0:
444,322,136416,1,8,3:0:0:0:
441,309,136494,1,4,3:0:0:0:
431,304,136573,1,12,3:0:0:0:
396,310,136651,6,2,P|374:244|410:144,1,180.000006866455,2|2,1:1|0:1,0:1:0:0:
410,143,136965,5,4,1:2:0:0:
383,152,137043,1,0,3:0:0:0:
355,152,137122,1,0,3:0:0:0:
329,143,137200,1,0,3:0:0:0:
305,127,137279,2,0,P|235:121|165:155,1,132.00000402832,8|2,0:0|0:0,0:0:0:0:
179,143,137594,2,0,L|198:250,1,88.000002685547,0|2,1:0|3:2,0:0:0:0:
194,230,137829,1,0,3:0:0:0:
194,230,137908,1,8,0:0:0:0:
79,335,138065,5,0,3:0:0:0:
21,299,138222,2,0,P|1:254|19:158,1,132.00000402832,0|0,1:0|3:0,0:0:0:0:
10,173,138536,2,0,L|116:208,1,88.000002685547,8|0,0:0|3:0,0:0:0:0:
225,352,138850,5,0,1:0:0:0:
246,345,138928,1,0,0:0:0:0:
267,339,139007,1,2,3:2:0:0:
288,332,139085,1,0,0:0:0:0:
309,326,139164,1,8,0:0:0:0:
381,267,139321,2,0,L|399:205,1,44.0000013427735
417,202,139478,5,0,1:0:0:0:
389,204,139557,1,0,3:0:0:0:
360,200,139635,1,0,3:0:0:0:
336,184,139714,1,0,3:0:0:0:
317,166,139793,1,8,0:0:0:0:
295,152,139871,1,0,3:0:0:0:
267,147,139950,1,0,3:0:0:0:
241,150,140028,1,0,3:0:0:0:
222,162,140107,2,0,P|179:172|135:171,1,88.000002685547,2|2,1:2|3:2,0:0:0:0:
274,32,140421,2,0,L|329:41,1,44.0000013427735,8|0,0:0|3:0,0:0:0:0:
317,39,140578,2,0,L|370:48,1,44.0000013427735,0|0,3:0|3:0,0:0:0:0:
458,31,140735,6,0,P|480:89|435:168,1,132.00000402832,0|0,1:0|3:0,0:0:0:0:
434,164,141049,1,8,0:0:0:0:
259,230,141206,2,0,P|253:180|277:134,1,88.000002685547,0|0,3:0|1:0,0:0:0:0:
150,48,141520,1,0,3:0:0:0:
150,48,141599,1,0,3:0:0:0:
150,48,141677,2,0,P|108:71|15:59,1,132.00000402832,8|0,0:0|0:0,3:0:0:0:
26,64,141991,6,0,B|6:106|6:106|12:164,1,88.000002685547,4|0,1:2|0:0,0:0:0:0:
20,235,142306,2,0,L|171:216,1,132.00000402832,14|0,0:2|3:0,0:0:0:0:
158,194,142620,5,0,1:2:0:0:
186,182,142698,1,2,3:2:0:0:
216,185,142777,1,2,3:2:0:0:
240,204,142855,1,2,3:2:0:0:
252,232,142934,1,10,3:2:0:0:
263,260,143012,1,2,3:2:0:0:
287,278,143090,1,2,3:2:0:0:
318,282,143169,1,2,3:2:0:0:
346,270,143248,2,0,L|360:215,3,44.0000013427735,2|0|2|0,1:2|0:0|0:0|3:0,0:0:0:0:
445,177,143562,6,0,L|432:243,1,44.0000013427735,8|0,0:0|3:0,0:0:0:0:
436,220,143719,2,0,L|423:286,1,44.0000013427735,0|0,3:0|3:0,0:0:0:0:
335,131,143876,6,0,P|324:86|311:18,1,88.000002685547,0|0,1:0|3:0,0:0:0:0:
186,182,144190,2,0,P|177:225|166:267,1,88.000002685547,8|0,0:0|0:0,0:0:0:0:
166,267,144505,6,0,B|263:239|242:310|356:258,1,176.000005371094,0|10,1:0|3:2,0:0:0:0:
456,187,144976,2,0,L|394:176,1,44.0000013427735,2|2,3:2|3:2,0:0:0:0:
412,179,145133,2,0,P|416:139|443:72,1,88.000002685547,0|0,1:0|3:0,0:0:0:0:
344,273,145447,2,0,P|341:313|314:380,1,88.000002685547,8|0,0:0|3:0,0:0:0:0:
326,358,145683,1,0,0:0:0:0:
326,358,145761,2,0,L|238:375,1,88.000002685547,0|0,1:0|3:0,0:0:0:0:
5,265,146075,2,0,L|93:248,1,88.000002685547,8|0,0:0|3:0,0:0:0:0:
91,248,146311,1,0,3:0:0:0:
91,248,146389,2,0,P|121:280|176:296,1,88.000002685547,0|0,1:0|3:0,0:0:0:0:
264,212,146703,5,4,3:2:0:0:
241,127,146861,1,0,3:0:0:0:
285,27,147018,6,0,L|135:55,1,132.00000402832,4|0,1:2|0:0,0:0:0:0:
104,79,147332,2,0,L|254:51,1,132.00000402832,0|0,1:0|0:0,0:0:0:0:
318,63,147646,2,0,L|168:91,1,132.00000402832,0|0,1:0|0:0,0:1:0:0:
115,118,147960,2,0,L|265:90,1,132.00000402832,0|0,1:0|0:0,0:0:0:0:
329,170,148274,5,0,1:0:0:0:
329,170,148379,1,0,1:0:0:0:
329,170,148484,1,0,1:0:0:0:
329,170,148588,2,0,P|350:228|332:315,1,117.333336914063,0|0,1:0|0:0,0:0:0:0:
253,329,148902,5,0,1:0:0:0:
216,340,149007,1,0,1:0:0:0:
182,355,149112,2,0,L|165:266,1,58.6666684570313,0|0,1:0|0:0,0:0:0:0:
170,297,149321,2,0,L|155:195,1,58.6666684570313,0|0,1:0|0:0,0:0:0:0:
109,145,149531,6,0,P|168:187|253:190,1,132.00000402832,0|0,1:0|0:0,0:0:0:0:
247,225,149845,2,0,P|303:192|318:103,1,132.00000402832,0|0,1:0|0:0,0:0:0:0:
379,29,150159,6,0,L|230:49,2,117.333336914063,0|0|0,1:0|1:0|1:0,0:0:0:0:
379,29,150683,1,0,1:0:0:0:
383,37,150787,2,0,L|398:120,1,58.6666684570313,0|0,1:0|0:0,0:0:0:0:
218,158,151101,6,0,L|233:241,1,58.6666684570313,0|0,1:0|0:0,0:0:0:0:
105,328,151416,5,0,3:0:0:0:
116,331,151494,1,0,3:0:0:0:
125,333,151573,1,0,3:0:0:0:
136,338,151651,1,0,3:0:0:0:
144,339,151730,2,0,P|206:343|295:305,1,132.00000402832,8|0,1:2|0:0,0:0:0:0:
360,275,152044,5,2,3:0:0:0:
172,238,152358,1,2,3:0:0:0:
360,275,152672,1,2,3:0:0:0:
172,238,152986,1,2,3:0:0:0:
391,158,153300,5,0,1:0:0:0:
203,121,153614,1,0,1:0:0:0:
350,15,153929,6,0,L|358:68,1,44.0000013427735,2|0,1:3|0:0,0:0:0:0:
303,154,154086,1,2,0:0:0:0:
303,154,154164,1,0,3:0:0:0:
303,154,154243,2,2,L|288:81,1,44.0000013427735,2|2,0:3|0:3,0:3:0:0:
182,6,154400,2,2,L|191:63,1,44.0000013427735,2|2,0:3|0:3,0:3:0:0:
47,186,154557,6,2,P|122:211|206:197,1,132.00000402832,2|0,1:3|0:0,0:3:0:0:
180,222,154871,2,2,P|243:213|336:262,1,132.00000402832,2|0,1:3|0:0,0:3:0:0:
320,222,155185,2,2,P|381:250|463:219,1,132.00000402832,2|0,1:3|0:0,0:3:0:0:
475,246,155499,2,2,P|451:197|474:115,1,132.00000402832,2|0,1:3|0:0,0:3:0:0:
479,97,155813,2,0,B|393:115|428:81|311:108,1,132.00000402832,2|0,1:3|0:0,0:0:0:0:
328,70,156128,5,2,0:1:0:0:
315,97,156206,1,2,0:1:0:0:
293,119,156285,1,2,0:1:0:0:
265,132,156363,1,2,0:1:0:0:
235,133,156442,1,2,0:1:0:0:
119,80,156599,2,2,L|50:68,1,44.0000013427735,2|0,0:1|0:0,0:1:0:0:
4,45,156756,6,2,L|-3:80,8,22.0000006713867,2|2|2|2|2|2|2|2|4,0:1|0:1|0:1|0:1|0:1|0:1|0:1|0:1|0:2,0:1:0:0:
