osu file format v14

[General]
AudioFilename: audio.mp3
AudioLeadIn: 0
PreviewTime: 136567
Countdown: 0
SampleSet: Soft
StackLeniency: 0.7
Mode: 0
LetterboxInBreaks: 0
WidescreenStoryboard: 0

[Editor]
DistanceSpacing: 1
BeatDivisor: 4
GridSize: 32
TimelineZoom: 3.099999

[Metadata]
Title:self-dissociation
TitleUnicode:self-dissociation
Artist:Lidelle x Sobrem x Sennzai
ArtistUnicode:Lidelle × Sobrem × Sennzai
Creator:Zekk
Version:confusion
Source:THE BMS OF FIGHTERS XVII -VISION THE RETRO FUTURE-
Tags:electronic english bofxvii fa featured artist mpg mappers guild mappers' guild vision future 黒皇帝 kurokotei
BeatmapID:4287976
BeatmapSetID:2052931

[Difficulty]
HPDrainRate:6
CircleSize:4.1
OverallDifficulty:9
ApproachRate:9.1
SliderMultiplier:1.7
SliderTickRate:1

[Events]
//Background and Video events
0,0,"ba9a756bbbe039f41a2f1ec127e941dc2c2c7f40_s2_n3_y1.jpg",0,0
//Break Periods
2,66800,81137
//Storyboard Layer 0 (Background)
//Storyboard Layer 1 (Fail)
//Storyboard Layer 2 (Pass)
//Storyboard Layer 3 (Foreground)
//Storyboard Layer 4 (Overlay)
//Storyboard Sound Samples

[TimingPoints]
6286,314.13612565445,4,2,0,100,1,0
26390,-83.3333333333333,4,2,0,65,0,0
27018,-100,4,2,0,65,0,0
28589,-76.9230769230769,4,2,0,65,0,0
28903,-100,4,2,0,65,0,0
31416,-83.3333333333333,4,2,0,65,0,0
32045,-100,4,2,0,65,0,0
34872,-83.3333333333333,4,2,0,65,0,0
36128,-66.6666666666667,4,2,0,65,0,0
36443,-100,4,2,0,65,0,0
38013,-90.9090909090909,4,2,0,65,0,0
38327,-100,4,2,0,65,0,0
40683,-71.4285714285714,4,2,0,65,0,0
41469,-90.9090909090909,4,2,0,65,0,0
41940,-100,4,2,0,65,0,0
43039,-76.9230769230769,4,2,0,65,0,0
43354,-71.4285714285714,4,2,0,65,0,0
43982,-100,4,2,0,65,0,0
44453,-142.857142857143,4,2,0,65,0,0
44924,-90.9090909090909,4,2,0,65,0,0
45238,-66.6666666666667,4,2,0,65,0,0
45553,-83.3333333333333,4,2,0,65,0,0
45867,-133.333333333333,4,2,0,65,0,0
46495,-117.647058823529,4,2,0,65,0,0
51207,-76.9230769230769,4,2,0,65,0,0
51521,-117.647058823529,4,2,0,65,0,0
53092,-83.3333333333333,4,2,0,65,0,0
54191,-133.333333333333,4,2,0,65,0,0
54348,-90.9090909090909,4,2,0,65,0,0
54662,-83.3333333333333,4,2,0,65,0,0
55291,-71.4285714285714,4,2,0,65,0,0
56076,-133.333333333333,4,2,0,65,0,0
56547,-117.647058823529,4,2,0,65,0,0
58432,-76.9230769230769,4,2,0,65,0,0
58511,-100,4,2,0,65,0,0
59689,-76.9230769230769,4,2,0,65,0,0
60160,-100,4,2,0,65,0,0
60317,-76.9230769230769,4,2,0,65,0,0
60945,-133.333333333333,4,2,0,65,0,0
61573,-83.3333333333333,4,2,0,65,0,0
63694,-58.8235294117647,4,2,0,65,0,0
64087,-100,4,2,0,65,0,0
64715,-83.3333333333333,4,2,0,65,0,0
66285,-117.647058823529,4,2,0,65,0,0
66600,306.122448979592,4,2,0,100,1,0
67824,320.855614973262,4,2,0,100,1,0
69107,310.077519379845,4,2,0,100,1,0
70347,298.507462686567,4,2,0,100,1,0
70944,329.67032967033,4,2,0,100,1,0
71603,331.491712707183,4,2,0,100,1,0
72265,322.580645161291,4,2,0,100,1,0
72910,294.117647058824,4,2,0,100,1,0
73498,322.58064516129,4,2,0,100,1,0
74143,317.460317460317,4,2,0,100,1,0
76047,300,4,2,0,100,1,0
76647,333.333333333334,4,2,0,100,1,0
77313,307.692307692308,4,2,0,100,1,0
77928,314.13612565445,4,2,0,100,1,0
78425,382.165605095541,4,2,0,100,1,0
79189,307.692307692306,4,2,0,100,1,0
80419,315.789473684209,4,2,0,100,1,0
81366,355.029585798814,4,2,0,100,1,0
86704,314.13612565445,4,2,0,55,1,0
86704,-222.222222222221,4,2,0,55,0,0
106808,-90.9090909090909,4,2,0,65,0,0
107436,-100,4,2,0,65,0,0
114976,-41.6666666666667,4,2,0,65,0,0
115133,-83.3333333333333,4,2,0,65,0,0
116703,-41.6666666666667,4,2,0,80,0,0
116861,-83.3333333333333,4,2,0,75,0,1
123457,-66.6666666666667,4,2,0,75,0,1
126913,-64.5161290322581,4,2,0,75,0,1
130683,-60.6060606060606,4,2,0,75,0,1
130997,-64.5161290322581,4,2,0,75,0,1
133824,-400,4,2,0,75,0,0
134452,-58.8235294117647,4,2,0,85,0,1
134766,-66.6666666666667,4,2,0,85,0,1
135080,-222.222222222221,4,2,0,85,0,1
135395,-111.111111111111,4,2,0,85,0,1
135709,-66.6666666666667,4,2,0,85,0,1
135866,-90.9090909090909,4,2,0,85,0,1
136023,-50,4,2,0,85,0,1
136651,-33.3333333333333,4,2,0,85,0,1
136965,-83.3333333333333,4,2,0,85,0,1
147018,-50,4,2,0,90,0,0
148588,-399.999999999997,4,2,0,90,0,0
149112,-181.818181818181,4,2,0,90,0,0
149321,-100,4,2,0,90,0,0
149531,-27.027027027027,4,2,0,90,0,0
150159,-71.4285714285714,4,2,0,90,0,0
150787,-285.714285714284,4,2,0,90,0,0
151730,-181.818181818181,4,2,0,90,0,0
153929,-105.263157894737,4,2,0,70,0,0
154557,-66.6666666666667,4,2,0,70,0,0
156599,-40,4,2,0,70,0,0

[Colours]
Combo1 : 17,254,176
Combo2 : 173,255,95
Combo3 : 255,88,100
Combo4 : 255,94,55

[HitObjects]
50,219,26390,6,0,P|84:270|242:272,1,203.999993774414,4|8,1:0|0:0,0:0:0:0:
279,246,26861,1,0,0:0:0:0:
52,351,27018,2,0,P|99:346|130:315,1,85,0|0,3:0|1:0,0:0:0:0:
164,204,27333,6,0,B|155:124|192:168|166:61,1,127.5,8|0,0:0|0:0,0:0:0:0:
170,78,27647,1,0,3:0:0:0:
254,145,27804,1,0,0:0:0:0:
354,129,27961,1,8,0:0:0:0:
282,241,28118,5,2,0:0:0:0:
285,233,28196,1,2,0:0:0:0:
295,228,28275,2,0,P|334:234|367:282,1,85,0|0,3:0|1:0,0:0:0:0:
173,201,28589,6,0,L|-3:226,1,165.749992412568,8|0,0:0|0:0,0:0:0:0:
17,239,28903,6,0,B|-26:257|-26:257|4:117,1,170,0|8,3:0|0:0,0:0:0:0:
61,87,29375,1,0,0:0:0:0:
10,7,29532,2,0,P|37:38|97:50,1,85
205,157,29846,6,0,P|259:156|340:65,1,170,8|0,0:0|3:0,0:0:0:0:
205,157,30317,1,0,0:0:0:0:
349,233,30474,5,8,0:0:0:0:
229,263,30631,1,0,1:0:0:0:
225,271,30710,2,0,P|215:312|237:360,1,85,8|0,0:0|0:0,0:0:0:0:
245,361,30945,1,0,1:0:0:0:
423,326,31102,2,0,L|334:310,1,85,8|0,0:0|0:0,0:0:0:0:
138,209,31416,6,0,B|73:218|16:152|16:152|48:195|33:218,1,203.999993774414,2|8,3:2|0:0,0:0:0:0:
101,115,31888,1,2,0:0:0:0:
107,123,31966,1,2,0:0:0:0:
117,128,32045,2,0,P|139:97|135:32,1,85,0|0,3:0|1:0,0:0:0:0:
138,209,32359,1,8,0:0:0:0:
254,255,32516,1,2,0:0:0:0:
457,120,32673,6,0,P|418:192|338:208,1,170,2|8,0:0|0:0,0:0:0:0:
254,255,33144,1,0,0:0:0:0:
254,255,33223,1,0,3:0:0:0:
254,255,33301,2,0,L|245:172,1,42.5,0|0,1:0|0:0,0:0:0:0:
178,121,33458,2,0,L|228:139,1,42.5,0|0,3:0|0:0,0:0:0:0:
139,227,33615,5,8,0:0:0:0:
10,292,33772,1,0,3:0:0:0:
10,292,33851,1,0,3:0:0:0:
10,292,33929,2,0,B|54:297|54:297|86:332|86:332|174:345,1,170,0|8,1:0|0:0,0:0:0:0:
337,336,34401,1,0,0:0:0:0:
269,370,34558,2,0,P|249:338|264:274,1,85,2|0,0:0|3:0,0:0:0:0:
375,61,34872,6,0,B|384:98|384:98|374:125|374:125|384:182,1,101.999996887207,8|0,0:0|0:0,0:0:0:0:
359,171,35107,2,0,P|386:190|438:191,2,50.9999984436036,8|0|0,0:0|3:0|0:0,0:0:0:0:
258,116,35343,2,0,L|173:127,1,50.9999984436036,0|0,1:0|0:0,0:0:0:0:
6,215,35500,6,0,B|60:214|109:178|109:178|69:216|94:230,1,152.999995330811,8|0,0:0|1:0,0:0:0:0:
63,286,35814,2,0,P|82:300|136:302,1,50.9999984436036,0|0,0:0|3:0,0:0:0:0:
240,260,35971,1,0,0:0:0:0:
197,349,36128,6,0,P|284:289|405:313,1,191.250007295609,8|0,0:0|3:0,0:0:0:0:
380,306,36443,1,4,1:0:0:0:
380,306,36757,2,0,B|337:326|337:326|365:186,1,170,8|0,0:0|0:0,0:0:0:0:
452,73,37228,1,0,3:0:0:0:
500,187,37385,2,0,P|448:176|386:115,1,127.5,8|0,0:0|0:0,0:0:0:0:
391,107,37699,6,0,L|277:122,1,85,0|0,3:0|0:0,0:0:0:0:
246,231,38013,2,0,B|174:209|191:270|85:230,1,140.25000428009,8|2,0:0|0:0,0:0:0:0:
85,247,38327,2,0,L|96:197,1,42.5
124,83,38484,2,0,P|157:111|156:167,1,85,0|8,3:0|0:0,0:0:0:0:
54,350,38799,5,0,0:0:0:0:
54,350,38956,2,0,P|100:294|210:288,1,170,0|8,3:0|0:0,0:0:0:0:
257,325,39427,1,2,0:0:0:0:
360,362,39584,1,0,0:0:0:0:
433,285,39741,1,0,3:0:0:0:
296,172,39898,6,0,L|151:160,1,127.5,8|0,0:0|0:0,0:0:0:0:
201,82,40212,6,0,B|159:96|142:138|142:138|106:110|33:116,1,170,0|8,3:0|0:0,0:0:0:0:
71,235,40683,1,0,3:0:0:0:
75,248,40762,2,0,B|67:272|67:272|69:292|69:292|55:333,2,59.4999981842042,8|0|0,0:0|0:0|0:0,0:0:0:0:
168,161,40998,6,0,P|191:170|219:212,1,59.4999981842042,0|0,3:0|0:0,3:0:0:0:
320,177,41155,2,0,P|261:220|270:345,1,178.499994552612,8|0,0:0|0:0,0:0:0:0:
234,341,41469,6,0,B|349:307|309:398|436:355,1,187.000005706787,2|8,3:2|0:0,0:0:0:0:
462,302,41940,2,0,P|470:258|445:210,1,85,2|0,0:0|0:0,0:0:0:0:
418,105,42254,5,0,3:0:0:0:
497,150,42411,2,0,P|435:191|360:169,1,127.5,8|0,0:0|0:0,0:0:0:0:
375,178,42725,1,0,0:0:0:0:
278,68,42882,5,0,3:0:0:0:
278,68,43039,2,0,P|191:63|153:143,1,165.749992412568,8|0,0:0|3:0,0:0:0:0:
156,140,43354,2,0,L|70:128,1,59.4999981842042,0|0,3:0|0:0,0:0:0:0:
21,183,43511,6,0,P|25:221|70:257,1,59.4999981842042,0|0,3:0|0:0,0:0:0:0:
20,317,43668,2,0,P|59:279|148:269,1,118.999996368408,8|0,0:0|0:0,0:0:0:0:
217,213,43903,5,0,3:0:0:0:
205,225,43982,2,0,P|221:272|336:301,1,170,2|8,3:2|0:0,0:0:0:0:
428,360,44453,2,0,B|417:286|458:319|431:226,1,118.999996368408,2|0,0:0|0:0,0:0:0:0:
453,138,44924,6,0,L|335:157,1,93.5000028533936,8|0,0:0|0:0,0:0:0:0:
305,109,45160,1,8,1:0:0:0:
292,116,45238,2,0,B|284:141|284:141|287:163|287:163|273:205,2,63.7500024318696,0|0|0,1:0|0:0|3:0,0:0:0:0:
318,292,45474,5,0,3:0:0:0:
325,303,45553,2,0,B|336:343|336:343|184:312,1,152.999995330811,8|0,0:0|3:0,0:0:0:0:
73,283,45867,6,0,P|165:297|232:234,1,191.250007295609,2|2,1:2|0:3,0:0:0:0:
173,97,46495,6,0,L|92:84,1,72.2500013780594,2|0,3:2|0:0,0:0:0:0:
44,137,46809,2,0,P|71:159|118:161,1,72.2500013780594,2|0,0:0|0:0,0:0:0:0:
231,234,47123,6,0,B|286:248|286:248|314:235|314:235|315:231|315:231|319:233|319:233|347:223|347:223|420:245|373:322,1,216.750004134178,10|0,0:0|0:0,0:0:0:0:
387,290,47751,2,0,L|396:336,1,36.1250006890297,2|0,0:0|0:0,0:0:0:0:
321,325,47909,2,0,L|330:371,1,36.1250006890297,2|0,3:2|0:0,0:0:0:0:
199,209,48066,6,0,B|189:259|189:259|190:267|190:267|186:275|186:275|171:346,1,108.375002067089,2|0,3:2|1:0,3:0:0:0:
189,325,48380,2,0,B|144:333|144:333|123:355|123:355|36:367,1,144.500002756119,10|0,0:0|0:0,0:0:0:0:
26,91,48851,6,2,L|56:99,2,18.0625003445149
107,133,49008,2,0,P|151:127|191:92,1,72.2500013780594,0|0,3:0|0:0,0:0:0:0:
327,52,49322,2,0,L|451:72,1,108.375002067089,2|0,3:2|3:0,3:0:0:0:
512,48,49636,6,0,B|469:30|469:30|486:154,1,144.500002756119,10|0,0:0|0:0,0:0:0:0:
501,197,50107,1,0,3:0:0:0:
368,138,50265,5,2,3:2:0:0:
272,181,50422,1,8,0:0:0:0:
239,272,50579,1,0,1:0:0:0:
357,235,50736,5,0,3:0:0:0:
178,159,50893,2,0,L|88:147,1,72.2500013780594,8|0,0:0|0:0,0:0:0:0:
0,223,51207,2,2,B|58:229|107:178|107:178|83:214|97:245,1,165.749992412568,10|2,1:2|3:1,0:1:0:0:
86,298,51521,5,2,3:1:0:0:
86,298,51835,2,0,P|159:315|212:378,1,144.500002756119,0|8,3:0|0:0,0:0:0:0:
205,363,52306,1,0,0:0:0:0:
305,330,52464,6,0,L|356:323,1,36.1250006890297,2|0,0:0|0:0,0:0:0:0:
357,253,52621,2,0,L|408:246,1,36.1250006890297,2|0,3:2|0:0,0:0:0:0:
197,227,52778,6,0,L|146:220,1,36.1250006890297,2|0,0:0|0:0,0:0:0:0:
112,148,52935,2,0,L|147:152,1,36.1250006890297,2|0,3:2|0:0,0:0:0:0:
302,42,53092,6,0,B|262:23|262:23|285:156,1,152.999995330811,0|0,3:0|3:3,0:0:0:0:
273,208,53406,6,2,B|317:203|317:203|322:200|322:200|330:202|330:202|361:197|361:197|407:222|407:222|452:216|452:216|456:219|456:219|462:214|462:214|505:208|505:208|446:172,1,305.999990661621,10|2,0:0|3:1,0:1:0:0:
280,130,54034,5,2,0:0:0:0:
209,99,54191,2,0,L|198:157,1,31.8750012159348,0|0,3:0|0:0,0:0:0:0:
190,317,54348,6,0,P|144:262|66:250,1,140.25000428009,0|2,1:0|3:0,0:0:0:0:
43,165,54662,6,2,B|19:212|19:212|44:209|44:209|49:211|49:211|56:206|56:206|110:199|110:199|116:196|116:196|122:198|122:198|179:190,1,203.999993774414,8|2,0:0|0:1,0:1:0:0:
166,191,55134,1,0,0:0:0:0:
289,267,55291,6,0,P|290:294|261:327,2,59.4999981842042,2|0|2,3:2|0:0|0:3,0:0:0:0:
354,176,55526,1,0,3:0:0:0:
333,190,55605,2,0,P|372:236|491:244,1,178.499994552612,8|0,0:0|0:0,0:0:0:0:
474,276,55919,2,0,P|504:259|497:201,1,59.4999981842042,8|0,1:2|0:0,0:0:0:0:
498,82,56076,6,0,L|369:61,1,127.500004863739,8|2,1:2|0:3,0:0:0:0:
295,29,56547,6,0,P|271:51|266:118,1,72.2500013780594,2|0,0:0|0:0,0:0:0:0:
255,181,56861,2,0,P|245:136|153:86,2,144.500002756119,2|8|0,3:2|0:0|0:0,0:0:0:0:
125,277,57647,6,0,L|93:283,2,18.0625003445149
192,241,57804,2,0,L|277:260,1,72.2500013780594,2|0,3:2|3:0,0:0:0:0:
323,354,58118,2,0,P|379:352|435:305,1,108.375002067089,0|0,3:0|0:0,0:0:0:0:
496,302,58432,6,0,P|489:276|440:249,1,55.2499974708558,10|0,0:0|0:0,0:0:0:0:
256,180,58589,2,2,P|293:220|418:221,1,170,2|0,0:1|3:1,2:0:0:0:
256,180,59060,5,2,0:0:0:0:
156,214,59217,1,0,3:0:0:0:
54,247,59375,1,0,1:0:0:0:
54,247,59689,6,0,B|12:264|12:264|43:160|43:160|41:132,1,165.749992412568,8|0,0:0|3:0,0:0:0:0:
29,132,60003,2,0,L|116:121,1,55.2499974708558,0|0,3:0|0:0,0:0:0:0:
148,85,60160,2,0,P|160:61|157:30,1,42.5,0|0,1:0|0:0,0:0:0:0:
156,214,60317,6,0,B|252:247|234:173|337:219,1,165.749992412568,2|8,1:0|0:0,0:0:0:0:
391,186,60631,2,0,B|394:215|394:215|399:220|399:220|397:225|397:225|401:263,1,55.2499974708558,0|0,3:0|0:0,0:0:0:0:
348,299,60788,5,2,0:0:0:0:
345,312,60867,1,2,0:0:0:0:
343,324,60945,2,0,L|392:333,1,31.8750012159348,8|0,0:0|0:0,0:0:0:0:
438,366,61102,2,0,L|488:377,1,31.8750012159348,0|0,1:0|0:0,0:0:0:0:
195,272,61259,6,0,L|145:281,1,31.8750012159348,2|2,3:2|0:0,0:0:0:0:
39,324,61416,1,0,3:0:0:0:
39,324,61495,1,0,3:0:0:0:
39,324,61573,2,0,B|86:324|108:365|108:365|176:349|178:298|152:250,1,203.999993774414,4|0,1:2|3:0,0:0:0:0:
117,135,62045,1,0,3:0:0:0:
43,175,62202,2,0,L|206:192,1,152.999995330811,8|0,0:0|0:0,0:0:0:0:
269,143,62516,6,0,P|281:162|265:211,1,50.9999984436036,0|0,3:0|0:0,0:0:0:0:
163,277,62673,2,0,P|180:289|240:289,1,50.9999984436036,0|0,1:0|0:0,0:0:0:0:
293,359,62830,6,0,P|333:315|410:308,1,101.999996887207,4|0,3:2|0:0,0:0:0:0:
446,275,63066,1,0,3:0:0:0:
442,263,63144,2,0,L|502:277,2,50.9999984436036,0|0|2,1:0|3:0|3:0,0:0:0:0:
377,176,63380,5,0,3:0:0:0:
377,176,63458,2,0,B|367:149|367:149|374:121|374:121|351:44,1,101.999996887207,8|0,0:0|0:0,0:0:0:0:
404,15,63694,6,2,B|423:54|423:54|423:60|423:60|352:47|352:47|342:50|342:50|335:44|335:44|252:31,1,216.750004134178,2|0,0:0|1:0,0:1:0:0:
149,82,64087,6,0,B|182:88|211:59|211:59|268:70|281:97|251:158,1,170,8|0,0:0|3:0,0:0:0:0:
224,255,64558,1,0,1:0:0:0:
167,203,64715,2,0,B|218:197|218:197|249:209|249:209|319:199,1,135.99999584961,8|0,0:0|3:0,0:0:0:0:
351,124,65029,6,0,L|449:145,2,67.9999979248048,2|2|2,3:2|0:2|0:2,0:2:0:0:
238,12,65343,5,10,0:2:0:0:
249,20,65422,1,0,0:2:0:0:
248,36,65500,2,0,P|226:52|194:50,1,50.9999984436036,0|2,0:2|3:2,0:2:0:0:
119,103,65657,6,0,P|103:80|119:36,3,50.9999984436036,2|2|2|2,0:2|0:2|0:2|0:2,0:2:0:0:
75,199,65971,6,0,P|37:229|44:277,1,101.999996887207,8|0,0:0|0:0,0:0:0:0:
193,182,66285,2,0,L|307:203,1,108.375002067089,8|0,0:0|0:0,0:0:0:0:
300,202,66600,1,2,0:0:0:0:
256,192,81721,12,0,86602,0:0:0:0:
68,57,86704,5,4,0:0:0:0:
68,57,87960,2,0,P|115:64|164:160,1,152.999995330811,2|2,0:0|0:0,0:0:0:0:
165,148,89217,1,2,0:0:0:0:
435,281,91101,6,0,P|447:298|469:312,1,38.2499988327027,2|0,0:0|0:0,0:0:0:0:
370,243,91416,2,0,P|361:261|360:287,1,38.2499988327027,2|0,0:0|0:0,0:0:0:0:
415,142,91730,6,0,P|350:214|221:202,1,229.499992996216,2|0,0:0|0:0,0:0:0:0:
225,205,92986,2,0,P|195:179|185:137,1,76.4999976654053,2|0,0:0|0:0,0:0:0:0:
230,84,93614,2,0,P|253:83|298:52,1,76.4999976654053,2|0,0:0|0:0,0:0:0:0:
296,54,94243,1,2,0:0:0:0:
253,253,95499,5,2,0:0:0:0:
253,253,96128,2,2,B|342:231|317:280|410:252,1,152.999995330811,2|2,0:0|0:0,0:2:0:0:
402,254,97070,2,0,L|421:339,1,76.4999976654053,2|2,0:0|0:0,0:0:0:0:
418,328,97541,1,2,0:0:0:0:
253,253,98012,6,0,P|212:263|193:332,1,114.749996498108,2|0,0:0|0:0,0:0:0:0:
191,326,98641,1,0,0:0:0:0:
45,211,98798,5,2,0:0:0:0:
119,234,98955,1,2,0:0:0:0:
119,234,99112,1,2,0:0:0:0:
176,179,99269,2,0,B|229:167|229:167|273:184|239:215,1,114.749996498108,2|0,0:0|0:0,0:0:0:0:
242,211,99897,1,2,0:0:0:0:
112,100,100054,1,2,0:0:0:0:
346,26,100525,6,0,P|398:27|461:70,1,114.749996498108,2|0,0:0|0:0,0:0:0:0:
451,58,101154,2,0,P|458:87|411:83,1,76.4999976654053,2|0,0:0|0:0,0:0:0:0:
267,122,101782,6,0,B|194:127|122:63|122:63|131:100|160:119,1,229.499992996216,2|0,0:0|0:0,0:0:0:0:
159,118,103039,2,0,P|177:155|51:178,1,229.499992996216,2|0,0:0|0:0,0:0:0:0:
21,120,104138,1,2,0:0:0:0:
20,111,104217,1,2,0:0:0:0:
26,105,104295,1,2,0:0:0:0:
297,28,104766,5,0,0:0:0:0:
305,32,104923,1,2,0:0:0:0:
459,162,105552,6,0,L|372:179,1,76.4999976654053,2|0,0:0|0:0,0:0:0:0:
383,176,106180,2,0,L|307:161,1,76.4999976654053,2|0,0:0|0:0,0:0:0:0:
123,67,106808,6,0,P|58:67|50:141,1,140.25000428009,4|0,1:2|3:0,0:0:0:0:
27,203,107122,2,0,B|69:198|69:198|76:199|76:199|150:189,1,93.5000028533936,0|0,1:0|0:0,0:0:0:0:
307,161,107436,6,0,B|297:189|297:189|313:263,1,85,0|0,1:0|0:0,0:0:0:0:
264,328,107751,2,0,B|361:310|361:310|340:354,1,127.5,0|0,1:0|0:0,0:0:0:0:
420,362,108065,6,0,P|451:359|476:308,1,85,0|0,1:0|0:0,0:0:0:0:
307,161,108379,2,0,P|263:170|247:219,1,85,0|0,1:0|0:0,0:0:0:0:
163,271,108693,6,0,L|112:279,1,42.5,0|0,1:0|0:0,0:0:0:0:
52,299,108850,2,0,B|38:281|38:281|61:247,2,42.5,2|2|0,0:0|0:0|1:0,0:0:0:0:
108,350,109086,1,0,1:0:0:0:
245,203,109243,5,0,1:0:0:0:
242,212,109321,2,0,B|323:193|287:229|377:207,1,127.5,0|0,1:0|0:0,0:0:0:0:
381,216,109635,2,0,B|397:226|397:226|426:140,1,85,0|0,1:0|0:0,0:0:0:0:
182,133,109950,6,0,B|163:144|163:144|143:54,1,85,0|0,1:0|0:0,0:0:0:0:
273,11,110264,2,0,L|373:32,1,85,0|0,1:0|0:0,0:0:0:0:
150,83,110578,6,0,P|110:76|95:27,1,85,0|0,1:0|0:0,0:0:0:0:
374,195,110892,2,0,P|357:232|256:227,1,127.5,0|0,1:0|0:0,0:0:0:0:
210,206,111206,2,0,B|175:201|175:201|167:203|167:203|115:195,1,85,0|0,1:0|0:0,0:0:0:0:
34,251,111520,1,0,1:0:0:0:
176,335,111677,5,0,1:0:0:0:
174,341,111756,1,0,1:0:0:0:
179,345,111834,2,0,P|205:341|235:307,1,42.5,0|0,1:0|0:0,0:0:0:0:
296,358,111991,2,0,P|305:333|291:290,1,42.5,0|0,1:0|0:0,0:0:0:0:
365,265,112149,2,0,P|348:244|304:235,1,42.5,0|0,1:0|0:0,0:0:0:0:
317,163,112306,2,0,P|291:167|261:201,1,42.5,0|0,1:0|0:0,0:0:0:0:
210,206,112463,2,0,P|184:202|154:168,1,42.5,0|0,1:0|0:0,0:0:0:0:
95,217,112620,2,0,P|85:192|99:149,1,42.5,0|0,1:0|0:0,0:0:0:0:
26,124,112778,2,0,P|42:103|86:94,1,42.5,0|0,1:0|0:0,0:0:0:0:
74,22,112935,2,0,P|100:26|129:60,1,42.5,0|0,1:0|0:0,0:0:0:0:
317,163,113091,5,0,1:0:0:0:
314,173,113169,1,0,3:0:0:0:
318,183,113248,2,0,P|341:204|385:209,1,42.5,0|0,3:0|3:0,0:0:0:0:
416,249,113405,1,0,1:0:0:0:
423,256,113483,1,0,3:0:0:0:
433,258,113562,2,0,P|462:248|489:212,1,42.5,0|0,3:0|3:0,0:0:0:0:
327,284,113719,5,0,1:0:0:0:
317,284,113797,1,0,3:0:0:0:
308,289,113876,2,0,P|293:316|300:360,1,42.5,0|0,3:0|3:0,0:0:0:0:
212,333,114033,1,0,1:3:0:0:
207,341,114111,1,0,3:3:0:0:
206,351,114190,2,0,P|222:377|263:393,1,42.5,0|0,3:3|3:3,0:3:0:0:
408,176,114347,5,2,3:0:0:0:
364,158,114426,1,0,3:0:0:0:
318,183,114505,1,0,3:0:0:0:
257,232,114583,5,0,0:0:0:0:
213,247,114662,1,0,3:0:0:0:
167,228,114740,1,0,3:0:0:0:
98,183,114819,5,0,3:0:0:0:
92,180,114897,1,0,3:0:0:0:
82,176,114976,2,2,B|59:181|59:181|44:180|44:180|18:186,2,50.9999984436036,2|2|2,3:3|3:3|3:3,3:3:0:0:
147,96,115133,6,0,P|169:107|178:167,1,50.9999984436036,4|0,3:0|0:0,0:0:0:0:
167,228,115290,1,8,3:2:0:0:
144,261,115368,1,8,3:2:0:0:
101,271,115447,1,8,3:2:0:0:
60,256,115525,1,8,3:2:0:0:
60,256,116546,6,0,P|78:259|111:284,1,50.9999984436036,0|0,0:0|3:0,0:0:0:0:
166,363,116703,2,0,B|171:349|171:349|171:333|171:333|177:313,2,50.9999984436036
92,233,116861,5,4,1:0:0:0:
131,241,116939,1,0,3:0:0:0:
169,225,117018,1,0,3:0:0:0:
198,189,117096,1,0,3:0:0:0:
236,164,117175,1,8,0:0:0:0:
280,161,117253,1,0,3:0:0:0:
314,179,117332,2,0,P|329:200|329:248,1,50.9999984436036,0|0,3:0|3:0,0:0:0:0:
379,303,117489,6,0,B|397:310|397:310|413:312|413:312|451:322,2,50.9999984436036,0|0|0,1:0|3:0|3:0,0:2:0:0:
333,224,117724,1,0,3:0:0:0:
330,211,117803,2,0,P|346:181|396:167,1,50.9999984436036,8|0,0:0|3:0,0:0:0:0:
432,158,117960,1,0,3:0:0:0:
279,91,118117,5,0,1:0:0:0:
233,93,118196,1,0,3:0:0:0:
196,69,118274,1,0,3:0:0:0:
167,33,118353,1,0,3:0:0:0:
123,22,118431,1,8,3:2:0:0:
80,35,118510,1,0,3:0:0:0:
51,72,118588,2,0,B|59:94|59:94|57:113|57:113|65:146,1,50.9999984436036,2|0,3:0|0:0,0:0:0:0:
10,219,118745,5,0,1:0:0:0:
20,232,118824,1,0,3:0:0:0:
31,239,118902,2,0,P|57:235|91:205,1,50.9999984436036,0|0,3:0|3:0,0:0:0:0:
183,164,119060,5,8,0:0:0:0:
193,151,119139,1,0,3:0:0:0:
204,144,119217,2,0,P|230:148|264:178,1,50.9999984436036,0|0,3:0|3:0,3:0:0:0:
458,241,119374,5,0,1:0:0:0:
440,273,119452,1,0,3:0:0:0:
396,286,119531,1,0,3:0:0:0:
356,276,119609,1,0,3:0:0:0:
287,237,119688,5,10,3:2:0:0:
268,233,119766,1,2,3:2:0:0:
194,242,119845,5,2,3:2:0:0:
174,238,119923,1,2,3:2:0:0:
109,198,120002,6,0,L|44:209,1,50.9999984436036,2|0,1:2|0:0,0:0:0:0:
240,115,120159,5,2,3:2:0:0:
279,138,120238,1,2,3:2:0:0:
326,132,120316,1,10,3:2:0:0:
361,97,120395,1,2,3:2:0:0:
403,34,120473,2,0,L|454:42,1,50.9999984436036,0|0,3:2|3:2,3:2:0:0:
501,214,120630,5,0,1:0:0:0:
461,206,120709,1,0,3:0:0:0:
420,227,120787,1,0,3:0:0:0:
399,269,120866,1,0,3:0:0:0:
415,293,120944,5,8,0:0:0:0:
394,330,121023,1,0,3:0:0:0:
353,345,121101,1,0,3:0:0:0:
312,329,121180,1,0,3:0:0:0:
257,280,121258,5,2,1:2:0:0:
233,275,121337,1,2,3:2:0:0:
150,280,121416,5,2,3:2:0:0:
121,273,121494,1,2,3:2:0:0:
61,216,121573,6,0,B|41:220|41:220|31:226|31:226|-8:233,3,50.9999984436036,8|0|0|0,0:0|0:0|3:0|3:0,0:0:0:0:
173,80,121887,5,0,1:0:0:0:
185,84,121965,1,0,3:0:0:0:
194,92,122044,2,0,P|199:110|169:155,1,50.9999984436036
35,199,122201,5,8,0:0:0:0:
47,241,122279,1,0,3:0:0:0:
86,261,122358,1,0,3:0:0:0:
132,247,122436,1,0,3:0:0:0:
151,273,122515,5,0,1:0:0:0:
193,266,122594,1,0,3:0:0:0:
235,276,122672,1,0,3:0:0:0:
261,307,122751,1,0,3:0:0:0:
291,335,122829,1,8,0:0:0:0:
333,351,122908,1,0,3:0:0:0:
378,343,122986,1,0,3:0:0:0:
413,319,123065,1,0,3:0:0:0:
488,347,123143,5,0,1:0:0:0:
386,104,123300,6,0,B|394:131|394:131|393:141|393:141|401:168,1,50.9999984436036,0|0,3:0|0:0,0:0:0:0:
501,223,123457,2,0,B|445:220|406:188|406:188|382:241|319:251,1,191.250007295609,14|0,0:0|0:0,0:0:0:0:
277,185,123772,5,0,1:0:0:0:
249,180,123850,1,0,3:0:0:0:
230,194,123929,1,0,3:0:0:0:
216,216,124007,1,0,3:0:0:0:
214,254,124086,1,8,0:0:0:0:
189,293,124164,1,0,3:0:0:0:
144,300,124243,1,0,3:0:0:0:
103,278,124321,1,0,3:0:0:0:
53,220,124400,2,0,B|61:201|61:201|58:179|58:179|73:132,1,63.7500024318696,0|0,1:0|0:0,0:0:0:0:
231,60,124557,6,0,L|284:53,2,31.8750012159348
330,17,124714,1,10,0:2:0:0:
366,53,124793,1,2,3:2:0:0:
359,99,124871,1,2,3:2:0:0:
321,126,124950,1,2,3:2:0:0:
252,233,125107,5,2,3:2:0:0:
222,266,125185,1,2,3:2:0:0:
230,305,125264,1,2,3:2:0:0:
260,336,125342,2,0,B|284:342|284:342|299:340|299:340|349:350,1,63.7500024318696,8|0,0:2|0:2,0:2:0:0:
406,306,125499,5,2,0:0:0:0:
252,233,125656,5,0,1:0:0:0:
206,246,125735,1,0,3:0:0:0:
164,225,125813,1,0,3:0:0:0:
149,189,125892,1,0,3:0:0:0:
120,145,125971,1,8,0:0:0:0:
81,122,126049,1,0,3:0:0:0:
32,136,126128,1,0,3:0:0:0:
19,180,126206,1,0,3:0:0:0:
59,245,126285,6,2,B|55:262|55:262|55:271|55:271|46:292,6,31.8750012159348,2|2|2|2|2|2|2,1:2|0:2|0:2|0:2|0:2|0:2|0:2,0:2:0:0:
252,233,126599,6,0,P|287:219|292:170,1,63.7500024318696,0|0,1:0|0:0,0:0:0:0:
437,129,126756,2,0,L|354:115,1,63.7500024318696,0|0,3:0|3:0,3:0:0:0:
166,251,126913,6,0,P|156:298|279:321,1,197.625001507759,4|0,1:2|0:0,0:0:0:0:
160,241,127227,2,0,P|145:286|265:322,1,197.625001507759,4|0,1:2|0:0,0:0:0:0:
155,230,127541,2,0,P|136:274|251:322,1,197.625001507759,4|0,1:2|0:0,0:0:0:0:
152,220,127855,2,0,P|128:261|238:321,1,197.625001507759,4|0,1:2|0:0,0:0:0:0:
464,178,128169,5,0,1:0:0:0:
396,148,128274,1,0,1:0:0:0:
322,169,128379,1,0,1:0:0:0:
258,216,128484,2,0,P|204:210|173:79,1,175.666668006897,4|0,1:2|0:0,0:0:0:0:
249,14,128798,6,0,B|256:45|256:45|249:71|249:71|257:123,1,87.8333340034485,0|0,1:0|1:0,0:0:0:0:
152,220,129007,6,0,B|118:229|118:229|112:233|112:233|56:248,1,87.8333340034485,4|0,1:2|0:0,0:0:0:0:
34,242,129217,2,0,B|68:233|68:233|74:229|74:229|130:214,1,87.8333340034485,4|0,1:2|0:0,0:0:0:0:
253,99,129426,6,0,B|247:125|247:125|248:138|248:138|238:177,3,65.8750005025864,0|0|0|0,1:0|0:0|0:0|0:0,0:0:0:0:
377,284,129740,2,0,P|342:272|322:245,1,65.8750005025864,0|0,1:0|0:0,0:0:0:0:
354,163,129897,6,2,L|396:156,2,32.9375002512932,2|2|2,3:2|3:2|3:2,3:2:0:0:
324,250,130054,6,0,P|295:281|224:267,1,87.8333340034485,2|0,1:0|0:0,0:0:0:0:
188,325,130264,2,0,P|146:315|124:278,1,87.8333340034485,0|0,1:0|0:0,0:0:0:0:
143,9,130473,5,0,1:0:0:0:
159,79,130578,1,0,1:0:0:0:
132,194,130683,6,0,B|105:171|105:171|248:136|248:136|234:188,1,210.375002006292,8|0,1:2|0:0,0:0:0:0:
324,250,130997,2,0,B|297:273|297:273|439:308|439:308|435:292,1,197.625001507759,8|0,1:2|0:0,0:0:0:0:
490,206,131311,2,0,B|515:147|515:147|440:85|440:85|436:129,1,197.625001507759,8|0,1:2|0:0,0:0:0:0:
436,121,131625,1,6,0:0:0:0:
241,162,131939,6,0,B|234:189|234:189|236:202|236:202|223:252,2,65.8750005025864,4|0|0,1:2|0:0|0:0,0:0:0:0:
235,299,132253,2,0,B|242:272|242:272|240:259|240:259|253:209,2,65.8750005025864,4|0|0,1:2|0:0|0:0,0:0:0:0:
200,171,132567,6,0,B|193:198|193:198|195:211|195:211|182:261,2,65.8750005025864,4|0|0,1:2|0:0|0:0,0:0:0:0:
195,320,132882,2,0,B|202:293|202:293|200:280|200:280|213:230,1,65.8750005025864,4|0,1:2|0:0,0:0:0:0:
133,117,133039,6,0,P|118:162|56:177,1,98.8125007538796,4|0,1:2|0:0,0:0:0:0:
73,180,133196,2,0,L|31:190,1,32.9375002512932,0|0,1:0|0:0,0:0:0:0:
124,245,133353,2,0,L|92:253,3,32.9375002512932,0|0|0|0,1:0|0:0|1:0|0:0,0:0:0:0:
241,162,133510,6,0,B|211:191|211:191|351:221|351:221|330:173,1,197.625001507759,4|0,1:1|0:0,0:0:0:0:
338,137,133824,2,0,L|376:131,1,21.25,2|0,1:3|0:0,0:0:0:0:
500,193,134138,5,2,1:2:0:0:
483,264,134217,1,2,1:2:0:0:
426,211,134295,1,2,1:2:0:0:
409,283,134374,1,2,1:2:0:0:
345,209,134452,6,0,B|296:199|296:199|248:215|248:215|169:199|169:199|209:179,1,216.750004134178,0|0,1:0|0:0,0:0:0:0:
246,89,134766,2,0,B|276:51|276:51|162:20|162:20|178:70,1,191.250007295609,0|0,1:0|0:0,0:0:0:0:
68,75,135080,6,0,L|19:87,1,38.2499988327027,0|0,1:0|0:0,0:0:0:0:
130,135,135316,5,0,1:0:0:0:
75,192,135395,2,0,L|26:204,1,38.2499988327027,0|0,1:0|0:0,0:0:0:0:
150,249,135552,2,0,L|100:262,1,38.2499988327027,0|0,1:0|0:0,0:0:0:0:
345,209,135709,6,0,B|370:214|370:214|379:213|379:213|407:219,1,63.7500024318696,0|0,1:0|0:0,0:0:0:0:
478,187,135866,2,0,L|485:226,2,31.1666676177979,0|0|0,1:0|1:0|1:0,1:0:0:0:
345,209,136023,6,2,B|279:236|245:177|245:177|199:94|119:142,1,255.000009727478,4|0,1:0|0:0,0:1:0:0:
37,201,136337,5,8,3:0:0:0:
16,236,136416,1,8,3:0:0:0:
38,266,136494,1,4,3:0:0:0:
30,279,136573,1,12,3:0:0:0:
10,358,136651,6,2,B|35:354|35:354|56:358|56:358|103:351,6,63.7500024318696,2|2|2|2|2|2|2,1:1|0:1|0:1|0:1|0:1|0:1|0:1,0:1:0:0:
156,285,136965,5,4,1:2:0:0:
202,271,137044,1,0,3:0:0:0:
241,285,137122,1,0,3:0:0:0:
273,318,137201,1,0,3:0:0:0:
302,349,137279,1,8,0:0:0:0:
345,355,137358,1,0,3:0:0:0:
385,336,137436,1,0,3:0:0:0:
409,307,137515,6,0,B|402:287|402:287|404:269|404:269|394:229,2,50.9999984436036,2|0|0,0:0|1:0|0:0,0:0:0:0:
462,179,137751,1,2,3:2:0:0:
468,174,137829,2,0,P|491:177|522:204,2,50.9999984436036,0|8|0,3:0|0:0|0:0,0:0:0:0:
287,266,138065,6,0,P|266:280|241:284,1,50.9999984436036,0|0,3:0|0:0,0:0:0:0:
27,177,138222,5,0,1:0:0:0:
69,193,138300,1,0,3:0:0:0:
114,182,138379,1,0,3:0:0:0:
140,141,138457,1,0,3:0:0:0:
161,63,138536,5,8,0:0:0:0:
198,29,138614,1,0,3:0:0:0:
242,19,138693,1,0,3:0:0:0:
288,39,138772,1,0,3:0:0:0:
352,95,138850,5,0,1:0:0:0:
225,183,139007,6,0,P|250:181|291:144,1,50.9999984436036,2|0,3:2|0:0,0:0:0:0:
352,95,139164,1,8,0:0:0:0:
376,84,139243,2,0,P|411:92|446:134,2,50.9999984436036,2|0|0,0:2|0:0|0:0,0:0:0:0:
291,192,139478,5,0,1:0:0:0:
255,160,139557,1,0,3:0:0:0:
210,152,139635,1,0,3:0:0:0:
166,175,139714,1,0,3:0:0:0:
93,219,139793,6,0,B|72:225|72:225|57:225|57:225|18:233,3,50.9999984436036,8|0|0|0,0:0|3:0|3:0|3:0,0:0:0:0:
223,306,140107,5,2,1:2:0:0:
248,311,140185,1,2,3:2:0:0:
319,335,140264,5,2,3:2:0:0:
344,339,140342,1,2,3:2:0:0:
426,370,140421,5,8,0:0:0:0:
464,343,140499,1,0,3:0:0:0:
463,299,140578,1,0,3:0:0:0:
428,267,140656,1,0,3:0:0:0:
370,210,140735,6,0,P|373:186|404:155,3,50.9999984436036,0|0|0|0,1:0|3:0|3:0|3:0,0:0:0:0:
486,83,141049,2,0,P|468:92|399:93,1,50.9999984436036,8|0,0:0|3:0,0:0:0:0:
292,157,141206,5,0,3:0:0:0:
249,169,141285,1,0,3:0:0:0:
207,150,141363,1,0,1:0:0:0:
193,108,141442,1,0,3:0:0:0:
143,51,141520,5,0,3:0:0:0:
98,39,141599,1,0,3:0:0:0:
55,58,141677,2,0,B|41:62|41:62|18:65|18:65|-22:80,2,50.9999984436036,8|0|0,0:0|3:0|3:0,3:0:0:0:
292,157,141991,6,0,P|283:217|180:189,1,152.999995330811,4|0,1:2|0:0,0:0:0:0:
256,315,142306,5,14,0:2:0:0:
236,285,142384,1,0,3:0:0:0:
198,272,142463,1,0,3:0:0:0:
157,279,142541,1,0,3:0:0:0:
103,229,142620,5,0,1:2:0:0:
55,233,142698,1,2,3:2:0:0:
16,203,142777,1,2,3:2:0:0:
18,158,142855,1,2,3:2:0:0:
104,93,142934,5,10,3:2:0:0:
130,105,143012,1,2,3:2:0:0:
123,126,143091,1,2,3:2:0:0:
100,118,143169,1,2,3:2:0:0:
210,142,143248,6,0,B|229:146|229:146|243:145|243:145|285:154,3,50.9999984436036,2|0|2|0,1:2|0:0|0:0|3:0,0:0:0:0:
130,233,143562,5,8,0:0:0:0:
84,221,143641,1,0,3:0:0:0:
42,242,143719,1,0,3:0:0:0:
28,283,143798,1,0,3:0:0:0:
76,346,143876,6,0,P|94:344|125:322,1,50.9999984436036,0|0,1:0|3:0,0:0:0:0:
208,272,144033,2,0,B|214:256|214:256|215:244|215:244|225:209,3,50.9999984436036,0|0|8|0,3:0|3:0|0:0|3:0,0:0:0:0:
76,346,144347,6,0,P|96:360|121:364,1,50.9999984436036,0|0,0:0|3:0,0:0:0:0:
274,335,144505,5,0,1:0:0:0:
315,347,144583,1,0,3:0:0:0:
354,331,144662,1,0,3:0:0:0:
376,290,144740,1,0,3:0:0:0:
334,221,144819,5,10,3:2:0:0:
315,217,144897,1,2,3:2:0:0:
241,226,144976,5,2,3:2:0:0:
221,222,145054,1,2,3:2:0:0:
144,175,145133,6,0,L|74:188,1,50.9999984436036,0|0,1:0|3:0,0:0:0:0:
245,252,145290,6,0,L|237:293,2,25.4999992218018,0|0|0,3:0|3:0|3:0,3:0:0:0:
59,137,145447,2,0,P|81:165|165:163,1,101.999996887207,8|0,0:0|3:0,0:0:0:0:
501,100,145761,5,0,1:0:0:0:
461,83,145840,1,0,3:0:0:0:
420,93,145918,1,0,3:0:0:0:
397,127,145997,1,0,3:0:0:0:
381,165,146075,1,8,0:0:0:0:
350,190,146154,1,0,3:0:0:0:
312,199,146232,1,0,3:0:0:0:
271,178,146311,1,0,3:0:0:0:
206,129,146389,5,0,1:0:0:0:
162,117,146468,1,0,3:0:0:0:
119,132,146546,1,0,3:0:0:0:
101,174,146625,1,0,3:0:0:0:
60,235,146703,6,0,L|70:279,2,25.4999992218018,4|0|0,3:2|3:0|3:0,0:0:0:0:
77,343,146861,5,0,3:0:0:0:
97,337,146939,1,0,3:0:0:0:
208,255,147018,6,0,B|167:308|167:308|314:354|314:354|308:291,1,255.000009727478,4|0,1:2|0:0,0:0:0:0:
350,190,147332,2,0,B|328:162|328:162|461:112|461:112|438:223,1,255,0|0,1:0|0:0,0:0:0:0:
480,300,147646,6,0,B|501:348|501:348|501:354|501:354|430:341|430:341|420:344|420:344|413:338|413:338|299:318,1,255,0|0,1:0|0:0,0:1:0:0:
208,255,147960,2,0,B|132:281|132:281|104:153|104:153|190:175,1,255,0|0,1:0|0:0,0:0:0:0:
350,190,148274,5,0,1:0:0:0:
368,119,148379,1,0,1:0:0:0:
419,212,148484,1,0,1:0:0:0:
438,141,148588,2,0,L|469:135,1,31.875,0|0,1:0|0:0,0:0:0:0:
208,255,148902,5,0,1:0:0:0:
224,179,149007,1,0,1:0:0:0:
152,197,149112,2,0,L|119:192,1,31.1666676177979,0|0,1:0|0:0,0:0:0:0:
321,300,149321,6,0,L|351:305,2,28.3333333333333,0|0|0,1:0|0:0|0:0,0:0:0:0:
121,192,149531,6,0,B|112:222|112:222|115:231|115:231|95:300,2,78.6249997000694,0|0|0,1:0|0:0|0:0,0:0:0:0:
224,179,149845,2,0,B|215:209|215:209|218:218|218:218|198:287,2,78.6249997000694,0|0|0,1:0|0:0|0:0,0:0:0:0:
121,192,150159,6,0,B|112:222|112:222|115:231|115:231|95:300,1,78.6249997000694,0|0,1:0|0:0,0:0:0:0:
224,179,150368,2,0,B|215:209|215:209|218:218|218:218|198:287,1,79.3333309122722,0|0,1:0|0:0,0:0:0:0:
335,159,150578,5,0,1:0:0:0:
322,232,150683,1,0,1:0:0:0:
397,204,150787,2,0,L|437:197,1,29.7499990921021,0|0,1:0|0:0,0:0:0:0:
414,80,151101,6,0,L|384:85,1,29.7499990921021,0|0,1:0|0:0,0:0:0:0:
11,121,151416,5,0,3:0:0:0:
46,147,151494,1,0,3:0:0:0:
86,129,151573,1,0,3:0:0:0:
55,97,151651,1,0,3:0:0:0:
30,226,151730,6,0,B|25:249|25:249|26:257|26:257|20:287,1,46.7500014266968,8|0,1:2|0:1,0:0:0:0:
24,279,151939,1,2,3:0:0:0:
28,287,151991,1,2,3:0:0:0:
31,294,152044,5,2,3:0:0:0:
153,262,152358,1,2,3:0:0:0:
252,330,152672,1,2,3:0:0:0:
348,297,152986,1,2,3:0:0:0:
503,167,153300,5,0,1:0:0:0:
343,124,153614,1,0,1:0:0:0:
251,190,153929,6,0,B|230:210|230:210|243:225|243:225|269:206,1,80.7499978437424,2|2,1:3|0:0,0:0:0:0:
143,136,154243,6,2,L|111:130,2,20.1874994609356,2|2|2,0:3|0:3|0:3,0:3:0:0:
52,145,154400,2,2,L|20:139,2,20.1874994609356,2|2|2,0:3|0:3|0:3,0:3:0:0:
268,206,154557,6,2,L|308:197,2,31.8750012159348,2|2|2,1:3|0:3|0:3,0:3:0:0:
370,230,154871,6,2,L|379:270,2,31.8750012159348,2|2|2,1:3|0:3|0:3,0:3:0:0:
324,330,155185,6,2,L|284:339,2,31.8750012159348,2|2|2,1:3|0:3|0:3,0:3:0:0:
216,297,155499,6,2,L|207:257,2,31.8750012159348,2|2|2,1:3|0:3|0:3,0:3:0:0:
262,12,155813,5,2,1:3:0:0:
262,12,156128,5,2,0:1:0:0:
267,32,156206,1,2,0:1:0:0:
284,108,156285,5,2,0:1:0:0:
290,127,156363,1,2,0:1:0:0:
307,206,156442,6,0,B|301:232|301:232|303:247|303:247|289:298,1,63.7500024318696,2|0,0:1|0:0,0:0:0:0:
355,350,156599,6,2,P|310:309|206:299,1,159.375,2|2,0:1|0:1,0:1:0:0:
215,296,156756,2,2,L|141:313,8,53.125,2|2|2|2|2|2|2|2|4,0:1|0:1|0:1|0:1|0:1|0:1|0:1|0:1|0:2,0:1:0:0:
