osu file format v14

[General]
AudioFilename: audio.mp3
AudioLeadIn: 0
PreviewTime: 25167
Countdown: 0
SampleSet: Soft
StackLeniency: 0.7
Mode: 3
LetterboxInBreaks: 0
SpecialStyle: 0
WidescreenStoryboard: 0

[Editor]
DistanceSpacing: 1.2
BeatDivisor: 8
GridSize: 8
TimelineZoom: 2.599999

[Metadata]
Title:Disassembly Required
TitleUnicode:Disassembly Required
Artist:Liam Vickers
ArtistUnicode:Liam Vickers
Creator:Ly_tou
Version:Genocide
Source:Murder Drones
Tags:glitch productions serial designation V Liam Vickers 27th annual Webby Awards for Best Animation (Series & Channels) horror comedy web indie series instrumental electronic OST original soundtrack vaporwave vapor wave
BeatmapID:4368313
BeatmapSetID:2085224

[Difficulty]
HPDrainRate:7.8
CircleSize:4
OverallDifficulty:7.6
ApproachRate:5
SliderMultiplier:1.4
SliderTickRate:1

[Events]
//Background and Video events
0,0,"Murder Drones pic.jpg",0,0
//Break Periods
//Storyboard Layer 0 (Background)
//Storyboard Layer 1 (Fail)
//Storyboard Layer 2 (Pass)
//Storyboard Layer 3 (Foreground)
//Storyboard Layer 4 (Overlay)
//Storyboard Sound Samples

[TimingPoints]
167,625,4,2,1,50,1,0
35167,-100,4,2,1,30,0,1
55167,-100,4,2,1,30,0,0
75167,-100,4,2,1,30,0,1
95167,-100,4,2,1,30,0,0

[HitObjects]
320,192,167,128,0,479:0:0:0:0:
448,192,167,128,0,3917:0:0:0:0:
64,192,479,128,0,792:0:0:0:0:
192,192,792,128,0,1104:0:0:0:0:
320,192,1104,128,0,1417:0:0:0:0:
64,192,1417,128,0,1729:0:0:0:0:
320,192,1729,128,0,2042:0:0:0:0:
192,192,2042,128,0,2354:0:0:0:0:
64,192,2354,128,0,2667:0:0:0:0:
320,192,2667,128,0,2979:0:0:0:0:
64,192,2979,128,0,3292:0:0:0:0:
192,192,3292,128,0,3604:0:0:0:0:
320,192,3604,128,0,3917:0:0:0:0:
64,192,3917,128,0,5167:0:0:0:0:
192,192,3917,128,0,4229:0:0:0:0:
448,192,4229,128,0,4542:0:0:0:0:
192,192,4542,128,0,4854:0:0:0:0:
320,192,4854,128,0,5167:0:0:0:0:
448,192,5167,128,0,10167:0:0:0:0:
192,192,5167,128,0,5479:0:0:0:0:
64,192,5479,128,0,5792:0:0:0:0:
192,192,5792,128,0,6104:0:0:0:0:
320,192,6104,128,0,6417:0:0:0:0:
64,192,6417,128,0,6729:0:0:0:0:
320,192,6729,128,0,7042:0:0:0:0:
192,192,7042,128,0,7354:0:0:0:0:
64,192,7354,128,0,7667:0:0:0:0:
320,192,7667,128,0,7979:0:0:0:0:
64,192,7979,128,0,8292:0:0:0:0:
192,192,8292,128,0,8604:0:0:0:0:
320,192,8604,128,0,8917:0:0:0:0:
64,192,8917,128,0,9229:0:0:0:0:
320,192,9229,128,0,9542:0:0:0:0:
64,192,9542,128,0,9854:0:0:0:0:
192,192,9854,128,0,10167:0:0:0:0:
64,192,10167,128,0,12667:0:0:0:0:
320,192,10167,128,0,10479:0:0:0:0:
448,192,10479,128,0,10792:0:0:0:0:
320,192,10792,128,0,11104:0:0:0:0:
192,192,11104,128,0,11417:0:0:0:0:
448,192,11417,128,0,11729:0:0:0:0:
192,192,11729,128,0,12042:0:0:0:0:
320,192,12042,128,0,12354:0:0:0:0:
448,192,12354,128,0,12667:0:0:0:0:
320,192,12667,128,0,13917:0:0:0:0:
192,192,12667,128,0,12979:0:0:0:0:
64,192,12979,128,0,13292:0:0:0:0:
192,192,13292,128,0,13604:0:0:0:0:
448,192,13604,128,0,13917:0:0:0:0:
192,192,13917,128,0,14229:0:0:0:0:
64,192,13917,128,0,14854:0:0:0:0:
448,192,14229,128,0,14542:0:0:0:0:
320,192,14542,128,0,14854:0:0:0:0:
192,192,14854,128,0,15010:0:0:0:0:
320,192,15010,128,0,15167:0:0:0:0:
192,192,15167,128,0,17667:0:0:0:0:
448,192,15167,128,0,15479:0:0:0:0:
64,192,15479,128,0,15792:0:0:0:0:
320,192,15792,128,0,16104:0:0:0:0:
448,192,16104,128,0,16417:0:0:0:0:
64,192,16417,128,0,16729:0:0:0:0:
448,192,16729,128,0,17042:0:0:0:0:
320,192,17042,128,0,17354:0:0:0:0:
64,192,17354,128,0,17667:0:0:0:0:
448,192,17667,128,0,17979:0:0:0:0:
320,192,17667,128,0,18917:0:0:0:0:
192,192,17823,1,0,0:0:0:0:
64,192,17979,128,0,18292:0:0:0:0:
192,192,18292,128,0,18604:0:0:0:0:
448,192,18604,128,0,18917:0:0:0:0:
64,192,18760,1,0,0:0:0:0:
192,192,18917,128,0,19073:0:0:0:0:
320,192,19073,1,0,0:0:0:0:
192,192,19229,1,0,0:0:0:0:
448,192,19385,1,0,0:0:0:0:
64,192,19437,1,0,0:0:0:0:
192,192,19489,1,0,0:0:0:0:
320,192,19542,128,0,19698:0:0:0:0:
64,192,19698,1,0,0:0:0:0:
448,192,19750,1,0,0:0:0:0:
320,192,19802,1,0,0:0:0:0:
192,192,19854,128,0,20010:0:0:0:0:
64,192,20167,128,0,22354:0:0:0:0:
448,192,20167,128,0,22667:0:0:0:0:
320,192,20167,1,0,0:0:0:0:
192,192,20167,1,0,0:0:0:0:
320,192,20323,128,0,22510:0:0:0:0:
192,192,20323,128,0,21729:0:0:0:0:
448,192,24229,128,0,24307:0:0:0:0:
64,192,24385,1,0,0:0:0:0:
192,192,24385,1,0,0:0:0:0:
448,192,24542,1,0,0:0:0:0:
320,192,24542,128,0,24620:0:0:0:0:
448,192,24854,1,0,0:0:0:0:
64,192,24854,128,0,24932:0:0:0:0:
192,192,25167,128,0,25323:0:0:0:0:
320,192,25167,1,0,0:0:0:0:
64,192,25167,1,0,0:0:0:0:
448,192,25323,1,0,0:0:0:0:
320,192,25479,1,0,0:0:0:0:
192,192,25479,1,0,0:0:0:0:
64,192,25635,1,0,0:0:0:0:
320,192,25792,128,0,25948:0:0:0:0:
448,192,25792,1,0,0:0:0:0:
192,192,25792,1,0,0:0:0:0:
64,192,25948,1,0,0:0:0:0:
448,192,26104,1,0,0:0:0:0:
320,192,26104,1,0,0:0:0:0:
64,192,26260,1,0,0:0:0:0:
448,192,26417,128,0,26573:0:0:0:0:
192,192,26417,1,0,0:0:0:0:
320,192,26573,1,0,0:0:0:0:
64,192,26729,1,0,0:0:0:0:
192,192,26729,1,0,0:0:0:0:
320,192,26885,1,0,0:0:0:0:
448,192,26885,1,0,0:0:0:0:
64,192,27042,1,0,0:0:0:0:
448,192,27042,1,0,0:0:0:0:
192,192,27042,1,0,0:0:0:0:
320,192,27198,1,0,0:0:0:0:
448,192,27354,1,0,0:0:0:0:
64,192,27354,1,0,0:0:0:0:
192,192,27510,1,0,0:0:0:0:
448,192,27667,128,0,27823:0:0:0:0:
320,192,27667,1,0,0:0:0:0:
64,192,27823,1,0,0:0:0:0:
320,192,27979,1,0,0:0:0:0:
192,192,27979,1,0,0:0:0:0:
448,192,28135,1,0,0:0:0:0:
320,192,28292,128,0,28448:0:0:0:0:
192,192,28292,1,0,0:0:0:0:
64,192,28292,1,0,0:0:0:0:
448,192,28448,1,0,0:0:0:0:
192,192,28604,128,0,28760:0:0:0:0:
320,192,28604,1,0,0:0:0:0:
448,192,28760,1,0,0:0:0:0:
64,192,28917,128,0,29073:0:0:0:0:
192,192,28917,1,0,0:0:0:0:
320,192,29073,1,0,0:0:0:0:
448,192,29229,1,0,0:0:0:0:
64,192,29229,1,0,0:0:0:0:
192,192,29385,1,0,0:0:0:0:
320,192,29385,1,0,0:0:0:0:
448,192,29542,1,0,0:0:0:0:
64,192,29542,1,0,0:0:0:0:
192,192,29542,1,0,0:0:0:0:
320,192,29698,1,0,0:0:0:0:
448,192,29698,1,0,0:0:0:0:
64,192,29854,1,0,0:0:0:0:
192,192,29854,1,0,0:0:0:0:
320,192,30010,1,0,0:0:0:0:
448,192,30010,1,0,0:0:0:0:
320,192,30167,128,0,30323:0:0:0:0:
64,192,30167,1,0,0:0:0:0:
192,192,30323,1,0,0:0:0:0:
448,192,30479,1,0,0:0:0:0:
64,192,30479,1,0,0:0:0:0:
320,192,30635,1,0,0:0:0:0:
448,192,30792,1,0,0:0:0:0:
64,192,30792,1,0,0:0:0:0:
192,192,30792,128,0,30948:0:0:0:0:
320,192,30948,1,0,0:0:0:0:
64,192,31104,1,0,0:0:0:0:
448,192,31104,1,0,0:0:0:0:
192,192,31260,1,0,0:0:0:0:
64,192,31417,128,0,31573:0:0:0:0:
448,192,31417,1,0,0:0:0:0:
320,192,31573,1,0,0:0:0:0:
64,192,31729,1,0,0:0:0:0:
192,192,31729,1,0,0:0:0:0:
448,192,31885,1,0,0:0:0:0:
320,192,31885,1,0,0:0:0:0:
448,192,32042,1,0,0:0:0:0:
64,192,32042,1,0,0:0:0:0:
192,192,32042,1,0,0:0:0:0:
320,192,32198,1,0,0:0:0:0:
448,192,32354,1,0,0:0:0:0:
64,192,32354,1,0,0:0:0:0:
192,192,32510,1,0,0:0:0:0:
448,192,32667,128,0,32823:0:0:0:0:
320,192,32667,1,0,0:0:0:0:
64,192,32823,1,0,0:0:0:0:
320,192,32979,1,0,0:0:0:0:
192,192,32979,1,0,0:0:0:0:
448,192,33135,1,0,0:0:0:0:
64,192,33292,1,0,0:0:0:0:
192,192,33292,1,0,0:0:0:0:
320,192,33292,1,0,0:0:0:0:
448,192,33448,1,0,0:0:0:0:
320,192,33604,1,0,0:0:0:0:
64,192,33604,1,0,0:0:0:0:
192,192,33760,1,0,0:0:0:0:
320,192,33917,128,0,34073:0:0:0:0:
64,192,33917,1,0,0:0:0:0:
448,192,33917,1,0,0:0:0:0:
192,192,34073,1,0,0:0:0:0:
320,192,34229,1,0,0:0:0:0:
448,192,34229,1,0,0:0:0:0:
64,192,34385,1,0,0:0:0:0:
320,192,34385,1,0,0:0:0:0:
64,192,34542,1,0,0:0:0:0:
192,192,34542,128,0,34698:0:0:0:0:
448,192,34542,1,0,0:0:0:0:
448,192,34698,1,0,0:0:0:0:
320,192,34698,1,0,0:0:0:0:
192,192,34854,1,0,0:0:0:0:
320,192,34854,128,0,35010:0:0:0:0:
64,192,35010,1,0,0:0:0:0:
192,192,35010,1,0,0:0:0:0:
320,192,35167,1,0,0:0:0:0:
448,192,35167,1,0,0:0:0:0:
64,192,35167,128,0,35323:0:0:0:0:
192,192,35323,1,0,0:0:0:0:
448,192,35479,1,0,0:0:0:0:
64,192,35479,1,0,0:0:0:0:
320,192,35635,128,0,35792:0:0:0:0:
448,192,35792,1,0,0:0:0:0:
192,192,35792,1,0,0:0:0:0:
64,192,35792,1,0,0:0:0:0:
320,192,35948,1,0,0:0:0:0:
192,192,36104,128,0,36260:0:0:0:0:
64,192,36104,1,0,0:0:0:0:
320,192,36260,128,0,36417:0:0:0:0:
448,192,36417,128,0,36573:0:0:0:0:
192,192,36417,1,0,0:0:0:0:
64,192,36573,128,0,36729:0:0:0:0:
320,192,36729,128,0,36885:0:0:0:0:
192,192,36729,1,0,0:0:0:0:
64,192,36885,128,0,37042:0:0:0:0:
448,192,36885,1,0,0:0:0:0:
192,192,37042,1,0,0:0:0:0:
320,192,37042,1,0,0:0:0:0:
448,192,37042,128,0,37198:0:0:0:0:
192,192,37198,128,0,37354:0:0:0:0:
320,192,37354,128,0,37510:0:0:0:0:
64,192,37354,1,0,0:0:0:0:
192,192,37510,128,0,37667:0:0:0:0:
448,192,37667,128,0,37823:0:0:0:0:
320,192,37667,1,0,0:0:0:0:
64,192,37823,1,0,0:0:0:0:
192,192,37979,1,0,0:0:0:0:
448,192,37979,1,0,0:0:0:0:
320,192,38135,128,0,38292:0:0:0:0:
448,192,38292,1,0,0:0:0:0:
64,192,38292,1,0,0:0:0:0:
192,192,38292,1,0,0:0:0:0:
64,192,38448,128,0,38604:0:0:0:0:
192,192,38604,128,0,38760:0:0:0:0:
448,192,38604,1,0,0:0:0:0:
320,192,38760,128,0,38917:0:0:0:0:
64,192,38917,128,0,39073:0:0:0:0:
448,192,38917,128,0,39229:0:0:0:0:
192,192,39073,128,0,39229:0:0:0:0:
64,192,39229,128,0,39385:0:0:0:0:
320,192,39229,1,0,0:0:0:0:
448,192,39385,128,0,39542:0:0:0:0:
320,192,39385,1,0,0:0:0:0:
192,192,39542,1,0,0:0:0:0:
64,192,39542,1,0,0:0:0:0:
64,192,39698,1,0,0:0:0:0:
448,192,39698,1,0,0:0:0:0:
320,192,39854,1,0,0:0:0:0:
192,192,39854,128,0,40010:0:0:0:0:
64,192,40010,1,0,0:0:0:0:
448,192,40010,1,0,0:0:0:0:
192,192,40167,1,0,0:0:0:0:
320,192,40167,128,0,40323:0:0:0:0:
448,192,40323,1,0,0:0:0:0:
320,192,40479,1,0,0:0:0:0:
64,192,40479,1,0,0:0:0:0:
192,192,40635,128,0,40792:0:0:0:0:
64,192,40792,1,0,0:0:0:0:
320,192,40792,1,0,0:0:0:0:
448,192,40792,1,0,0:0:0:0:
192,192,40948,1,0,0:0:0:0:
320,192,41104,128,0,41260:0:0:0:0:
448,192,41104,1,0,0:0:0:0:
192,192,41260,128,0,41417:0:0:0:0:
64,192,41417,128,0,41573:0:0:0:0:
320,192,41417,1,0,0:0:0:0:
448,192,41573,128,0,41729:0:0:0:0:
192,192,41729,128,0,41885:0:0:0:0:
320,192,41729,1,0,0:0:0:0:
448,192,41885,128,0,42042:0:0:0:0:
64,192,41885,1,0,0:0:0:0:
320,192,42042,1,0,0:0:0:0:
192,192,42042,1,0,0:0:0:0:
64,192,42042,128,0,42198:0:0:0:0:
320,192,42198,128,0,42354:0:0:0:0:
192,192,42354,128,0,42510:0:0:0:0:
448,192,42354,1,0,0:0:0:0:
320,192,42510,128,0,42667:0:0:0:0:
64,192,42667,128,0,42823:0:0:0:0:
192,192,42667,1,0,0:0:0:0:
448,192,42823,1,0,0:0:0:0:
320,192,42979,1,0,0:0:0:0:
64,192,42979,1,0,0:0:0:0:
192,192,43135,128,0,43292:0:0:0:0:
64,192,43292,1,0,0:0:0:0:
448,192,43292,1,0,0:0:0:0:
320,192,43292,1,0,0:0:0:0:
448,192,43448,128,0,43604:0:0:0:0:
320,192,43604,128,0,43760:0:0:0:0:
192,192,43604,1,0,0:0:0:0:
192,192,43760,128,0,43917:0:0:0:0:
64,192,43917,1,0,0:0:0:0:
320,192,43917,1,0,0:0:0:0:
448,192,43917,128,0,44073:0:0:0:0:
64,192,44073,128,0,44229:0:0:0:0:
192,192,44229,1,0,0:0:0:0:
320,192,44268,128,0,44542:0:0:0:0:
448,192,44307,128,0,44542:0:0:0:0:
192,192,44542,128,0,44698:0:0:0:0:
448,192,44698,1,0,0:0:0:0:
320,192,44698,1,0,0:0:0:0:
64,192,44854,128,0,45010:0:0:0:0:
192,192,44854,1,0,0:0:0:0:
320,192,45010,1,0,0:0:0:0:
448,192,45010,1,0,0:0:0:0:
192,192,45167,1,0,0:0:0:0:
64,192,45167,1,0,0:0:0:0:
448,192,45167,128,0,45323:0:0:0:0:
320,192,45323,128,0,45479:0:0:0:0:
64,192,45479,128,0,45792:0:0:0:0:
192,192,45479,1,0,0:0:0:0:
320,192,45792,1,0,0:0:0:0:
448,192,45792,1,0,0:0:0:0:
192,192,45792,1,0,0:0:0:0:
448,192,45948,128,0,46104:0:0:0:0:
64,192,46104,1,0,0:0:0:0:
192,192,46104,1,0,0:0:0:0:
448,192,46260,128,0,46417:0:0:0:0:
320,192,46417,1,0,0:0:0:0:
192,192,46417,1,0,0:0:0:0:
64,192,46573,128,0,46729:0:0:0:0:
448,192,46729,1,0,0:0:0:0:
320,192,46729,1,0,0:0:0:0:
320,192,46885,128,0,47042:0:0:0:0:
192,192,46885,1,0,0:0:0:0:
64,192,47042,1,0,0:0:0:0:
192,192,47042,1,0,0:0:0:0:
448,192,47042,1,0,0:0:0:0:
320,192,47198,128,0,47354:0:0:0:0:
64,192,47354,1,0,0:0:0:0:
192,192,47354,1,0,0:0:0:0:
192,192,47510,128,0,47667:0:0:0:0:
448,192,47667,1,0,0:0:0:0:
64,192,47667,128,0,47823:0:0:0:0:
192,192,47823,128,0,47979:0:0:0:0:
448,192,47979,128,0,48292:0:0:0:0:
320,192,47979,1,0,0:0:0:0:
192,192,48292,1,0,0:0:0:0:
64,192,48292,1,0,0:0:0:0:
320,192,48292,1,0,0:0:0:0:
320,192,48448,128,0,48604:0:0:0:0:
64,192,48604,1,0,0:0:0:0:
192,192,48604,1,0,0:0:0:0:
192,192,48760,128,0,48917:0:0:0:0:
320,192,48917,1,0,0:0:0:0:
448,192,48917,1,0,0:0:0:0:
64,192,49073,128,0,49229:0:0:0:0:
448,192,49229,1,0,0:0:0:0:
320,192,49229,1,0,0:0:0:0:
192,192,49385,1,0,0:0:0:0:
320,192,49385,128,0,49542:0:0:0:0:
448,192,49542,1,0,0:0:0:0:
64,192,49542,1,0,0:0:0:0:
192,192,49542,1,0,0:0:0:0:
320,192,49698,1,0,0:0:0:0:
448,192,49698,1,0,0:0:0:0:
192,192,49854,1,0,0:0:0:0:
320,192,49854,1,0,0:0:0:0:
64,192,50010,1,0,0:0:0:0:
192,192,50010,1,0,0:0:0:0:
64,192,50167,1,0,0:0:0:0:
320,192,50167,128,0,50323:0:0:0:0:
448,192,50323,128,0,50479:0:0:0:0:
64,192,50479,128,0,50792:0:0:0:0:
192,192,50479,1,0,0:0:0:0:
320,192,50792,1,0,0:0:0:0:
448,192,50792,1,0,0:0:0:0:
192,192,50792,1,0,0:0:0:0:
448,192,50948,128,0,51104:0:0:0:0:
192,192,51104,1,0,0:0:0:0:
320,192,51104,1,0,0:0:0:0:
448,192,51260,128,0,51417:0:0:0:0:
64,192,51417,1,0,0:0:0:0:
192,192,51417,1,0,0:0:0:0:
320,192,51573,128,0,51729:0:0:0:0:
64,192,51729,1,0,0:0:0:0:
192,192,51729,1,0,0:0:0:0:
320,192,51885,1,0,0:0:0:0:
192,192,51885,128,0,52042:0:0:0:0:
64,192,52042,1,0,0:0:0:0:
320,192,52042,1,0,0:0:0:0:
448,192,52042,1,0,0:0:0:0:
192,192,52198,128,0,52354:0:0:0:0:
448,192,52354,1,0,0:0:0:0:
320,192,52354,1,0,0:0:0:0:
320,192,52510,128,0,52667:0:0:0:0:
448,192,52667,1,0,0:0:0:0:
192,192,52667,128,0,52823:0:0:0:0:
64,192,52823,128,0,52979:0:0:0:0:
320,192,52979,1,0,0:0:0:0:
448,192,52979,128,0,53292:0:0:0:0:
320,192,53292,1,0,0:0:0:0:
64,192,53292,1,0,0:0:0:0:
192,192,53292,1,0,0:0:0:0:
320,192,53448,128,0,53604:0:0:0:0:
64,192,53604,1,0,0:0:0:0:
192,192,53604,1,0,0:0:0:0:
192,192,53760,128,0,53917:0:0:0:0:
448,192,53917,1,0,0:0:0:0:
320,192,53917,1,0,0:0:0:0:
64,192,54073,128,0,54229:0:0:0:0:
192,192,54229,1,0,0:0:0:0:
320,192,54229,1,0,0:0:0:0:
320,192,54385,128,0,54542:0:0:0:0:
64,192,54385,1,0,0:0:0:0:
192,192,54542,1,0,0:0:0:0:
448,192,54542,1,0,0:0:0:0:
64,192,54542,1,0,0:0:0:0:
448,192,54698,1,0,0:0:0:0:
320,192,54698,1,0,0:0:0:0:
320,192,54854,1,0,0:0:0:0:
192,192,54854,1,0,0:0:0:0:
192,192,55010,1,0,0:0:0:0:
64,192,55010,1,0,0:0:0:0:
448,192,55167,128,0,55479:0:0:0:0:
64,192,55167,128,0,55323:0:0:0:0:
320,192,55167,1,0,0:0:0:0:
320,192,55479,128,0,55792:0:0:0:0:
192,192,55792,128,0,56104:0:0:0:0:
448,192,55792,1,0,0:0:0:0:
64,192,55792,128,0,55948:0:0:0:0:
448,192,56104,128,0,56417:0:0:0:0:
320,192,56417,128,0,56729:0:0:0:0:
192,192,56417,128,0,56573:0:0:0:0:
64,192,56729,128,0,57042:0:0:0:0:
192,192,57042,128,0,57354:0:0:0:0:
320,192,57042,1,0,0:0:0:0:
448,192,57042,1,0,0:0:0:0:
320,192,57354,128,0,57667:0:0:0:0:
64,192,57667,128,0,57979:0:0:0:0:
192,192,57667,128,0,57823:0:0:0:0:
448,192,57979,128,0,58292:0:0:0:0:
192,192,58292,128,0,58917:0:0:0:0:
64,192,58292,1,0,0:0:0:0:
320,192,58292,1,0,0:0:0:0:
64,192,58604,128,0,59229:0:0:0:0:
320,192,58917,128,0,59229:0:0:0:0:
448,192,58917,1,0,0:0:0:0:
192,192,59229,1,0,0:0:0:0:
448,192,59385,1,0,0:0:0:0:
320,192,59385,1,0,0:0:0:0:
64,192,59542,1,0,0:0:0:0:
192,192,59542,1,0,0:0:0:0:
448,192,59542,1,0,0:0:0:0:
192,192,59698,1,0,0:0:0:0:
320,192,59698,1,0,0:0:0:0:
320,192,59854,1,0,0:0:0:0:
448,192,59854,1,0,0:0:0:0:
192,192,60010,1,0,0:0:0:0:
64,192,60010,1,0,0:0:0:0:
448,192,60167,128,0,60479:0:0:0:0:
320,192,60167,1,0,0:0:0:0:
64,192,60167,128,0,60323:0:0:0:0:
192,192,60479,128,0,60792:0:0:0:0:
320,192,60792,128,0,61104:0:0:0:0:
64,192,60792,1,0,0:0:0:0:
448,192,60792,128,0,60948:0:0:0:0:
64,192,61104,128,0,61417:0:0:0:0:
192,192,61417,128,0,61729:0:0:0:0:
320,192,61417,128,0,61573:0:0:0:0:
448,192,61729,128,0,62042:0:0:0:0:
320,192,62042,128,0,62354:0:0:0:0:
192,192,62042,1,0,0:0:0:0:
64,192,62042,1,0,0:0:0:0:
192,192,62354,128,0,62667:0:0:0:0:
448,192,62667,128,0,63760:0:0:0:0:
320,192,62667,1,0,0:0:0:0:
64,192,62979,1,0,0:0:0:0:
192,192,63031,1,0,0:0:0:0:
320,192,63083,1,0,0:0:0:0:
320,192,63292,1,0,0:0:0:0:
192,192,63344,1,0,0:0:0:0:
64,192,63396,1,0,0:0:0:0:
64,192,63760,1,0,0:0:0:0:
192,192,63812,1,0,0:0:0:0:
320,192,63864,1,0,0:0:0:0:
448,192,63917,128,0,64542:0:0:0:0:
320,192,64229,1,0,0:0:0:0:
192,192,64281,1,0,0:0:0:0:
64,192,64333,1,0,0:0:0:0:
192,192,64542,1,0,0:0:0:0:
320,192,64594,1,0,0:0:0:0:
448,192,64646,1,0,0:0:0:0:
64,192,64698,1,0,0:0:0:0:
192,192,64750,1,0,0:0:0:0:
320,192,64802,1,0,0:0:0:0:
448,192,64854,128,0,65010:0:0:0:0:
64,192,64854,1,0,0:0:0:0:
192,192,65010,1,0,0:0:0:0:
320,192,65010,1,0,0:0:0:0:
64,192,65167,128,0,65323:0:0:0:0:
448,192,65167,1,0,0:0:0:0:
192,192,65167,1,0,0:0:0:0:
320,192,65323,1,0,0:0:0:0:
64,192,65479,1,0,0:0:0:0:
448,192,65479,1,0,0:0:0:0:
192,192,65792,128,0,65948:0:0:0:0:
448,192,65948,1,0,0:0:0:0:
320,192,65948,1,0,0:0:0:0:
448,192,66104,1,0,0:0:0:0:
192,192,66104,1,0,0:0:0:0:
64,192,66104,1,0,0:0:0:0:
320,192,66417,128,0,66573:0:0:0:0:
192,192,66417,1,0,0:0:0:0:
448,192,66729,1,0,0:0:0:0:
64,192,66729,1,0,0:0:0:0:
320,192,66729,1,0,0:0:0:0:
192,192,66885,1,0,0:0:0:0:
448,192,67198,1,0,0:0:0:0:
320,192,67198,1,0,0:0:0:0:
192,192,67354,1,0,0:0:0:0:
64,192,67354,1,0,0:0:0:0:
448,192,67354,1,0,0:0:0:0:
320,192,67510,1,0,0:0:0:0:
192,192,67510,1,0,0:0:0:0:
448,192,67667,128,0,67823:0:0:0:0:
64,192,67667,1,0,0:0:0:0:
192,192,67823,1,0,0:0:0:0:
448,192,67979,1,0,0:0:0:0:
64,192,67979,1,0,0:0:0:0:
320,192,67979,1,0,0:0:0:0:
192,192,68135,1,0,0:0:0:0:
320,192,68292,128,0,68448:0:0:0:0:
192,192,68448,1,0,0:0:0:0:
448,192,68448,1,0,0:0:0:0:
192,192,68604,128,0,68760:0:0:0:0:
448,192,68604,1,0,0:0:0:0:
64,192,68604,1,0,0:0:0:0:
64,192,68917,128,0,69073:0:0:0:0:
320,192,68917,1,0,0:0:0:0:
448,192,69073,1,0,0:0:0:0:
64,192,69229,1,0,0:0:0:0:
192,192,69229,1,0,0:0:0:0:
320,192,69229,1,0,0:0:0:0:
448,192,69385,1,0,0:0:0:0:
320,192,69698,1,0,0:0:0:0:
192,192,69698,1,0,0:0:0:0:
64,192,69854,1,0,0:0:0:0:
448,192,69854,1,0,0:0:0:0:
320,192,69854,1,0,0:0:0:0:
64,192,70010,1,0,0:0:0:0:
192,192,70010,1,0,0:0:0:0:
320,192,70167,1,0,0:0:0:0:
448,192,70167,128,0,70323:0:0:0:0:
192,192,70323,1,0,0:0:0:0:
320,192,70479,1,0,0:0:0:0:
448,192,70479,1,0,0:0:0:0:
64,192,70479,1,0,0:0:0:0:
192,192,70635,1,0,0:0:0:0:
320,192,70792,128,0,70948:0:0:0:0:
192,192,70948,1,0,0:0:0:0:
64,192,70948,1,0,0:0:0:0:
64,192,71104,1,0,0:0:0:0:
320,192,71104,1,0,0:0:0:0:
448,192,71104,1,0,0:0:0:0:
192,192,71260,1,0,0:0:0:0:
64,192,71417,128,0,71573:0:0:0:0:
448,192,71417,1,0,0:0:0:0:
320,192,71573,1,0,0:0:0:0:
448,192,71729,1,0,0:0:0:0:
64,192,71729,1,0,0:0:0:0:
192,192,71729,1,0,0:0:0:0:
320,192,71885,1,0,0:0:0:0:
448,192,72198,1,0,0:0:0:0:
64,192,72198,1,0,0:0:0:0:
64,192,72354,1,0,0:0:0:0:
192,192,72354,1,0,0:0:0:0:
320,192,72354,1,0,0:0:0:0:
448,192,72510,1,0,0:0:0:0:
320,192,72510,1,0,0:0:0:0:
192,192,72667,128,0,72823:0:0:0:0:
64,192,72667,1,0,0:0:0:0:
448,192,72823,1,0,0:0:0:0:
64,192,72979,1,0,0:0:0:0:
448,192,73135,128,0,73292:0:0:0:0:
192,192,73292,1,0,0:0:0:0:
320,192,73448,1,0,0:0:0:0:
64,192,73604,128,0,73760:0:0:0:0:
192,192,73760,128,0,73917:0:0:0:0:
320,192,73917,128,0,74073:0:0:0:0:
448,192,74073,128,0,74229:0:0:0:0:
320,192,74229,1,0,0:0:0:0:
192,192,74268,128,0,74542:0:0:0:0:
64,192,74307,128,0,74542:0:0:0:0:
448,192,74542,128,0,74698:0:0:0:0:
320,192,74698,1,0,0:0:0:0:
64,192,74698,1,0,0:0:0:0:
192,192,74854,1,0,0:0:0:0:
320,192,74854,128,0,75010:0:0:0:0:
64,192,75010,1,0,0:0:0:0:
192,192,75010,1,0,0:0:0:0:
320,192,75167,1,0,0:0:0:0:
64,192,75167,1,0,0:0:0:0:
448,192,75167,128,0,75323:0:0:0:0:
192,192,75323,1,0,0:0:0:0:
64,192,75479,1,0,0:0:0:0:
448,192,75479,1,0,0:0:0:0:
320,192,75635,128,0,75792:0:0:0:0:
64,192,75792,1,0,0:0:0:0:
192,192,75792,1,0,0:0:0:0:
448,192,75792,1,0,0:0:0:0:
320,192,75948,1,0,0:0:0:0:
64,192,76104,1,0,0:0:0:0:
192,192,76104,128,0,76260:0:0:0:0:
320,192,76260,128,0,76417:0:0:0:0:
192,192,76417,1,0,0:0:0:0:
448,192,76417,128,0,76573:0:0:0:0:
64,192,76573,128,0,76729:0:0:0:0:
192,192,76729,1,0,0:0:0:0:
320,192,76729,128,0,76885:0:0:0:0:
448,192,76885,1,0,0:0:0:0:
64,192,76885,128,0,77042:0:0:0:0:
448,192,77042,128,0,77198:0:0:0:0:
320,192,77042,1,0,0:0:0:0:
192,192,77042,1,0,0:0:0:0:
192,192,77198,128,0,77354:0:0:0:0:
64,192,77354,1,0,0:0:0:0:
320,192,77354,128,0,77510:0:0:0:0:
192,192,77510,128,0,77667:0:0:0:0:
320,192,77667,1,0,0:0:0:0:
448,192,77667,128,0,77823:0:0:0:0:
64,192,77823,1,0,0:0:0:0:
448,192,77979,1,0,0:0:0:0:
192,192,77979,1,0,0:0:0:0:
320,192,78135,128,0,78292:0:0:0:0:
192,192,78292,1,0,0:0:0:0:
64,192,78292,1,0,0:0:0:0:
448,192,78292,1,0,0:0:0:0:
448,192,78448,128,0,78604:0:0:0:0:
320,192,78604,128,0,78760:0:0:0:0:
64,192,78604,1,0,0:0:0:0:
192,192,78760,128,0,78917:0:0:0:0:
448,192,78917,128,0,79073:0:0:0:0:
64,192,78917,128,0,79229:0:0:0:0:
320,192,79073,128,0,79229:0:0:0:0:
448,192,79229,128,0,79385:0:0:0:0:
192,192,79229,1,0,0:0:0:0:
64,192,79385,128,0,79542:0:0:0:0:
192,192,79385,1,0,0:0:0:0:
320,192,79542,1,0,0:0:0:0:
448,192,79542,1,0,0:0:0:0:
448,192,79698,1,0,0:0:0:0:
64,192,79698,1,0,0:0:0:0:
320,192,79854,1,0,0:0:0:0:
192,192,79854,128,0,80010:0:0:0:0:
448,192,80010,1,0,0:0:0:0:
64,192,80010,1,0,0:0:0:0:
192,192,80167,1,0,0:0:0:0:
320,192,80167,128,0,80323:0:0:0:0:
448,192,80323,1,0,0:0:0:0:
64,192,80479,1,0,0:0:0:0:
320,192,80479,1,0,0:0:0:0:
192,192,80635,128,0,80792:0:0:0:0:
64,192,80792,1,0,0:0:0:0:
320,192,80792,1,0,0:0:0:0:
448,192,80792,1,0,0:0:0:0:
192,192,80948,1,0,0:0:0:0:
320,192,81104,128,0,81260:0:0:0:0:
448,192,81104,1,0,0:0:0:0:
192,192,81260,128,0,81417:0:0:0:0:
64,192,81417,128,0,81573:0:0:0:0:
320,192,81417,1,0,0:0:0:0:
448,192,81573,128,0,81729:0:0:0:0:
192,192,81729,128,0,81885:0:0:0:0:
320,192,81729,1,0,0:0:0:0:
448,192,81885,128,0,82042:0:0:0:0:
64,192,81885,1,0,0:0:0:0:
320,192,82042,1,0,0:0:0:0:
192,192,82042,1,0,0:0:0:0:
64,192,82042,128,0,82198:0:0:0:0:
320,192,82198,128,0,82354:0:0:0:0:
192,192,82354,128,0,82510:0:0:0:0:
448,192,82354,1,0,0:0:0:0:
320,192,82510,128,0,82667:0:0:0:0:
64,192,82667,128,0,82823:0:0:0:0:
192,192,82667,1,0,0:0:0:0:
448,192,82823,1,0,0:0:0:0:
320,192,82979,1,0,0:0:0:0:
64,192,82979,1,0,0:0:0:0:
192,192,83135,128,0,83292:0:0:0:0:
64,192,83292,1,0,0:0:0:0:
448,192,83292,1,0,0:0:0:0:
320,192,83292,1,0,0:0:0:0:
64,192,83448,128,0,83604:0:0:0:0:
192,192,83604,128,0,83760:0:0:0:0:
320,192,83604,1,0,0:0:0:0:
320,192,83760,128,0,83917:0:0:0:0:
448,192,83917,1,0,0:0:0:0:
192,192,83917,1,0,0:0:0:0:
64,192,83917,128,0,84073:0:0:0:0:
320,192,84073,128,0,84229:0:0:0:0:
448,192,84229,1,0,0:0:0:0:
64,192,84268,128,0,84385:0:0:0:0:
192,192,84307,128,0,84385:0:0:0:0:
448,192,84385,1,0,0:0:0:0:
320,192,84385,1,0,0:0:0:0:
64,192,84542,1,0,0:0:0:0:
448,192,84542,128,0,84698:0:0:0:0:
192,192,84698,1,0,0:0:0:0:
448,192,84854,1,0,0:0:0:0:
320,192,84854,128,0,85010:0:0:0:0:
192,192,85010,1,0,0:0:0:0:
64,192,85010,1,0,0:0:0:0:
64,192,85167,128,0,85323:0:0:0:0:
320,192,85167,1,0,0:0:0:0:
448,192,85167,1,0,0:0:0:0:
192,192,85323,128,0,85479:0:0:0:0:
448,192,85479,128,0,85792:0:0:0:0:
320,192,85479,1,0,0:0:0:0:
192,192,85792,1,0,0:0:0:0:
64,192,85792,1,0,0:0:0:0:
320,192,85792,1,0,0:0:0:0:
64,192,85948,128,0,86104:0:0:0:0:
448,192,86104,1,0,0:0:0:0:
320,192,86104,1,0,0:0:0:0:
64,192,86260,128,0,86417:0:0:0:0:
192,192,86417,1,0,0:0:0:0:
320,192,86417,1,0,0:0:0:0:
448,192,86573,128,0,86729:0:0:0:0:
64,192,86729,1,0,0:0:0:0:
192,192,86729,1,0,0:0:0:0:
192,192,86885,128,0,87042:0:0:0:0:
320,192,86885,1,0,0:0:0:0:
448,192,87042,1,0,0:0:0:0:
320,192,87042,1,0,0:0:0:0:
64,192,87042,1,0,0:0:0:0:
192,192,87198,128,0,87354:0:0:0:0:
448,192,87354,1,0,0:0:0:0:
320,192,87354,1,0,0:0:0:0:
320,192,87510,128,0,87667:0:0:0:0:
448,192,87667,128,0,87823:0:0:0:0:
64,192,87667,1,0,0:0:0:0:
320,192,87823,128,0,87979:0:0:0:0:
64,192,87979,128,0,88292:0:0:0:0:
192,192,87979,1,0,0:0:0:0:
320,192,88292,1,0,0:0:0:0:
448,192,88292,1,0,0:0:0:0:
192,192,88292,1,0,0:0:0:0:
192,192,88448,128,0,88604:0:0:0:0:
448,192,88604,1,0,0:0:0:0:
320,192,88604,1,0,0:0:0:0:
320,192,88760,128,0,88917:0:0:0:0:
192,192,88917,1,0,0:0:0:0:
64,192,88917,1,0,0:0:0:0:
448,192,89073,128,0,89229:0:0:0:0:
64,192,89229,1,0,0:0:0:0:
192,192,89229,1,0,0:0:0:0:
192,192,89385,128,0,89542:0:0:0:0:
320,192,89385,1,0,0:0:0:0:
64,192,89542,1,0,0:0:0:0:
448,192,89542,1,0,0:0:0:0:
320,192,89542,1,0,0:0:0:0:
192,192,89698,1,0,0:0:0:0:
64,192,89698,1,0,0:0:0:0:
320,192,89854,1,0,0:0:0:0:
192,192,89854,1,0,0:0:0:0:
448,192,90010,1,0,0:0:0:0:
320,192,90010,1,0,0:0:0:0:
192,192,90167,128,0,90323:0:0:0:0:
448,192,90167,1,0,0:0:0:0:
64,192,90323,128,0,90479:0:0:0:0:
448,192,90479,128,0,90792:0:0:0:0:
320,192,90479,1,0,0:0:0:0:
192,192,90792,1,0,0:0:0:0:
64,192,90792,1,0,0:0:0:0:
320,192,90792,1,0,0:0:0:0:
64,192,90948,128,0,91104:0:0:0:0:
448,192,91104,1,0,0:0:0:0:
192,192,91104,1,0,0:0:0:0:
64,192,91260,128,0,91417:0:0:0:0:
448,192,91417,1,0,0:0:0:0:
320,192,91417,1,0,0:0:0:0:
192,192,91573,128,0,91729:0:0:0:0:
448,192,91729,1,0,0:0:0:0:
320,192,91729,1,0,0:0:0:0:
320,192,91885,128,0,92042:0:0:0:0:
192,192,91885,1,0,0:0:0:0:
448,192,92042,1,0,0:0:0:0:
192,192,92042,1,0,0:0:0:0:
64,192,92042,1,0,0:0:0:0:
320,192,92198,128,0,92354:0:0:0:0:
64,192,92354,1,0,0:0:0:0:
192,192,92354,1,0,0:0:0:0:
192,192,92510,128,0,92667:0:0:0:0:
320,192,92667,128,0,92823:0:0:0:0:
64,192,92667,1,0,0:0:0:0:
448,192,92823,128,0,92979:0:0:0:0:
64,192,92979,128,0,93292:0:0:0:0:
192,192,92979,1,0,0:0:0:0:
192,192,93292,1,0,0:0:0:0:
448,192,93292,1,0,0:0:0:0:
320,192,93292,1,0,0:0:0:0:
192,192,93448,128,0,93604:0:0:0:0:
320,192,93604,1,0,0:0:0:0:
448,192,93604,1,0,0:0:0:0:
448,192,93760,128,0,93917:0:0:0:0:
64,192,93917,1,0,0:0:0:0:
192,192,93917,1,0,0:0:0:0:
320,192,94073,1,0,0:0:0:0:
64,192,94229,1,0,0:0:0:0:
192,192,94281,1,0,0:0:0:0:
320,192,94333,1,0,0:0:0:0:
448,192,94489,1,0,0:0:0:0:
320,192,94542,1,0,0:0:0:0:
192,192,94594,1,0,0:0:0:0:
64,192,94646,1,0,0:0:0:0:
448,192,94698,1,0,0:0:0:0:
320,192,94698,1,0,0:0:0:0:
192,192,94854,1,0,0:0:0:0:
320,192,94854,1,0,0:0:0:0:
64,192,95010,1,0,0:0:0:0:
192,192,95010,1,0,0:0:0:0:
448,192,95167,1,0,0:0:0:0:
64,192,95167,128,0,95479:0:0:0:0:
320,192,95167,1,0,0:0:0:0:
320,192,95479,128,0,95792:0:0:0:0:
448,192,95479,1,0,0:0:0:0:
192,192,95792,128,0,96104:0:0:0:0:
64,192,96104,128,0,96417:0:0:0:0:
448,192,96104,1,0,0:0:0:0:
448,192,96417,128,0,96729:0:0:0:0:
64,192,96729,128,0,97042:0:0:0:0:
320,192,96729,1,0,0:0:0:0:
192,192,97042,128,0,97354:0:0:0:0:
320,192,97354,128,0,97667:0:0:0:0:
448,192,97354,1,0,0:0:0:0:
64,192,97667,128,0,97979:0:0:0:0:
448,192,97979,128,0,98292:0:0:0:0:
192,192,97979,1,0,0:0:0:0:
320,192,98292,128,0,98604:0:0:0:0:
192,192,98604,128,0,98917:0:0:0:0:
64,192,98604,1,0,0:0:0:0:
320,192,98917,128,0,99229:0:0:0:0:
448,192,99229,1,0,0:0:0:0:
64,192,99229,128,0,99542:0:0:0:0:
448,192,99542,128,0,99854:0:0:0:0:
64,192,99854,1,0,0:0:0:0:
192,192,99854,128,0,100167:0:0:0:0:
320,192,100167,128,0,100479:0:0:0:0:
448,192,100479,1,0,0:0:0:0:
64,192,100479,128,0,100792:0:0:0:0:
192,192,100792,128,0,101104:0:0:0:0:
448,192,101104,1,0,0:0:0:0:
320,192,101104,128,0,101417:0:0:0:0:
64,192,101417,128,0,101729:0:0:0:0:
448,192,101729,1,0,0:0:0:0:
320,192,101729,128,0,102042:0:0:0:0:
192,192,102042,128,0,102354:0:0:0:0:
448,192,102354,1,0,0:0:0:0:
64,192,102354,128,0,102667:0:0:0:0:
320,192,102667,128,0,102979:0:0:0:0:
448,192,102979,1,0,0:0:0:0:
64,192,102979,128,0,103292:0:0:0:0:
192,192,103292,128,0,103604:0:0:0:0:
448,192,103604,1,0,0:0:0:0:
320,192,103604,128,0,103917:0:0:0:0:
192,192,103917,128,0,104229:0:0:0:0:
448,192,104229,128,0,104542:0:0:0:0:
64,192,104229,1,0,0:0:0:0:
192,192,104542,128,0,104854:0:0:0:0:
320,192,104854,128,0,105167:0:0:0:0:
448,192,104854,1,0,0:0:0:0:
64,192,105167,128,0,105479:0:0:0:0:
192,192,105167,1,0,0:0:0:0:
448,192,105479,128,0,105792:0:0:0:0:
320,192,105792,128,0,106104:0:0:0:0:
192,192,106104,128,0,106417:0:0:0:0:
448,192,106417,128,0,106729:0:0:0:0:
320,192,106417,1,0,0:0:0:0:
64,192,106729,128,0,107042:0:0:0:0:
192,192,107042,128,0,107354:0:0:0:0:
320,192,107354,128,0,107667:0:0:0:0:
64,192,107667,128,0,107979:0:0:0:0:
192,192,107667,1,0,0:0:0:0:
448,192,107979,128,0,108292:0:0:0:0:
320,192,108292,128,0,108604:0:0:0:0:
192,192,108604,128,0,108917:0:0:0:0:
448,192,108917,128,0,109229:0:0:0:0:
320,192,108917,1,0,0:0:0:0:
64,192,109229,128,0,109542:0:0:0:0:
320,192,109542,128,0,109854:0:0:0:0:
64,192,109854,128,0,110167:0:0:0:0:
448,192,110167,128,0,110479:0:0:0:0:
320,192,110167,1,0,0:0:0:0:
64,192,110479,128,0,110792:0:0:0:0:
192,192,110792,128,0,111104:0:0:0:0:
320,192,111104,128,0,111417:0:0:0:0:
64,192,111417,128,0,111729:0:0:0:0:
192,192,111417,1,0,0:0:0:0:
448,192,111729,128,0,112042:0:0:0:0:
320,192,112042,128,0,112354:0:0:0:0:
192,192,112354,128,0,112667:0:0:0:0:
448,192,112667,128,0,112979:0:0:0:0:
320,192,112667,1,0,0:0:0:0:
64,192,112979,128,0,113292:0:0:0:0:
192,192,113292,128,0,113604:0:0:0:0:
320,192,113604,128,0,113917:0:0:0:0:
64,192,113917,128,0,114229:0:0:0:0:
192,192,113917,1,0,0:0:0:0:
448,192,114229,128,0,114542:0:0:0:0:
320,192,114542,128,0,114854:0:0:0:0:
64,192,114854,128,0,115167:0:0:0:0:
320,192,115167,128,0,117667:0:0:0:0:
448,192,115167,1,0,0:0:0:0:
