osu file format v14

[General]
AudioFilename: audio.mp3
AudioLeadIn: 0
PreviewTime: -1
Countdown: 0
SampleSet: Soft
StackLeniency: 0.2
Mode: 0
LetterboxInBreaks: 0
WidescreenStoryboard: 1

[Editor]
Bookmarks: 17120,41293,69782
DistanceSpacing: 2.2
BeatDivisor: 4
GridSize: 8
TimelineZoom: 1

[Metadata]
Title:Toki wo Kizamu Uta (TV Size)
TitleUnicode:Toki wo Kizamu Uta (TV Size)
Artist:Lia
ArtistUnicode:Lia
Creator:robicoco101
Version:Insane
Source:Clannad ~After Story~
Tags:anime sad slow vocals Nagisa Tomoya Ushio
BeatmapID:1925167
BeatmapSetID:921877

[Difficulty]
HPDrainRate:5
CircleSize:4
OverallDifficulty:7
ApproachRate:8.2
SliderMultiplier:1.4
SliderTickRate:1

[Events]
//Background and Video events
0,0,"483919.jpg",0,0
//Break Periods
//Storyboard Layer 0 (Background)
Sprite,Background,Centre,"sb\glow.png",83,57 C,0,44854,,255,247,138 F,2,44854,45054,1,0 S,2,44854,45054,3,0.6 P,0,44854,45054,A
Sprite,Background,Centre,"sb\glow.png",399,134 C,0,47660,,255,176,255 F,2,47660,47860,1,0 S,2,47660,47860,3,0.6 P,0,47660,47860,A
Sprite,Background,Centre,"sb\glow.png",399,134 C,0,47768,,255,176,255 F,2,47768,47968,1,0 S,2,47768,47968,3,0.6 P,0,47768,47968,A
Sprite,Background,Centre,"sb\glow.png",572,185 C,0,47984,,255,176,255 F,2,47984,48184,1,0 S,2,47984,48184,3,0.6 P,0,47984,48184,A
Sprite,Background,Centre,"sb\glow.png",569,217 C,0,48091,,255,176,255 F,2,48091,48291,1,0 S,2,48091,48291,3,0.6 P,0,48091,48291,A
Sprite,Background,Centre,"sb\glow.png",567,250 C,0,48199,,255,176,255 F,2,48199,48399,1,0 S,2,48199,48399,3,0.6 P,0,48199,48399,A
Sprite,Background,Centre,"sb\glow.png",565,282 C,0,48307,,255,176,255 F,2,48307,48507,1,0 S,2,48307,48507,3,0.6 P,0,48307,48507,A
Sprite,Background,Centre,"sb\glow.png",563,315 C,0,48415,,255,176,255 F,2,48415,48615,1,0 S,2,48415,48615,3,0.6 P,0,48415,48615,A
Sprite,Background,Centre,"sb\glow.png",561,348 C,0,48523,,255,176,255 F,2,48523,48723,1,0 S,2,48523,48723,3,0.6 P,0,48523,48723,A
Sprite,Background,Centre,"sb\glow.png",293,178 C,0,54135,,255,176,255 F,2,54135,54335,1,0 S,2,54135,54335,3,0.6 P,0,54135,54335,A
Sprite,Background,Centre,"sb\glow.png",293,178 C,0,54243,,255,176,255 F,2,54243,54443,1,0 S,2,54243,54443,3,0.6 P,0,54243,54443,A
Sprite,Background,Centre,"sb\glow.png",168,310 C,0,54459,,255,176,255 F,2,54459,54659,1,0 S,2,54459,54659,3,0.6 P,0,54459,54659,A
Sprite,Background,Centre,"sb\glow.png",168,310 C,0,54567,,255,176,255 F,2,54567,54767,1,0 S,2,54567,54767,3,0.6 P,0,54567,54767,A
Sprite,Background,Centre,"sb\glow.png",168,310 C,0,54674,,255,176,255 F,2,54674,54874,1,0 S,2,54674,54874,3,0.6 P,0,54674,54874,A
Sprite,Background,Centre,"sb\glow.png",124,131 C,0,54890,,255,176,255 F,2,54890,55090,1,0 S,2,54890,55090,3,0.6 P,0,54890,55090,A
Sprite,Background,Centre,"sb\glow.png",124,131 C,0,54998,,255,176,255 F,2,54998,55198,1,0 S,2,54998,55198,3,0.6 P,0,54998,55198,A
Sprite,Background,Centre,"sb\glow.png",239,390 C,0,57049,,255,247,138 F,2,57049,57249,1,0 S,2,57049,57249,3,0.6 P,0,57049,57249,A
Sprite,Background,Centre,"sb\glow.png",239,390 C,0,57156,,255,247,138 F,2,57156,57356,1,0 S,2,57156,57356,3,0.6 P,0,57156,57356,A
Sprite,Background,Centre,"sb\glow.png",576,263 C,0,57912,,255,247,138 F,2,57912,58112,1,0 S,2,57912,58112,3,0.6 P,0,57912,58112,A
Sprite,Background,Centre,"sb\glow.png",576,263 C,0,58020,,255,247,138 F,2,58020,58220,1,0 S,2,58020,58220,3,0.6 P,0,58020,58220,A
Sprite,Background,Centre,"sb\glow.png",576,263 C,0,58128,,255,247,138 F,2,58128,58328,1,0 S,2,58128,58328,3,0.6 P,0,58128,58328,A
Sprite,Background,Centre,"sb\glow.png",437,112 C,0,58344,,255,247,138 F,2,58344,58544,1,0 S,2,58344,58544,3,0.6 P,0,58344,58544,A
Sprite,Background,Centre,"sb\glow.png",440,144 C,0,58451,,255,247,138 F,2,58451,58651,1,0 S,2,58451,58651,3,0.6 P,0,58451,58651,A
Sprite,Background,Centre,"sb\glow.png",442,177 C,0,58559,,255,247,138 F,2,58559,58759,1,0 S,2,58559,58759,3,0.6 P,0,58559,58759,A
Sprite,Background,Centre,"sb\glow.png",444,209 C,0,58667,,255,247,138 F,2,58667,58867,1,0 S,2,58667,58867,3,0.6 P,0,58667,58867,A
Sprite,Background,Centre,"sb\glow.png",446,242 C,0,58775,,255,247,138 F,2,58775,58975,1,0 S,2,58775,58975,3,0.6 P,0,58775,58975,A
Sprite,Background,Centre,"sb\glow.png",448,275 C,0,58883,,255,247,138 F,2,58883,59083,1,0 S,2,58883,59083,3,0.6 P,0,58883,59083,A
Sprite,Background,Centre,"sb\glow.png",450,307 C,0,58991,,255,247,138 F,2,58991,59191,1,0 S,2,58991,59191,3,0.6 P,0,58991,59191,A
Sprite,Background,Centre,"sb\glow.png",313,440 C,0,60502,,255,176,255 F,2,60502,60702,1,0 S,2,60502,60702,3,0.6 P,0,60502,60702,A
Sprite,Background,Centre,"sb\glow.png",313,440 C,0,60610,,255,176,255 F,2,60610,60810,1,0 S,2,60610,60810,3,0.6 P,0,60610,60810,A
Sprite,Background,Centre,"sb\glow.png",313,440 C,0,60718,,255,176,255 F,2,60718,60918,1,0 S,2,60718,60918,3,0.6 P,0,60718,60918,A
Sprite,Background,Centre,"sb\glow.png",390,250 C,0,61473,,255,176,255 F,2,61473,61673,1,0 S,2,61473,61673,3,0.6 P,0,61473,61673,A
Sprite,Background,Centre,"sb\glow.png",390,250 C,0,61581,,255,176,255 F,2,61581,61781,1,0 S,2,61581,61781,3,0.6 P,0,61581,61781,A
Sprite,Background,Centre,"sb\glow.png",258,74 C,0,61797,,255,176,255 F,2,61797,61997,1,0 S,2,61797,61997,3,0.6 P,0,61797,61997,A
Sprite,Background,Centre,"sb\glow.png",255,106 C,0,61904,,255,176,255 F,2,61904,62104,1,0 S,2,61904,62104,3,0.6 P,0,61904,62104,A
Sprite,Background,Centre,"sb\glow.png",253,139 C,0,62012,,255,176,255 F,2,62012,62212,1,0 S,2,62012,62212,3,0.6 P,0,62012,62212,A
Sprite,Background,Centre,"sb\glow.png",251,171 C,0,62120,,255,176,255 F,2,62120,62320,1,0 S,2,62120,62320,3,0.6 P,0,62120,62320,A
Sprite,Background,Centre,"sb\glow.png",249,204 C,0,62228,,255,176,255 F,2,62228,62428,1,0 S,2,62228,62428,3,0.6 P,0,62228,62428,A
Sprite,Background,Centre,"sb\glow.png",247,237 C,0,62336,,255,176,255 F,2,62336,62536,1,0 S,2,62336,62536,3,0.6 P,0,62336,62536,A
Sprite,Background,Centre,"sb\glow.png",245,269 C,0,62444,,255,176,255 F,2,62444,62644,1,0 S,2,62444,62644,3,0.6 P,0,62444,62644,A
Sprite,Background,Centre,"sb\glow.png",386,256 C,0,66113,,255,247,138 F,2,66113,66313,1,0 S,2,66113,66313,3,0.6 P,0,66113,66313,A
Sprite,Background,Centre,"sb\glow.png",386,256 C,0,66221,,255,247,138 F,2,66221,66421,1,0 S,2,66221,66421,3,0.6 P,0,66221,66421,A
Sprite,Background,Centre,"sb\glow.png",0,0 C,0,66329,,255,176,255 M,0,66329,66382,386,256,385.5101,280.4951 F,2,66329,66744,1,0 S,2,66329,66744,3,0.6 P,0,66329,66744,A M,0,66382,66436,385.5101,280.4951,385.0202,304.9902 M,0,66436,66490,385.0202,304.9902,376.3997,327.859 M,0,66490,66544,376.3997,327.859,367.4297,350.6579
Sprite,Background,Centre,"sb\glow.png",308,332 C,0,68919,,255,247,138 F,2,68919,69119,1,0 S,2,68919,69119,3,0.6 P,0,68919,69119,A
Sprite,Background,Centre,"sb\glow.png",335,356 C,0,69026,,255,247,138 F,2,69026,69226,1,0 S,2,69026,69226,3,0.6 P,0,69026,69226,A
Sprite,Background,Centre,"sb\glow.png",367,373 C,0,69134,,255,247,138 F,2,69134,69334,1,0 S,2,69134,69334,3,0.6 P,0,69134,69334,A
Sprite,Background,Centre,"sb\glow.png",403,383 C,0,69242,,255,247,138 F,2,69242,69442,1,0 S,2,69242,69442,3,0.6 P,0,69242,69442,A
Sprite,Background,Centre,"sb\glow.png",439,385 C,0,69350,,255,247,138 F,2,69350,69550,1,0 S,2,69350,69550,3,0.6 P,0,69350,69550,A
Sprite,Background,Centre,"sb\glow.png",476,378 C,0,69458,,255,247,138 F,2,69458,69658,1,0 S,2,69458,69658,3,0.6 P,0,69458,69658,A
Sprite,Background,Centre,"sb\glow.png",509,365 C,0,69566,,255,247,138 F,2,69566,69766,1,0 S,2,69566,69766,3,0.6 P,0,69566,69766,A
Sprite,Background,Centre,"sb\glow.png",539,343 C,0,69674,,255,247,138 F,2,69674,69874,1,0 S,2,69674,69874,3,0.6 P,0,69674,69874,A
//Storyboard Layer 1 (Fail)
//Storyboard Layer 2 (Pass)
//Storyboard Layer 3 (Foreground)
//Storyboard Sound Samples

[TimingPoints]
17121,431.654676258993,4,2,0,46,1,0
41293,-71.4285714285714,4,2,0,46,0,0
69782,431.654676258993,4,2,0,46,1,0
70861,431.654676258993,4,2,0,46,1,0
71940,431.654676258993,4,2,0,46,1,0
73020,431.654676258993,4,2,0,46,1,0
74099,431.654676258993,4,2,0,46,1,0
75178,431.654676258993,4,2,0,46,1,0
76257,431.654676258993,4,2,0,46,1,0
77336,431.654676258993,4,2,0,46,1,0
78631,431.654676258993,4,2,0,46,1,0
79710,431.654676258993,4,2,0,46,1,0
80789,431.654676258993,4,2,0,46,1,0
81869,431.654676258993,4,2,0,46,1,0
82948,431.654676258993,4,2,0,46,1,0
84027,431.654676258993,4,2,0,46,1,0
85106,431.654676258993,4,2,0,46,1,0
88775,-100,4,2,0,5,0,0

[Colours]
Combo1 : 255,176,255
Combo2 : 255,247,138

[HitObjects]
194,291,17120,5,0,0:0:0:0:
256,224,17336,1,0,0:0:0:0:
322,291,17552,1,0,0:0:0:0:
256,353,17768,1,0,0:0:0:0:
256,220,17984,2,0,L|256:150,1,70
192,48,18415,5,0,0:0:0:0:
320,48,18631,1,0,0:0:0:0:
398,146,18847,2,0,B|391:183|391:183|396:235,1,70
393,352,19279,2,0,B|359:363|359:363|312:359,1,70
196,354,19710,2,0,B|162:357|162:357|128:346,1,70
77,222,20142,2,0,B|81:190|81:190|74:153,1,70
201,29,20574,6,0,P|198:68|202:120,1,70
311,140,21005,2,0,P|312:174|309:209,1,70
213,268,21437,2,0,P|210:307|214:359,1,70
421,314,21869,2,0,B|386:302|337:301|355:314|311:319|261:297,1,140
124,77,22732,5,0,0:0:0:0:
195,163,22948,1,0,0:0:0:0:
317,161,23164,1,0,0:0:0:0:
388,77,23380,1,0,0:0:0:0:
233,53,23595,2,0,P|290:33|316:34,1,70
315,236,24027,5,0,0:0:0:0:
201,255,24243,1,0,0:0:0:0:
316,310,24459,1,0,0:0:0:0:
202,335,24675,1,0,0:0:0:0:
357,376,24890,2,0,P|395:375|447:346,1,70
460,232,25322,2,0,P|462:189|459:151,1,70
370,62,25754,2,0,P|334:69|275:68,1,70
177,28,26185,2,0,P|142:30|107:37,1,70
87,179,26617,5,0,0:0:0:0:
194,133,26833,1,0,0:0:0:0:
317,133,27049,1,0,0:0:0:0:
424,179,27265,1,0,0:0:0:0:
328,259,27480,2,0,B|256:267|256:267|184:259,1,140
448,154,28344,5,0,0:0:0:0:
450,282,28559,1,0,0:0:0:0:
349,362,28775,2,0,P|313:374|269:376,1,70
162,355,29207,2,0,P|129:345|97:313,1,70
52,205,29638,2,0,P|42:167|40:125,1,70
147,19,30070,2,0,P|168:83|173:157,1,140
448,230,30933,5,0,0:0:0:0:
450,102,31148,1,0,0:0:0:0:
349,22,31364,2,0,P|313:10|269:8,1,70
162,29,31796,2,0,P|129:39|97:71,1,70
52,179,32227,2,0,P|42:217|46:259,1,70
147,365,32659,2,0,P|168:301|173:227,1,140
376,52,33523,5,0,0:0:0:0:
281,117,33738,1,0,0:0:0:0:
380,180,33955,2,0,B|408:204|408:204|469:219,1,70
295,227,34387,2,0,B|267:251|267:251|206:266,1,70
373,291,34818,2,0,B|401:315|401:315|462:330,1,70
260,361,35250,2,0,B|193:373|193:373|115:365,1,140
136,52,36113,5,0,0:0:0:0:
231,117,36328,1,0,0:0:0:0:
132,180,36545,2,0,B|104:204|104:204|43:219,1,70
217,227,36977,2,0,B|245:251|245:251|306:266,1,70
139,291,37408,2,0,B|111:315|111:315|50:330,1,70
245,380,37840,2,0,B|351:394|460:375,1,210
366,260,38703,1,0,0:0:0:0:
256,192,38919,1,0,0:0:0:0:
256,192,39027,12,0,40862,0:0:0:0:
338,355,41293,6,0,L|357:240,1,97.9999970092774
174,355,41725,2,0,L|155:240,1,97.9999970092774
256,72,42156,1,0,0:0:0:0:
256,256,42372,1,0,0:0:0:0:
82,146,42588,1,0,0:0:0:0:
266,169,42804,2,0,P|310:174|365:169,1,97.9999970092774
322,46,43236,1,0,0:0:0:0:
357,268,43451,6,0,P|334:345|209:309,1,195.999994018555
78,222,44099,1,0,0:0:0:0:
266,169,44315,1,0,0:0:0:0:
83,71,44531,2,0,P|39:35|14:-12,1,97.9999970092774
19,1,44854,1,0,0:0:0:0:
19,1,44962,1,0,0:0:0:0:
201,3,45178,1,0,0:0:0:0:
139,207,45394,5,0,0:0:0:0:
306,111,45610,2,0,B|354:90|354:90|432:88,1,97.9999970092774
512,243,46041,1,0,0:0:0:0:
347,319,46257,2,0,B|299:340|299:340|221:342,1,97.9999970092774
122,181,46689,1,0,0:0:0:0:
97,381,46905,1,0,0:0:0:0:
222,235,47121,2,0,B|272:182|272:182|290:132|290:132|342:71,1,195.999994018555
335,78,47660,1,0,0:0:0:0:
335,78,47768,1,0,0:0:0:0:
508,129,47984,5,0,0:0:0:0:
505,161,48091,1,0,0:0:0:0:
503,194,48199,1,0,0:0:0:0:
501,226,48307,1,0,0:0:0:0:
499,259,48415,1,0,0:0:0:0:
497,292,48523,1,0,0:0:0:0:
495,324,48631,1,0,0:0:0:0:
375,185,48847,1,0,0:0:0:0:
302,367,49063,6,0,L|292:255,1,97.9999970092774
130,384,49495,1,0,0:0:0:0:
65,217,49710,2,0,P|50:172|50:112,1,97.9999970092774
193,6,50142,1,0,0:0:0:0:
252,193,50358,2,0,B|291:248|265:308|246:284|234:335|270:412,1,195.999994018555
182,246,51005,1,0,0:0:0:0:
340,335,51221,1,0,0:0:0:0:
485,217,51437,1,0,0:0:0:0:
375,65,51653,2,0,P|317:29|288:24,1,97.9999970092774
159,183,52085,1,0,0:0:0:0:
203,0,52300,1,0,0:0:0:0:
296,202,52516,6,0,B|314:246|314:246|321:303,1,97.9999970092774
154,376,52948,1,0,0:0:0:0:
345,373,53164,2,0,B|398:369|398:369|449:349,1,97.9999970092774
501,177,53595,1,0,0:0:0:0:
326,115,53811,2,0,B|274:110|274:110|212:127,1,97.9999970092774
229,122,54135,1,0,0:0:0:0:
229,122,54243,1,0,0:0:0:0:
104,254,54459,5,0,0:0:0:0:
104,254,54567,1,0,0:0:0:0:
104,254,54674,1,0,0:0:0:0:
60,75,54890,5,0,0:0:0:0:
60,75,54998,1,0,0:0:0:0:
60,75,55106,2,0,P|106:60|179:81,1,97.9999970092774
347,131,55538,2,0,P|394:122|434:94,1,97.9999970092774
289,54,55969,2,0,P|259:92|250:140,1,97.9999970092774
378,208,56401,1,0,0:0:0:0:
180,166,56617,2,0,P|132:176|94:207,1,97.9999970092774
175,334,57049,5,0,0:0:0:0:
175,334,57156,1,0,0:0:0:0:
175,334,57264,2,0,B|226:317|284:315|259:340|326:353|399:322,1,195.999994018555
512,207,57912,1,0,0:0:0:0:
512,207,58020,1,0,0:0:0:0:
512,207,58128,1,0,0:0:0:0:
373,56,58344,5,0,0:0:0:0:
376,88,58451,1,0,0:0:0:0:
378,121,58559,1,0,0:0:0:0:
380,153,58667,1,0,0:0:0:0:
382,186,58775,1,0,0:0:0:0:
384,219,58883,1,0,0:0:0:0:
386,251,58991,1,0,0:0:0:0:
459,113,59207,1,0,0:0:0:0:
252,174,59423,6,0,B|207:181|207:181|141:182,1,97.9999970092774
56,21,59854,1,0,0:0:0:0:
83,204,60070,2,0,B|90:256|90:256|75:327,1,97.9999970092774
249,384,60502,1,0,0:0:0:0:
249,384,60610,1,0,0:0:0:0:
249,384,60718,1,0,0:0:0:0:
441,350,60933,2,0,B|404:285|404:285|370:262|370:262|311:170,1,195.999994018555
326,194,61473,1,0,0:0:0:0:
326,194,61581,1,0,0:0:0:0:
194,18,61797,5,0,0:0:0:0:
191,50,61904,1,0,0:0:0:0:
189,83,62012,1,0,0:0:0:0:
187,115,62120,1,0,0:0:0:0:
185,148,62228,1,0,0:0:0:0:
183,181,62336,1,0,0:0:0:0:
181,213,62444,1,0,0:0:0:0:
94,79,62660,1,0,0:0:0:0:
291,133,62876,6,0,P|366:128|393:109,1,97.9999970092774
512,0,63308,1,0,0:0:0:0:
494,178,63523,1,0,0:0:0:0:
370,315,63739,2,0,P|329:340|272:332,1,97.9999970092774
121,241,64171,2,0,P|59:235|103:321,1,195.999994018555
264,251,64818,1,0,0:0:0:0:
129,118,65034,1,0,0:0:0:0:
273,0,65250,1,0,0:0:0:0:
410,118,65466,2,0,P|458:165|466:211,1,97.9999970092774
412,369,65897,1,0,0:0:0:0:
322,200,66113,5,0,0:0:0:0:
322,200,66221,1,0,0:0:0:0:
322,200,66329,2,0,B|321:250|321:250|297:311,1,97.9999970092774
138,377,66761,1,0,0:0:0:0:
116,177,66977,2,0,B|117:127|117:127|141:66,1,97.9999970092774
315,19,67408,1,0,0:0:0:0:
111,11,67624,2,0,B|57:11|57:11|13:28,1,97.9999970092774
28,208,68056,1,0,0:0:0:0:
206,142,68272,1,0,0:0:0:0:
113,313,68487,1,0,0:0:0:0:
113,119,68703,1,0,0:0:0:0:
244,276,68919,5,0,0:0:0:0:
271,300,69026,1,0,0:0:0:0:
303,317,69134,1,0,0:0:0:0:
339,327,69242,1,0,0:0:0:0:
375,329,69350,1,0,0:0:0:0:
412,322,69458,1,0,0:0:0:0:
445,309,69566,1,0,0:0:0:0:
475,287,69674,1,0,0:0:0:0:
504,257,69782,5,0,0:0:0:0:
503,133,69998,1,0,0:0:0:0:
421,41,70214,1,0,0:0:0:0:
299,25,70430,1,0,0:0:0:0:
196,93,70646,1,0,0:0:0:0:
420,225,70862,5,0,0:0:0:0:
386,105,71078,1,0,0:0:0:0:
283,37,71294,1,0,0:0:0:0:
161,53,71510,1,0,0:0:0:0:
80,146,71724,1,0,0:0:0:0:
173,349,71940,5,0,0:0:0:0:
142,226,72156,1,0,0:0:0:0:
249,160,72372,1,0,0:0:0:0:
346,241,72588,1,0,0:0:0:0:
298,358,72804,1,0,0:0:0:0:
188,108,73020,5,0,0:0:0:0:
219,231,73235,1,0,0:0:0:0:
112,297,73451,1,0,0:0:0:0:
15,216,73667,1,0,0:0:0:0:
63,99,73883,1,0,0:0:0:0:
282,41,74099,5,0,0:0:0:0:
238,156,74315,1,0,0:0:0:0:
284,270,74531,1,0,0:0:0:0:
395,322,74746,1,0,0:0:0:0:
512,284,74962,1,0,0:0:0:0:
371,31,75178,5,0,0:0:0:0:
248,46,75394,1,0,0:0:0:0:
169,140,75610,1,0,0:0:0:0:
175,262,75825,1,0,0:0:0:0:
264,348,76041,1,0,0:0:0:0:
471,133,76257,5,0,0:0:0:0:
502,256,76472,1,0,0:0:0:0:
395,322,76688,1,0,0:0:0:0:
298,241,76904,1,0,0:0:0:0:
346,124,77120,1,0,0:0:0:0:
196,342,77336,5,0,0:0:0:0:
165,219,77552,1,0,0:0:0:0:
272,153,77768,1,0,0:0:0:0:
369,234,77984,1,0,0:0:0:0:
321,351,78200,1,0,0:0:0:0:
321,351,78631,5,0,0:0:0:0:
306,226,78847,1,0,0:0:0:0:
243,118,79063,1,0,0:0:0:0:
143,43,79279,1,0,0:0:0:0:
21,14,79495,1,0,0:0:0:0:
42,278,79710,5,0,0:0:0:0:
166,271,79926,1,0,0:0:0:0:
279,217,80142,1,0,0:0:0:0:
361,122,80358,1,0,0:0:0:0:
398,3,80574,1,0,0:0:0:0:
86,201,80789,5,0,0:0:0:0:
55,78,81005,1,0,0:0:0:0:
162,12,81221,1,0,0:0:0:0:
259,93,81437,1,0,0:0:0:0:
211,210,81653,1,0,0:0:0:0:
449,301,81869,5,0,0:0:0:0:
342,367,82084,1,0,0:0:0:0:
245,286,82300,1,0,0:0:0:0:
293,169,82516,1,0,0:0:0:0:
418,178,82732,1,0,0:0:0:0:
246,26,82948,5,0,0:0:0:0:
129,66,83164,1,0,0:0:0:0:
73,175,83379,1,0,0:0:0:0:
108,293,83595,1,0,0:0:0:0:
215,354,83811,1,0,0:0:0:0:
187,119,84027,5,0,0:0:0:0:
220,237,84243,1,0,0:0:0:0:
326,299,84458,1,0,0:0:0:0:
446,270,84674,1,0,0:0:0:0:
512,167,84890,1,0,0:0:0:0:
326,299,85106,5,0,0:0:0:0:
187,299,85322,1,0,0:0:0:0:
118,178,85538,1,0,0:0:0:0:
187,58,85754,1,0,0:0:0:0:
326,58,85969,1,0,0:0:0:0:
395,178,86185,1,0,0:0:0:0:
256,192,86293,12,0,88775,0:0:0:0:
