osu file format v14

[General]
AudioFilename: CLANNAD ~AFTER STORY~ OP ED Single - Toki wo Kizamu Uta.mp3
AudioLeadIn: 0
PreviewTime: 54623
Countdown: 0
SampleSet: Soft
StackLeniency: 0.3
Mode: 0
LetterboxInBreaks: 0
WidescreenStoryboard: 1

[Editor]
DistanceSpacing: 1.5
BeatDivisor: 4
GridSize: 8
TimelineZoom: 0.9

[Metadata]
Title:Toki wo Kizamu Uta (TV Size)
TitleUnicode:Toki wo Kizamu Uta (TV Size)
Artist:Lia
ArtistUnicode:Lia
Creator:Neutral
Version:Normal
Source:Clannad ~After Story~
Tags:Clannad Anime TV size
BeatmapID:865142
BeatmapSetID:377043

[Difficulty]
HPDrainRate:4
CircleSize:3.5
OverallDifficulty:4
ApproachRate:5
SliderMultiplier:1
SliderTickRate:2

[Events]
//Background and Video events
0,0,"clannad-grande-1.jpg",0,0
//Break Periods
//Storyboard Layer 0 (Background)
//Storyboard Layer 1 (Fail)
//Storyboard Layer 2 (Pass)
//Storyboard Layer 3 (Foreground)
//Storyboard Sound Samples

[TimingPoints]
2282,429.491768074445,4,1,0,100,1,0
2282,-117.647058823529,4,2,0,60,0,0
14307,-117.647058823529,4,2,0,50,0,0
16643,431.654676258993,4,1,0,100,1,0
16643,-117.647058823529,4,1,0,70,0,0
27866,-117.647058823529,4,1,0,80,0,0
38657,-117.647058823529,4,2,0,50,0,0
40815,-117.647058823529,4,1,0,90,0,0
41678,-117.647058823529,4,1,0,90,0,1
54196,-117.647058823529,4,1,0,90,0,0
55491,-117.647058823529,4,1,0,90,0,1
68873,-117.647058823529,4,1,0,90,0,0
69304,-117.647058823529,4,2,0,60,0,0
85707,-117.647058823529,4,2,0,50,0,0

[HitObjects]
416,120,2282,5,2,0:0:0:0:
312,48,2711,2,0,P|272:24|272:24,1,42.5000008106232
224,144,3355,2,0,P|184:120|184:120,1,42.5000008106232,0|2,0:0|0:0,0:0:0:0:
72,64,3999,2,0,P|46:103|47:109,1,42.5000008106232
48,224,4644,2,0,P|78:259|84:259,1,42.5000008106232,0|2,0:0|0:0,0:0:0:0:
192,296,5288,5,2,0:0:0:0:
280,200,5717,1,2,0:0:0:0:
376,112,6147,2,0,P|418:131|421:136,1,42.5000008106232
416,256,6791,2,0,P|400:271|376:280,1,42.5000008106232,0|2,0:0|0:0,0:0:0:0:
256,296,7435,2,0,P|234:300|209:295,1,42.5000008106232
232,168,8080,2,0,P|185:171|176:176,1,42.5000008106232,0|2,0:0|0:0,0:0:0:0:
104,264,8724,5,2,0:0:0:0:
184,360,9153,1,2,0:0:0:0:
296,296,9583,2,0,L|331:272,1,42.5000008106232
331,144,10227,2,0,L|295:120,1,42.5000008106232,0|2,0:0|0:0,0:0:0:0:
192,192,10871,2,0,L|136:192,1,42.5000008106232
40,128,11516,2,0,P|42:80|45:77,1,42.5000008106232,0|2,0:0|0:0,0:0:0:0:
120,0,12160,5,2,0:0:0:0:
208,88,12589,2,0,P|229:94|248:88,1,42.5000008106232
312,64,13019,1,0,0:0:0:0:
368,40,13234,2,0,P|389:39|406:50,1,42.5000008106232
472,160,13878,1,2,0:0:0:0:
472,160,14093,1,2,0:0:0:0:
256,192,14307,12,0,15596,0:0:0:0:
176,304,16648,6,0,L|208:256,1,42.5000008106232,8|0,0:0|0:0,0:0:0:0:
248,224,17074,2,0,L|224:168,1,42.5000008106232,8|0,0:0|0:0,0:0:0:0:
200,128,17506,1,8,0:0:0:0:
112,32,17937,6,0,P|84:42|66:67,1,42.5000008106232,8|0,0:0|0:0,0:0:0:0:
72,112,18369,2,0,P|88:125|108:131,1,42.5000008106232,8|0,0:0|0:0,0:0:0:0:
176,128,18801,1,8,0:0:0:0:
296,80,19232,2,0,L|345:53,2,42.5000008106232,8|0|8,0:0|0:0|0:0,0:0:0:0:
240,192,20096,5,8,0:0:0:0:
296,304,20527,1,8,0:0:0:0:
408,240,20959,2,8,P|434:228|478:172,1,85.0000016212464
256,48,22254,6,0,L|224:96,1,42.5000008106232,8|0,0:0|0:0,0:0:0:0:
240,144,22686,2,0,L|208:192,1,42.5000008106232,8|0,0:0|0:0,0:0:0:0:
216,240,23117,1,8,0:0:0:0:
128,328,23549,2,0,P|161:338|176:328,1,42.5000008106232,8|0,0:0|0:0,0:0:0:0:
232,344,23981,2,0,P|267:347|279:334,1,42.5000008106232,8|0,0:0|0:0,0:0:0:0:
328,312,24412,1,8,0:0:0:0:
408,216,24844,5,10,0:0:0:0:
336,112,25276,1,10,0:0:0:0:
264,216,25707,1,10,0:0:0:0:
168,304,26139,6,0,L|145:258,1,42.5000008106232,10|0,0:0|0:0,0:0:0:0:
88,280,26571,2,0,L|65:234,1,42.5000008106232,10|0,0:0|0:0,0:0:0:0:
8,232,27002,1,10,0:0:0:0:
240,344,27866,6,0,P|277:328|283:316,1,42.5000008106232,8|0,0:0|0:0,0:0:0:0:
328,288,28297,1,10,0:0:0:0:
248,184,28729,1,8,0:0:0:0:
344,96,29160,1,8,0:0:0:0:
240,16,29592,2,0,P|182:35|168:64,1,85.0000016212464,10|8,0:0|0:0,0:0:0:0:
168,184,30455,6,0,P|205:199|224:192,1,42.5000008106232,8|0,0:0|0:0,0:0:0:0:
272,184,30887,1,10,0:0:0:0:
384,240,31319,1,8,0:0:0:0:
480,152,31750,1,8,0:0:0:0:
408,48,32182,2,0,P|385:23|336:24,1,85.0000016212464,10|8,0:0|0:0,0:0:0:0:
232,96,33045,6,0,P|208:112|176:112,1,42.5000008106232,8|0,0:0|0:0,0:0:0:0:
128,112,33477,1,10,0:0:0:0:
32,24,33909,1,8,0:0:0:0:
24,152,34340,1,8,0:0:0:0:
32,280,34772,2,0,P|52:326|96:336,1,85.0000016212464,10|8,0:0|0:0,0:0:0:0:
208,328,35635,6,0,P|247:320|256:304,1,42.5000008106232,8|0,0:0|0:0,0:0:0:0:
304,288,36067,1,10,0:0:0:0:
232,184,36499,1,8,0:0:0:0:
336,112,36930,1,8,0:0:0:0:
224,48,37362,2,0,P|179:66|172:109,1,85.0000016212464,10|0,0:0|0:0,0:0:0:0:
176,224,38225,1,0,0:0:0:0:
256,192,38657,12,0,39952,0:0:0:0:
160,288,40815,5,10,0:0:0:0:
256,208,41247,1,10,0:0:0:0:
360,128,41678,2,0,P|412:150|408:184,1,85.0000016212464,10|8,0:0|0:0,0:0:0:0:
416,232,42326,2,2,P|376:272|344:264,1,85.0000016212464
304,224,42973,2,0,B|272:176|272:176|312:40|224:-16|144:32|160:104,1,340.000006484985,10|8,0:0|0:0,0:0:0:0:
176,160,44916,6,0,B|200:216,1,42.5000008106232,2|8,0:0|0:0,0:0:0:0:
304,352,45779,2,2,P|384:344|400:304,1,127.50000243187,2|10,0:0|0:0,0:0:0:0:
408,248,46643,2,0,B|448:144|290:250|290:250|240:280|184:232,1,297.500005674362,2|8,0:0|0:0,0:0:0:0:
88,160,48585,6,2,P|24:200|48:240,1,127.50000243187,10|2,0:0|0:0,0:0:0:0:
200,336,49880,2,0,B|256:352|424:280|368:224|200:296|208:160,1,340.000006484985,10|8,0:0|0:0,0:0:0:0:
200,40,52038,6,2,B|208:-32|248:64|304:32,1,127.50000243187,10|2,0:0|0:0,0:0:0:0:
488,56,53333,2,0,B|488:120|488:120|408:96|376:136,1,170.000003242493,10|8,0:0|0:0,0:0:0:0:
304,224,54628,5,10,0:0:0:0:
272,104,55060,1,10,0:0:0:0:
144,96,55491,2,2,B|88:80|88:80|112:152,1,127.50000243187,8|2,0:0|0:0,0:0:0:0:
208,312,56786,2,0,B|272:224|376:216|448:344|472:248|464:176,1,340.000006484985,10|8,0:0|0:0,0:0:0:0:
464,56,58945,6,2,B|408:24|408:24|344:56,1,127.50000243187,10|2,0:0|0:0,0:0:0:0:
184,152,60240,1,8,0:0:0:0:
128,184,60455,2,0,B|88:208|64:248|56:312|56:312|104:360|192:328,1,297.500005674362,2|8,0:0|0:0,0:0:0:0:
304,272,62398,6,2,B|384:232|368:168|304:152,1,170.000003242493,10|10,0:0|0:0,0:0:0:0:
192,104,63693,2,0,B|120:88|96:40|24:80|24:80|32:136|32:136|112:216,1,340.000006484985,10|8,0:0|0:0,0:0:0:0:
216,280,65851,6,2,P|264:304|336:304,1,127.50000243187,10|2,0:0|0:0,0:0:0:0:
512,224,67146,2,0,B|520:168|456:96|424:40|424:40|376:104|320:136,1,340.000006484985,10|8,0:0|0:0,0:0:0:0:
232,208,69304,6,0,P|256:240|272:248,1,42.5000008106232,6|0,0:0|0:0,0:0:0:0:
312,280,69736,2,0,L|312:336,2,42.5000008106232
368,240,70384,2,0,P|384:226|394:207,1,42.5000008106232,2|0,0:0|0:0,0:0:0:0:
432,152,70815,2,0,L|474:152,2,42.5000008106232
408,88,71463,6,0,P|384:56|368:48,1,42.5000008106232,2|0,0:0|0:0,0:0:0:0:
320,32,71894,2,0,L|277:32,2,42.5000008106232
336,96,72542,2,0,L|336:152,1,42.5000008106232,2|0,0:0|0:0,0:0:0:0:
336,200,72973,2,0,P|317:209|296:206,2,42.5000008106232
400,200,73621,6,0,P|418:209|439:206,1,42.5000008106232,2|0,0:0|0:0,0:0:0:0:
496,176,74053,2,0,L|496:120,2,42.5000008106232
496,240,74700,2,0,P|496:264|488:280,1,42.5000008106232,2|0,0:0|0:0,0:0:0:0:
456,336,75132,2,0,L|504:376,2,42.5000008106232
400,296,75779,6,0,L|360:264,1,42.5000008106232,2|0,0:0|0:0,0:0:0:0:
304,272,76211,2,0,P|285:280|265:275,2,42.5000008106232
304,208,76858,2,0,P|285:200|265:205,1,42.5000008106232,2|0,0:0|0:0,0:0:0:0:
200,224,77290,1,0,0:0:0:0:
144,248,77506,1,0,0:0:0:0:
88,280,77722,2,2,P|88:328|136:344,1,85.0000016212464
116,345,78369,5,0,0:0:0:0:
176,352,78585,1,0,0:0:0:0:
232,328,78801,2,0,L|280:304,1,42.5000008106232
328,288,79232,1,2,0:0:0:0:
328,288,79448,1,0,0:0:0:0:
368,240,79664,1,0,0:0:0:0:
368,176,79880,2,0,P|344:152|328:152,1,42.5000008106232
272,144,80312,5,2,0:0:0:0:
272,144,80527,1,0,0:0:0:0:
216,176,80743,1,0,0:0:0:0:
184,232,80959,2,0,P|168:256|139:250,1,42.5000008106232
96,240,81391,1,2,0:0:0:0:
96,240,81607,1,0,0:0:0:0:
80,176,81822,1,0,0:0:0:0:
104,120,82038,2,0,P|128:96|152:96,1,42.5000008106232,2|0,0:0|0:0,0:0:0:0:
192,72,82470,6,0,P|225:67|244:82,1,42.5000008106232,2|0,0:0|0:0,0:0:0:0:
288,96,82901,1,0,0:0:0:0:
288,160,83117,2,0,L|288:208,1,42.5000008106232
288,264,83549,2,0,L|344:264,1,42.5000008106232,2|0,0:0|0:0,0:0:0:0:
392,264,83981,1,0,0:0:0:0:
456,240,84196,2,0,P|466:221|471:201,1,42.5000008106232
472,136,84628,6,0,L|472:88,1,42.5000008106232,2|0,0:0|0:0,0:0:0:0:
456,32,85060,1,0,0:0:0:0:
400,8,85276,2,0,P|367:2|352:20,1,42.5000008106232
328,56,85707,2,2,B|296:88|304:128|344:160|368:192|336:240|312:296,1,255.000004863739
