osu file format v14

[General]
AudioFilename: CLANNAD ~AFTER STORY~ OP ED Single - Toki wo Kizamu Uta.mp3
AudioLeadIn: 0
PreviewTime: 54623
Countdown: 0
SampleSet: Soft
StackLeniency: 0.3
Mode: 0
LetterboxInBreaks: 0
WidescreenStoryboard: 1

[Editor]
DistanceSpacing: 1
BeatDivisor: 4
GridSize: 8
TimelineZoom: 0.9

[Metadata]
Title:Toki wo Kizamu Uta (TV Size)
TitleUnicode:Toki wo Kizamu Uta (TV Size)
Artist:Lia
ArtistUnicode:Lia
Creator:Neutral
Version:Easy
Source:Clannad ~After Story~
Tags:Clannad Anime TV size
BeatmapID:839702
BeatmapSetID:377043

[Difficulty]
HPDrainRate:2
CircleSize:3
OverallDifficulty:2
ApproachRate:3
SliderMultiplier:0.9
SliderTickRate:2

[Events]
//Background and Video events
0,0,"clannad-grande-1.jpg",0,0
//Break Periods
//Storyboard Layer 0 (Background)
//Storyboard Layer 1 (Fail)
//Storyboard Layer 2 (Pass)
//Storyboard Layer 3 (Foreground)
//Storyboard Sound Samples

[TimingPoints]
2282,429.491768074445,4,1,0,100,1,0
2282,-100,4,2,0,75,0,0
14307,-100,4,2,0,50,0,0
16643,431.654676258993,4,1,0,100,1,0
16643,-100,4,1,0,75,0,0
38657,-100,4,2,0,50,0,0
41678,-100,4,1,0,90,0,1
54196,-100,4,1,0,90,0,0
55491,-100,4,1,0,90,0,1
68873,-100,4,1,0,90,0,0
69304,-100,4,2,0,75,0,0

[HitObjects]
120,80,2282,5,2,0:0:0:0:
208,96,2711,2,0,P|230:104|251:138,1,45
288,200,3355,2,0,P|280:224|256:248,1,45,0|2,0:0|0:0,0:0:0:0:
176,224,3999,2,0,P|160:200|160:168,1,45
136,96,4644,2,0,P|111:90|80:108,1,45,0|2,0:0|0:0,0:0:0:0:
32,160,5288,5,2,0:0:0:0:
64,248,5717,1,2,0:0:0:0:
144,208,6147,2,0,P|168:208|200:232,1,45
192,304,6791,2,0,P|219:319|248:320,1,45,0|2,0:0|0:0,0:0:0:0:
320,312,7435,2,0,P|347:298|360:272,1,45
408,216,8080,2,0,P|416:186|408:160,1,45,0|2,0:0|0:0,0:0:0:0:
400,80,8724,5,2,0:0:0:0:
320,120,9153,1,2,0:0:0:0:
280,40,9583,2,0,P|249:32|224:48,1,45
160,80,10227,2,0,P|153:111|167:133,1,45,0|2,0:0|0:0,0:0:0:0:
200,200,10871,2,0,P|232:224|254:230,1,45
296,296,11516,2,0,P|288:320|264:336,1,45,0|2,0:0|0:0,0:0:0:0:
192,368,12160,5,2,0:0:0:0:
160,288,12589,2,0,L|136:232,1,45
104,168,13234,1,0,0:0:0:0:
256,192,14307,12,0,15595,0:0:0:0:
104,232,16643,6,8,P|168:248|208:240,1,90
280,216,17506,1,8,0:0:0:0:
232,136,17937,1,8,0:0:0:0:
296,72,18369,2,8,P|320:48|384:48,1,90
408,128,19232,6,8,P|375:156|331:156,1,90
256,112,20096,1,8,0:0:0:0:
256,200,20527,1,8,0:0:0:0:
176,152,20959,2,8,L|176:248,1,90
344,304,22254,6,8,P|380:268|387:218,1,90
392,144,23117,1,8,0:0:0:0:
336,72,23549,1,8,0:0:0:0:
264,128,23981,2,8,B|217:172|217:172|224:200,1,90
240,288,24844,6,8,B|195:334|195:334|168:328,1,90,10|10,0:0|0:0,0:0:0:0:
96,280,25707,1,10,0:0:0:0:
24,232,26139,2,8,P|8:272|32:328,1,90,10|10,0:0|0:0,0:0:0:0:
96,360,27002,1,10,0:0:0:0:
264,288,27866,6,8,P|304:264|336:216,1,90,8|10,0:0|0:0,0:0:0:0:
376,152,28729,1,8,0:0:0:0:
320,88,29160,1,8,0:0:0:0:
232,112,29592,2,8,P|208:160|216:208,1,90,10|8,0:0|0:0,0:0:0:0:
296,176,30455,6,8,P|297:229|269:269,1,90,8|10,0:0|0:0,0:0:0:0:
208,312,31319,1,8,0:0:0:0:
136,256,31750,1,8,0:0:0:0:
112,168,32182,2,8,P|120:128|160:96,1,90,10|8,0:0|0:0,0:0:0:0:
240,128,33045,6,8,B|299:141|299:141|336:120,1,90,8|10,0:0|0:0,0:0:0:0:
392,64,33909,1,8,0:0:0:0:
456,128,34340,1,8,0:0:0:0:
456,216,34772,2,8,P|438:264|386:286,1,90,10|8,0:0|0:0,0:0:0:0:
327,320,35635,6,8,P|285:332|242:320,1,90,8|10,0:0|0:0,0:0:0:0:
176,264,36499,1,8,0:0:0:0:
264,240,36930,1,8,0:0:0:0:
221,160,37362,2,8,P|263:146|305:159,1,90,8|10,0:0|0:0,0:0:0:0:
256,192,38657,12,0,40384,0:0:0:0:
152,80,41678,6,2,B|184:24|184:24|256:16,1,135,10|2,0:0|0:0,0:0:0:0:
376,72,42973,2,8,B|416:112|408:152|360:192|312:160|312:120|304:72|200:64|160:208,1,360,10|8,0:0|0:0,0:0:0:0:
136,280,45132,6,2,B|127:310|168:368|248:352,1,135,10|2,0:0|0:0,0:0:0:0:
360,320,46427,2,8,B|432:200|432:200|312:176|256:80,1,360,10|8,0:0|0:0,0:0:0:0:
184,24,48585,6,2,B|112:80|200:144,1,135,10|2,0:0|0:0,0:0:0:0:
288,224,49880,2,8,P|288:349|177:235,1,360,10|8,0:0|0:0,0:0:0:0:
192,168,52038,6,2,B|147:111|147:111|98:159,1,135,10|2,0:0|0:0,0:0:0:0:
24,264,53333,2,8,B|80:320|144:320|188:297,1,180,10|8,0:0|0:0,0:0:0:0:
272,256,54628,5,10,0:0:0:0:
336,192,55060,1,10,0:0:0:0:
304,104,55491,2,2,P|248:80|176:120,1,135,10|2,0:0|0:0,0:0:0:0:
120,232,56786,2,8,B|103:273|116:332|172:352|172:352|210:351|235:307|198:283|162:219|236:176,1,360,10|8,0:0|0:0,0:0:0:0:
312,128,58945,6,2,P|360:160|328:216,1,135,10|2,0:0|0:0,0:0:0:0:
200,256,60240,2,8,B|154:217|154:217|34:217|34:217|50:89|139:97,1,360,10|8,0:0|0:0,0:0:0:0:
216,144,62398,6,10,B|275:214|275:214|326:144,1,180
408,96,63693,2,8,B|497:88|513:216|513:216|393:216|393:216|348:255,1,360,10|8,0:0|0:0,0:0:0:0:
264,232,65851,6,2,B|297:155|297:155|350:121,1,135,10|2,0:0|0:0,0:0:0:0:
440,40,67146,2,8,B|408:16|320:24|272:72|272:72|208:40|128:56|104:112,1,360,10|8,0:0|0:0,0:0:0:0:
64,176,69304,6,0,P|80:240|130:284,1,135,6|0,0:0|0:0,0:0:0:0:
208,328,70384,2,0,P|296:352|352:336,1,135,2|0,0:0|0:0,0:0:0:0:
416,296,71463,2,0,B|456:240|456:240|432:176,1,135,2|0,0:0|0:0,0:0:0:0:
400,96,72542,2,0,B|384:40|328:96|280:128,1,135,2|0,0:0|0:0,0:0:0:0:
224,176,73621,6,0,P|261:230|326:246,1,135,2|0,0:0|0:0,0:0:0:0:
408,200,74700,2,0,P|432:248|396:323,1,135,2|0,0:0|0:0,0:0:0:0:
320,352,75779,2,0,P|257:374|196:350,1,135,2|0,0:0|0:0,0:0:0:0:
136,280,76858,2,0,P|136:216|152:192,2,90,2|2|2,0:0|0:0|0:0,0:0:0:0:
224,264,78153,6,0,L|320:168,1,135,2|0,0:0|0:0,0:0:0:0:
400,120,79232,2,0,L|400:256,1,135,2|0,0:0|0:0,0:0:0:0:
400,344,80312,2,0,P|344:376|288:344,1,135,2|0,0:0|0:0,0:0:0:0:
256,256,81391,2,0,B|240:160|240:160|192:192,1,135,2|0,0:0|0:0,0:0:0:0:
136,240,82470,6,0,P|144:304|208:336,1,135,2|0,0:0|0:0,0:0:0:0:
288,328,83549,2,0,P|344:296|353:231,1,135,2|0,0:0|0:0,0:0:0:0:
328,144,84628,2,0,B|288:88|288:88|240:144,1,135,2|0,0:0|0:0,0:0:0:0:
184,200,85707,2,0,B|128:240|128:240|176:272|176:272|128:304|128:304|168:344|168:344|136:376,1,270
