osu file format v14

[General]
AudioFilename: audio.mp3
AudioLeadIn: 0
PreviewTime: 40693
Countdown: 0
SampleSet: Soft
StackLeniency: 0.7
Mode: 0
LetterboxInBreaks: 0
WidescreenStoryboard: 1

[Editor]
DistanceSpacing: 0.6
BeatDivisor: 2
GridSize: 32
TimelineZoom: 1.9

[Metadata]
Title:Toki o Kizamu Uta (TV Size)
TitleUnicode:時を刻む唄 (TV Size)
Artist:Lia
ArtistUnicode:Lia
Creator:ohm002
Version:Lost's Light Insane
Source:クラナドアフターストーリー
Tags:Japanese Vocal wo Maeda Jun Key Sounds Label TORCH visual novel vn 麻枝准 anime OP Opening クラナド アフターストーリー frontier -_frontier_- [_lost_] conner c_o_n_n_e_r Sarawatlism CLANNAD: AFTER STORY Kai ANANT-GARDE EYES Kentarō Kentarou Fukushi 折戸 伸治 A Song That Ticks Away Time VisualArt VisualArt's soundtrack 同じ高みへ To the Same Heights Onaji Takami he e shockolatte pop jpop j-pop female vocal
BeatmapID:3350285
BeatmapSetID:1639928

[Difficulty]
HPDrainRate:5
CircleSize:4
OverallDifficulty:7
ApproachRate:8
SliderMultiplier:1.67
SliderTickRate:1

[Events]
//Background and Video events
Video,-437,"Cas-1(1).m4v"
0,0,"rize.jpg",0,0
//Break Periods
//Storyboard Layer 0 (Background)
//Storyboard Layer 1 (Fail)
//Storyboard Layer 2 (Pass)
//Storyboard Layer 3 (Foreground)
//Storyboard Layer 4 (Overlay)
//Storyboard Sound Samples

[TimingPoints]
2299,428.571428571429,4,2,1,30,1,0
2299,-125,4,2,1,30,0,0
5084,-125,4,2,1,5,0,0
5299,-125,4,2,1,30,0,0
5513,-125,4,2,1,5,0,0
5727,-125,4,2,1,30,0,0
8513,-125,4,2,1,5,0,0
8727,-125,4,2,1,30,0,0
8941,-125,4,2,1,5,0,0
9156,-125,4,2,1,30,0,0
9584,-125,4,2,1,30,0,0
11941,-125,4,2,1,5,0,0
12156,-125,4,2,1,30,0,0
12370,-125,4,2,1,5,0,0
12584,-125,4,2,1,30,0,0
16630,431.654676258993,7,2,2,30,1,0
16845,-100,7,2,1,30,0,0
17061,-100,7,2,2,30,0,0
17276,-100,7,2,1,30,0,0
17493,-100,7,2,2,30,0,0
18140,-100,7,2,1,30,0,0
18356,-100,7,2,2,30,0,0
18571,-100,7,2,1,30,0,0
18788,-100,7,2,2,30,0,0
21161,-100,7,2,1,30,0,0
21378,-100,7,2,2,30,0,0
21701,-100,7,2,2,5,0,0
21809,-100,7,2,3,30,0,0
22241,431.654676258993,7,2,2,30,1,0
22456,-100,7,2,1,30,0,0
22672,-100,7,2,2,30,0,0
22887,-100,7,2,1,30,0,0
23104,-100,7,2,2,30,0,0
23751,-100,7,2,1,30,0,0
23967,-100,7,2,2,30,0,0
24182,-100,7,2,1,30,0,0
24399,-100,7,2,2,30,0,0
26340,-100,7,2,1,30,0,0
26557,-100,7,2,2,30,0,0
26772,-100,7,2,1,30,0,0
26989,-100,7,2,2,30,0,0
27312,-100,7,2,2,5,0,0
27420,-100,7,2,3,30,0,0
27852,-100,7,2,2,30,0,0
28067,-100,7,2,1,30,0,0
28284,431.654676258993,3,2,2,30,1,0
29901,-100,3,2,2,5,0,0
30010,-100,3,2,3,30,0,0
30442,-100,3,2,2,30,0,0
30657,-100,3,2,1,30,0,0
30873,-100,3,2,2,30,0,0
31952,-100,3,2,4,30,0,0
32168,-100,3,2,2,30,0,0
32491,-100,3,2,2,5,0,0
32600,-100,3,2,3,30,0,0
33032,-100,3,2,2,30,0,0
33247,-100,3,2,1,30,0,0
33463,-100,3,2,2,30,0,0
35081,-100,3,2,2,5,0,0
35190,-100,3,2,3,30,0,0
35405,-100,3,2,4,30,0,0
35622,-100,3,2,2,30,0,0
35837,-100,3,2,1,30,0,0
36053,-100,3,2,2,30,0,0
37671,-100,3,2,2,5,0,0
37780,-100,3,2,3,30,0,0
38212,-100,3,2,2,30,0,0
38427,-100,3,2,1,30,0,0
38643,431.654676258993,7,2,3,30,1,0
40260,-100,7,2,3,5,0,0
40369,-100,7,2,3,30,0,0
40801,-200,7,2,5,40,0,0
41124,-200,7,2,5,5,0,0
41232,-125,7,2,5,50,0,0
41555,-125,7,2,5,5,0,0
41665,431.654676258993,4,2,6,75,1,1
41665,-90.9090909090909,4,2,6,75,0,1
42096,-90.9090909090909,4,2,3,75,0,1
42312,-90.9090909090909,4,2,7,75,0,1
42528,-90.9090909090909,4,2,3,75,0,1
42743,-90.9090909090909,4,2,4,75,0,1
42959,-90.9090909090909,4,2,2,75,0,1
43174,-90.9090909090909,4,2,4,75,0,1
43391,-90.9090909090909,4,2,3,75,0,1
43714,-90.9090909090909,4,2,3,5,0,1
43823,-90.9090909090909,4,2,3,75,0,1
44038,-90.9090909090909,4,2,4,75,0,1
44254,-90.9090909090909,4,2,2,75,0,1
44362,-90.9090909090909,4,2,1,75,0,1
44470,-90.9090909090909,4,2,7,75,0,1
44686,-90.9090909090909,4,2,2,75,0,1
44901,-90.9090909090909,4,2,7,75,0,1
45118,-90.9090909090909,4,2,2,75,0,1
45441,-90.9090909090909,4,2,2,5,0,1
45549,-90.9090909090909,4,2,3,75,0,1
45764,-90.9090909090909,4,2,7,75,0,1
45981,-90.9090909090909,4,2,3,75,0,1
46196,-90.9090909090909,4,2,4,75,0,1
46413,-90.9090909090909,4,2,2,75,0,1
46628,-90.9090909090909,4,2,7,75,0,1
46844,-90.9090909090909,4,2,2,75,0,1
47167,-90.9090909090909,4,2,2,5,0,1
47276,-90.9090909090909,4,2,3,75,0,1
47491,-90.9090909090909,4,2,7,75,0,1
47708,-90.9090909090909,4,2,2,75,0,1
47816,-90.9090909090909,4,2,1,75,0,1
47923,-90.9090909090909,4,2,7,75,0,1
48139,-90.9090909090909,4,2,2,75,0,1
48354,-90.9090909090909,4,2,7,75,0,1
48571,-90.9090909090909,4,2,3,75,0,1
49218,-90.9090909090909,4,2,7,75,0,1
49434,-90.9090909090909,4,2,3,75,0,1
49649,-90.9090909090909,4,2,4,75,0,1
49866,-90.9090909090909,4,2,2,75,0,1
50081,-90.9090909090909,4,2,4,75,0,1
50298,-90.9090909090909,4,2,3,75,0,1
50621,-90.9090909090909,4,2,3,5,0,1
50729,-90.9090909090909,4,2,3,75,0,1
50944,-90.9090909090909,4,2,4,75,0,1
51161,-90.9090909090909,4,2,3,75,0,1
51377,-90.9090909090909,4,2,4,75,0,1
51593,-90.9090909090909,4,2,3,75,0,1
51808,-90.9090909090909,4,2,4,75,0,1
52024,-90.9090909090909,4,2,2,75,0,1
52347,-90.9090909090909,4,2,2,5,0,1
52456,-90.9090909090909,4,2,3,75,0,1
52671,-90.9090909090909,4,2,7,75,0,1
52888,-90.9090909090909,4,2,3,75,0,1
53103,-90.9090909090909,4,2,4,75,0,1
53319,-90.9090909090909,4,2,2,75,0,1
53534,-90.9090909090909,4,2,4,75,0,1
53751,-90.9090909090909,4,2,3,75,0,1
54074,-90.9090909090909,4,2,3,5,0,1
54182,-90.9090909090909,4,2,3,75,0,1
54397,-90.9090909090909,4,2,4,75,0,1
54614,-90.9090909090909,4,2,2,75,0,1
54722,-90.9090909090909,4,2,3,75,0,1
54830,-90.9090909090909,4,2,8,75,0,1
54937,-90.9090909090909,4,2,3,75,0,1
55046,-90.9090909090909,4,2,2,75,0,1
55154,-90.9090909090909,4,2,3,75,0,1
55262,-90.9090909090909,4,2,8,75,0,1
55369,-90.9090909090909,4,2,3,75,0,1
55477,-90.9090909090909,4,2,9,75,0,1
55908,-90.9090909090909,4,2,3,75,0,1
56125,-90.9090909090909,4,2,7,75,0,1
56341,-90.9090909090909,4,2,3,75,0,1
56556,-90.9090909090909,4,2,4,75,0,1
56772,-90.9090909090909,4,2,2,75,0,1
56987,-90.9090909090909,4,2,4,75,0,1
57204,-90.9090909090909,4,2,3,75,0,1
57527,-90.9090909090909,4,2,3,5,0,1
57636,-90.9090909090909,4,2,3,75,0,1
57851,-90.9090909090909,4,2,4,75,0,1
58067,-90.9090909090909,4,2,2,75,0,1
58175,-90.9090909090909,4,2,1,75,0,1
58283,-90.9090909090909,4,2,7,75,0,1
58499,-90.9090909090909,4,2,2,75,0,1
58714,-90.9090909090909,4,2,7,75,0,1
58931,-90.9090909090909,4,2,2,75,0,1
59254,-90.9090909090909,4,2,2,5,0,1
59362,-90.9090909090909,4,2,3,75,0,1
59577,-90.9090909090909,4,2,7,75,0,1
59794,-90.9090909090909,4,2,3,75,0,1
60009,-90.9090909090909,4,2,4,75,0,1
60226,-90.9090909090909,4,2,2,75,0,1
60441,-90.9090909090909,4,2,7,75,0,1
60657,-90.9090909090909,4,2,3,75,0,1
60980,-90.9090909090909,4,2,3,5,0,1
61089,-90.9090909090909,4,2,3,75,0,1
61304,-90.9090909090909,4,2,4,75,0,1
61521,-90.9090909090909,4,2,2,75,0,1
61629,-90.9090909090909,4,2,1,75,0,1
61736,-90.9090909090909,4,2,7,75,0,1
61952,-90.9090909090909,4,2,2,75,0,1
62167,-90.9090909090909,4,2,7,75,0,1
62384,-90.9090909090909,4,2,2,75,0,1
62815,-90.9090909090909,4,2,3,75,0,1
63031,-90.9090909090909,4,2,7,75,0,1
63247,-90.9090909090909,4,2,3,75,0,1
63462,-90.9090909090909,4,2,4,75,0,1
63679,-90.9090909090909,4,2,2,75,0,1
63894,-90.9090909090909,4,2,4,75,0,1
64111,-90.9090909090909,4,2,3,75,0,1
64434,-90.9090909090909,4,2,3,5,0,1
64542,-90.9090909090909,4,2,3,75,0,1
64757,-90.9090909090909,4,2,4,75,0,1
64974,-90.9090909090909,4,2,3,75,0,1
65190,-90.9090909090909,4,2,4,75,0,1
65406,-90.9090909090909,4,2,3,75,0,1
65621,-90.9090909090909,4,2,4,75,0,1
65837,-90.9090909090909,4,2,2,75,0,1
66160,-90.9090909090909,4,2,2,5,0,1
66269,-90.9090909090909,4,2,3,75,0,1
66484,-90.9090909090909,4,2,7,75,0,1
66700,-90.9090909090909,4,2,3,75,0,1
66915,-90.9090909090909,4,2,4,75,0,1
67132,-90.9090909090909,4,2,2,75,0,1
67347,-90.9090909090909,4,2,4,75,0,1
67564,-90.9090909090909,4,2,3,75,0,1
69290,431.654676258993,5,2,10,50,1,0
69290,-125,5,2,10,50,0,0
69505,-125,5,2,11,50,0,0
69721,-125,5,2,12,50,0,0
69937,-125,5,2,13,50,0,0
70152,-125,5,2,14,35,0,0
70369,-125,5,2,15,50,0,0
70584,-125,5,2,11,50,0,0
70800,-125,5,2,12,50,0,0
71016,-125,5,2,16,50,0,0
71231,-125,5,2,14,35,0,0
71448,-125,5,2,15,50,0,0
71663,-125,5,2,11,50,0,0
71879,-125,5,2,12,50,0,0
72095,-125,5,2,16,50,0,0
72310,-125,5,2,14,35,0,0
72527,-125,5,2,15,50,0,0
72742,-125,5,2,11,50,0,0
72959,-125,5,2,12,50,0,0
73174,-125,5,2,16,50,0,0
73389,-125,5,2,14,35,0,0
73606,-125,5,2,15,50,0,0
73821,-125,5,2,11,50,0,0
74038,-125,5,2,12,50,0,0
74254,-125,5,2,16,50,0,0
74469,-125,5,2,17,50,0,0
74685,-125,5,2,15,50,0,0
74900,-125,5,2,11,50,0,0
75117,-125,5,2,12,50,0,0
75333,-125,5,2,16,50,0,0
75548,-125,5,2,17,50,0,0
75764,-125,5,2,15,50,0,0
75979,-125,5,2,11,50,0,0
76196,-125,5,2,12,50,0,0
76412,-125,5,2,13,50,0,0
76627,-125,5,2,14,35,0,0
76843,-125,5,2,15,50,0,0
77058,-125,5,2,11,50,0,0
77275,-125,5,2,18,50,0,0
77490,-125,5,2,19,35,0,0
77706,-125,5,2,20,35,0,0
78138,431.654676258993,5,2,21,30,1,0
78138,-125,5,2,21,30,0,0
78353,-125,5,2,22,21,0,0
78569,-125,5,2,14,21,0,0
78785,-125,5,2,23,30,0,0
79000,-125,5,2,17,30,0,0
79217,-125,5,2,24,30,0,0
79432,-125,5,2,22,21,0,0
79648,-125,5,2,14,21,0,0
79864,-125,5,2,20,21,0,0
80079,-125,5,2,14,21,0,0
80296,-125,5,2,24,30,0,0
80511,-125,5,2,22,21,0,0
80727,-125,5,2,14,21,0,0
80943,-125,5,2,20,21,0,0
81158,-125,5,2,14,21,0,0
81375,-125,5,2,24,30,0,0
81590,-125,5,2,22,21,0,0
81807,-125,5,2,14,21,0,0
82022,-125,5,2,23,30,0,0
82237,-125,5,2,14,21,0,0
82454,-125,5,2,24,25,0,0
82669,-125,5,2,22,18,0,0
82886,-125,5,2,14,18,0,0
83102,-125,5,2,20,18,0,0
83317,-125,5,2,14,18,0,0
83533,-125,5,2,24,20,0,0
83748,-125,5,2,22,20,0,0
83965,-125,5,2,14,20,0,0
84181,-125,5,2,20,20,0,0
84396,-125,5,2,14,20,0,0
84612,-125,5,2,24,20,0,0
84828,-125,5,2,22,20,0,0
85044,-125,5,2,14,20,0,0
85260,-125,5,2,20,20,0,0
85476,-125,5,2,14,20,0,0
85691,-125,5,2,17,20,0,0
88281,-125,5,2,17,5,0,0

[Colours]
Combo1 : 46,79,165
Combo2 : 255,128,192
Combo3 : 128,128,192
Combo4 : 128,64,64
Combo5 : 219,183,183
Combo6 : 255,128,128

[HitObjects]
309,154,2299,6,0,P|356:143|378:125,1,66.8,6|2,1:2|2:0,2:0:0:0:
247,96,2727,1,2,2:0:0:0:
228,181,2941,6,0,P|261:216|287:226,1,66.8,2|2,2:0|2:0,2:0:0:0:
247,96,3370,1,2,2:0:0:0:
164,123,3584,6,0,P|150:169|154:197,1,66.8,2|2,2:0|2:0,2:0:0:0:
247,96,4013,1,2,2:0:0:0:
183,38,4227,6,0,P|135:49|114:67,1,66.8,2|2,2:0|2:0,2:0:0:0:
247,96,4656,1,2,2:0:0:0:
321,65,4870,6,0,B|330:29|330:29|312:-10,1,66.8,2|0,2:0|2:0,2:0:0:0:
309,154,5299,6,0,B|300:190|300:190|318:229,1,66.8,2|0,2:0|2:0,2:0:0:0:
441,258,5727,6,0,L|375:266,1,66.8,2|0,2:0|2:0,2:0:0:0:
398,188,6156,1,2,2:0:0:0:
301,280,6370,6,0,L|367:272,1,66.8,2|2,2:0|2:0,2:0:0:0:
345,350,6799,1,2,2:0:0:0:
285,272,7013,6,0,L|218:279,1,66.8,2|2,2:0|2:0,2:0:0:0:
241,202,7441,1,2,2:0:0:0:
141,280,7656,6,0,L|207:272,1,66.8,2|2,2:0|2:0,2:0:0:0:
185,350,8084,1,2,2:0:0:0:
129,266,8299,6,0,L|59:273,1,66.8,2|0,2:0|2:0,2:0:0:0:
16,193,8727,6,0,L|82:186,1,66.8,2|0,2:0|2:0,2:0:0:0:
206,124,9156,6,0,P|172:109|133:115,1,66.8,2|0,2:0|2:0,2:0:0:0:
241,202,9584,1,2,2:0:0:0:
292,133,9799,6,0,P|287:96|263:65,1,66.8,2|2,2:0|2:0,2:0:0:0:
241,202,10227,1,2,2:0:0:0:
327,212,10441,6,0,P|356:190|371:153,1,66.8,2|2,2:0|2:0,2:0:0:0:
241,202,10870,1,2,2:0:0:0:
276,282,11084,6,0,P|309:297|348:291,1,66.8,2|2,2:0|2:0,2:0:0:0:
241,202,11513,1,2,2:0:0:0:
176,249,11727,6,0,L|176:324,1,66.8,2|0,2:0|2:0,2:0:0:0:
241,202,12156,6,0,P|254:167|237:135,1,66.8,2|0,2:0|2:0,2:0:0:0:
116,129,12584,6,0,P|146:158|192:161,1,66.8,2|0,2:0|2:0,2:0:0:0:
240,126,13013,1,2,2:0:0:0:
176,21,13227,6,0,P|165:61|186:102,1,66.8,2|2,2:0|2:0,2:0:0:0:
240,126,13656,1,2,2:0:0:0:
303,82,13870,5,2,2:0:0:0:
240,126,14084,1,2,2:0:0:0:
256,192,14191,12,0,16441,2:0:0:0:
73,192,16630,6,0,P|113:180|165:181,1,83.5,6|2,1:2|2:0,2:0:0:0:
208,283,17061,2,0,P|168:295|116:294,1,83.5,2|2,1:2|2:0,2:0:0:0:
177,92,17493,2,0,B|218:78|255:100|255:100|302:126|350:112,1,167,2|2,1:2|1:2,2:0:0:0:
435,50,18140,1,2,2:0:0:0:
489,153,18356,2,0,P|479:220|490:249,1,83.5,2|2,1:2|2:0,2:0:0:0:
507,348,18788,2,0,B|453:339|453:339|396:355|396:355|332:348,1,167,2|2,1:2|1:2,2:0:0:0:
256,270,19435,1,0,2:0:0:0:
170,350,19651,6,0,P|142:293|169:196,1,167,2|2,1:2|1:2,2:0:0:0:
242,106,20299,1,0,2:0:0:0:
147,38,20514,2,0,P|97:34|53:49,1,83.5,2|0,1:2|2:0,2:0:0:0:
242,106,20946,2,0,P|292:110|336:95,1,83.5,2|2,1:2|2:0,2:0:0:0:
435,64,21378,2,0,P|405:126|445:195,1,125.25,2|0,1:2|2:0,2:0:0:0:
441,192,21809,2,0,L|349:182,1,83.5,2|0,1:2|2:0,2:0:0:0:
341,341,22241,6,0,P|374:308|381:262,1,83.5,2|2,1:2|2:0,2:0:0:0:
258,129,22672,2,0,P|225:162|218:208,1,83.5,2|2,1:2|2:0,2:0:0:0:
248,309,23104,2,0,B|206:295|169:317|169:317|122:343|74:329,1,167,2|2,1:2|1:2,2:0:0:0:
19,236,23751,1,2,2:0:0:0:
118,175,23967,2,0,L|112:269,1,83.5,2|2,1:2|2:0,2:0:0:0:
54,87,24399,2,0,P|129:64|205:119,1,167,2|2,1:2|1:2,2:0:0:0:
290,182,25046,1,0,2:0:0:0:
405,161,25262,6,0,P|457:98|448:15,1,167,2|2,1:2|1:2,2:0:0:0:
339,58,25910,1,0,2:0:0:0:
280,159,26125,2,0,L|290:244,1,83.5,2|2,1:2|2:0,2:0:0:0:
403,271,26557,2,0,L|393:186,1,83.5,2|2,1:2|2:0,2:0:0:0:
199,194,26989,2,0,L|214:326,1,125.25,2|0,1:2|2:0,2:0:0:0:
226,337,27420,2,0,P|175:326|137:326,1,83.5,2|0,1:2|2:0,2:0:0:0:
280,159,27852,2,0,P|331:170|369:170,1,83.5,2|2,1:2|2:0,2:0:0:0:
176,204,28284,6,0,P|134:166|151:59,1,167,2|2,1:2|1:2,2:0:0:0:
253,18,28931,1,0,2:0:0:0:
354,75,29147,2,0,L|346:164,1,83.5,2|0,1:2|2:0,2:0:0:0:
382,270,29578,2,0,B|353:260|327:275|327:275|294:294|260:284,1,125.25,2|0,1:2|2:0,2:0:0:0:
240,276,30010,2,0,P|201:255|179:213,1,83.5,2|0,1:2|2:0,2:0:0:0:
219,111,30442,2,0,P|258:132|280:174,1,83.5,2|2,1:2|2:0,2:0:0:0:
184,351,30873,6,0,B|222:338|257:358|257:358|301:383|347:370,1,167,2|2,1:2|1:2,2:0:0:0:
398,266,31521,1,0,2:0:0:0:
315,184,31737,2,0,L|306:277,1,83.5,2|2,1:2|2:0,2:0:0:0:
467,190,32168,2,0,L|453:50,1,125.25,2|0,1:2|2:0,2:0:0:0:
450,42,32600,2,0,P|407:31|356:53,1,83.5,2|0,1:2|2:0,2:0:0:0:
303,137,33032,2,0,P|346:148|397:126,1,83.5,2|2,1:2|2:0,2:0:0:0:
294,18,33463,6,0,B|255:5|220:25|220:25|176:50|130:37,1,167,2|2,1:2|1:2,2:0:0:0:
21,2,34111,1,0,2:0:0:0:
26,118,34327,2,0,P|33:170|19:211,1,83.5,2|0,1:2|2:0,2:0:0:0:
4,314,34758,2,0,B|44:308|44:308|85:317|85:317|151:304,1,125.25,2|0,1:2|2:0,2:0:0:0:
143,292,35190,2,0,L|137:375,1,83.5,2|2,1:2|2:0,2:0:0:0:
66,209,35622,2,0,P|100:182|140:172,1,83.5,2|2,1:2|2:0,2:0:0:0:
333,294,36053,6,0,B|269:301|269:301|210:266|216:215,1,167,2|2,1:2|1:2,2:0:0:0:
267,115,36701,1,0,2:0:0:0:
346,200,36917,2,0,P|342:244|340:283,1,83.5,2|0,1:2|2:0,2:0:0:0:
148,180,37348,2,0,P|154:104|158:38,1,125.25,2|0,1:2|2:0,2:0:0:0:
170,35,37780,2,0,P|205:16|252:17,1,83.5,2|0,1:2|2:0,2:0:0:0:
358,56,38212,2,0,P|391:77|414:118,1,83.5,2|2,1:2|2:0,2:0:0:0:
437,229,38643,6,0,B|387:224|387:224|327:239|327:239|267:232,1,167,2|2,1:2|1:2,2:0:0:0:
165,185,39290,1,0,2:0:0:0:
86,271,39506,2,0,P|80:322|96:357,1,83.5,2|0,1:2|2:0,2:0:0:0:
256,231,39937,2,0,L|246:98,1,125.25,2|0,1:2|2:0,2:0:0:0:
239,84,40369,2,0,P|199:65|150:70,1,83.5,2|0,1:2|2:0,2:0:0:0:
396,203,40801,6,0,P|436:197|471:200,1,62.625,6|0,1:2|2:0,2:0:0:0:
316,178,41232,6,0,L|328:67,1,100.2,6|0,1:2|2:0,2:0:0:0:
256,231,41665,6,0,P|165:235|93:171,1,183.700005606079,6|10,1:2|2:0,2:0:0:0:
198,99,42312,1,2,2:0:0:0:
337,190,42528,2,0,L|330:287,1,91.8500028030396,2|2,1:2|2:0,2:0:0:0:
198,99,42959,2,0,L|205:2,1,91.8500028030396,10|2,2:0|2:0,2:0:0:0:
256,231,43391,6,0,P|189:233|137:187,1,137.775004204559,2|0,1:2|2:0,2:0:0:0:
126,165,43823,2,0,L|35:178,1,91.8500028030396,10|2,2:0|2:0,2:0:0:0:
256,231,44254,1,2,1:2:0:0:
256,231,44362,1,2,2:0:0:0:
256,231,44470,1,2,2:0:0:0:
288,86,44686,2,0,L|197:99,1,91.8500028030396,10|2,2:0|1:2,2:0:0:0:
256,231,45118,6,0,L|409:209,1,137.775004204559,2|0,1:2|2:0,2:0:0:0:
409,204,45549,2,0,P|400:253|411:303,1,91.8500028030396,10|2,2:0|2:0,2:0:0:0:
502,141,45981,2,0,P|457:103|408:88,1,91.8500028030396,2|2,1:2|2:0,2:0:0:0:
236,225,46413,2,0,P|280:262|329:277,1,91.8500028030396,10|2,2:0|2:0,2:0:0:0:
308,74,46844,6,0,B|278:64|245:89|245:89|215:110|172:102,1,137.775004204559,2|0,1:2|2:0,2:0:0:0:
163,90,47276,2,0,P|140:52|144:-2,1,91.8500028030396,10|2,2:0|2:0,2:0:0:0:
302,158,47708,1,2,1:2:0:0:
302,158,47816,1,2,2:0:0:0:
302,158,47923,1,2,2:0:0:0:
133,245,48139,2,0,P|183:234|235:225,1,91.8500028030396,10|2,2:0|1:2,2:0:0:0:
78,336,48571,6,0,B|116:323|159:355|159:355|198:382|254:372,1,183.700005606079,6|10,1:2|2:0,2:0:0:0:
335,275,49218,1,2,2:0:0:0:
230,200,49434,2,0,P|216:260|224:292,1,91.8500028030396,2|2,1:2|2:0,2:0:0:0:
392,175,49866,2,0,P|398:129|384:86,1,91.8500028030396,10|2,2:0|2:0,2:0:0:0:
227,32,50298,6,0,P|229:96|230:175,1,137.775004204559,2|0,1:2|2:0,2:0:0:0:
230,200,50729,2,0,P|273:174|316:176,1,91.8500028030396,10|2,2:0|2:0,2:0:0:0:
388,256,51161,1,2,1:2:0:0:
473,186,51377,1,2,2:0:0:0:
388,256,51593,2,0,P|370:304|389:344,1,91.8500028030396,10|2,2:0|1:2,2:0:0:0:
265,370,52024,6,0,B|224:347|176:345|176:345|126:368,1,137.775004204559,2|0,1:2|2:0,2:0:0:0:
124,371,52456,2,0,P|88:329|81:285,1,91.8500028030396,10|2,2:0|2:0,2:0:0:0:
241,181,52888,2,0,P|222:233|188:261,1,91.8500028030396,2|2,1:2|2:0,2:0:0:0:
78,151,53319,2,0,P|96:98|130:70,1,91.8500028030396,10|2,2:0|2:0,2:0:0:0:
249,48,53751,6,0,B|279:38|312:63|312:63|342:84|385:76,1,137.775004204559,2|0,1:2|2:0,2:0:0:0:
396,64,54182,2,0,P|381:121|390:174,1,91.8500028030396,10|2,2:0|2:0,2:0:0:0:
459,257,54614,5,2,1:2:0:0:
459,257,54722,1,2,2:0:0:0:
459,257,54830,2,0,L|514:246,1,45.9250014015198,2|2,2:0|2:0,2:0:0:0:
339,316,55046,5,10,2:0:0:0:
339,316,55154,1,2,2:0:0:0:
339,316,55262,2,0,L|394:327,1,45.9250014015198,2|2,1:2|2:0,2:0:0:0:
281,221,55477,6,0,L|86:244,1,183.700005606079,6|10,1:2|2:0,2:0:0:0:
14,144,56125,1,2,2:0:0:0:
113,62,56341,2,0,P|136:111|137:166,1,91.8500028030396,2|2,1:2|2:0,2:0:0:0:
35,361,56772,2,0,P|12:312|11:257,1,91.8500028030396,10|2,2:0|2:0,2:0:0:0:
14,144,57204,6,0,B|44:130|80:147|80:147|122:167|170:152,1,137.775004204559,2|0,1:2|2:0,2:0:0:0:
164,147,57636,2,0,L|155:46,1,91.8500028030396,10|2,2:0|2:0,2:0:0:0:
281,221,58067,1,2,1:2:0:0:
276,243,58175,1,2,2:0:0:0:
272,265,58283,1,2,2:0:0:0:
285,107,58499,2,0,P|333:92|381:95,1,91.8500028030396,10|2,2:0|1:2,2:0:0:0:
266,290,58931,6,0,B|236:304|200:287|200:287|158:267|110:282,1,137.775004204559,2|0,1:2|2:0,2:0:0:0:
110,282,59362,2,0,P|115:329|119:382,1,91.8500028030396,10|2,2:0|2:0,2:0:0:0:
177,151,59794,2,0,P|133:131|85:108,1,91.8500028030396,2|2,1:2|2:0,2:0:0:0:
257,271,60226,2,0,P|295:243|339:213,1,91.8500028030396,10|2,2:0|2:0,2:0:0:0:
449,164,60657,6,0,L|444:324,1,137.775004204559,2|0,1:2|2:0,2:0:0:0:
457,317,61089,2,0,P|405:303|364:299,1,91.8500028030396,10|2,2:0|2:0,2:0:0:0:
255,363,61521,1,2,1:2:0:0:
255,363,61629,1,2,2:0:0:0:
255,363,61736,1,2,2:0:0:0:
134,192,61952,2,0,P|194:200|248:200,1,91.8500028030396,10|2,2:0|1:2,2:0:0:0:
228,68,62384,6,0,P|147:40|72:112,1,183.700005606079,6|10,1:2|2:0,2:0:0:0:
32,197,63031,1,2,2:0:0:0:
93,288,63247,2,0,P|136:279|187:274,1,91.8500028030396,2|2,1:2|2:0,2:0:0:0:
231,159,63679,2,0,P|185:169|130:177,1,91.8500028030396,10|2,2:0|2:0,2:0:0:0:
289,264,64111,6,0,P|370:248|448:238,1,137.775004204559,2|0,1:2|2:0,2:0:0:0:
427,218,64542,2,0,P|419:167|426:122,1,91.8500028030396,10|2,2:0|2:0,2:0:0:0:
477,24,64974,1,2,1:2:0:0:
477,24,65082,1,0,2:0:0:0:
477,24,65190,1,2,2:0:0:0:
312,89,65406,2,0,P|319:146|323:195,1,91.8500028030396,10|2,2:0|1:2,2:0:0:0:
367,300,65837,6,0,B|327:262|327:262|267:258|233:289,1,137.775004204559,2|0,1:2|2:0,2:0:0:0:
230,291,66269,2,0,P|181:282|128:277,1,91.8500028030396,10|2,2:0|2:0,2:0:0:0:
304,164,66700,2,0,P|353:173|406:178,1,91.8500028030396,2|2,1:2|2:0,2:0:0:0:
358,379,67132,2,0,P|309:370|256:365,1,91.8500028030396,10|2,2:0|2:0,2:0:0:0:
95,97,67564,6,0,P|165:109|241:117,1,137.775004204559,2|2,1:2|2:0,2:0:0:0:
231,116,67995,1,8,2:0:0:0:
97,262,68211,1,10,1:2:0:0:
25,47,68427,5,8,2:0:0:0:
40,30,68535,1,8,2:0:0:0:
60,20,68643,2,0,P|102:12|124:16,1,45.9250014015198,8|8,2:0|2:0,2:0:0:0:
165,148,68859,5,0,1:0:0:0:
150,165,68967,1,0,1:0:0:0:
130,175,69075,2,0,P|88:183|66:179,1,45.9250014015198,0|0,1:0|1:0,2:0:0:0:
200,25,69290,6,0,P|245:29|274:33,1,66.8,6|2,1:2|2:0,2:0:0:0:
358,13,69721,1,2,2:0:0:0:
297,109,69937,6,0,P|252:113|223:117,1,66.8,2|2,2:0|2:0,2:0:0:0:
191,192,70369,6,0,P|236:196|265:200,1,66.8,6|2,1:2|2:0,2:0:0:0:
348,175,70800,1,2,2:0:0:0:
298,274,71016,6,0,P|253:278|224:282,1,66.8,2|2,2:0|2:0,2:0:0:0:
176,356,71448,6,0,P|221:360|250:364,1,66.8,6|2,1:2|2:0,2:0:0:0:
303,292,71879,1,2,2:0:0:0:
234,228,72095,6,0,P|192:233|158:262,1,66.8,2|2,2:0|2:0,2:0:0:0:
139,157,72527,6,0,P|143:112|147:83,1,66.8,6|2,1:2|2:0,2:0:0:0:
75,30,72959,1,2,2:0:0:0:
11,99,73174,6,0,P|16:141|45:175,1,66.8,2|2,2:0|2:0,2:0:0:0:
142,240,73606,6,0,P|97:236|68:232,1,66.8,6|2,1:2|2:0,2:0:0:0:
15,304,74038,1,2,2:0:0:0:
84,368,74254,6,0,P|126:363|160:334,1,66.8,2|2,2:0|2:0,2:0:0:0:
234,228,74685,6,0,P|230:273|226:302,1,66.8,6|2,1:2|2:0,2:0:0:0:
298,355,75117,1,2,2:0:0:0:
362,286,75333,6,0,P|357:244|328:210,1,66.8,2|2,2:0|2:0,2:0:0:0:
293,144,75764,6,0,P|288:106|294:70,1,66.8,6|2,1:2|2:0,2:0:0:0:
363,17,76196,1,2,2:0:0:0:
438,115,76412,6,0,L|358:109,1,66.8,2|2,2:0|2:0,2:0:0:0:
288,55,76843,6,0,L|208:61,1,66.8,6|2,1:2|2:0,2:0:0:0:
142,126,77275,6,0,L|62:120,2,66.8,2|2|2,2:0|2:0|2:0,2:0:0:0:
156,115,78138,6,0,P|132:171|136:197,1,66.8,6|2,2:0|2:0,2:0:0:0:
162,263,78569,1,2,2:0:0:0:
272,247,78785,6,0,P|235:198|210:188,1,66.8,2|2,2:0|2:0,2:0:0:0:
97,272,79217,6,0,P|157:264|178:248,1,66.8,6|2,2:0|2:0,2:0:0:0:
286,124,79648,1,2,2:0:0:0:
206,74,79864,6,0,P|157:110|147:135,1,66.8,2|2,2:0|2:0,2:0:0:0:
272,247,80296,6,0,P|320:210|330:185,1,66.8,6|2,2:0|2:0,2:0:0:0:
184,210,80727,1,2,2:0:0:0:
119,278,80943,6,0,P|175:302|201:298,1,66.8,2|2,2:0|2:0,2:0:0:0:
178,144,81375,6,0,L|184:214,1,66.8,6|2,2:0|2:0,2:0:0:0:
253,274,81807,1,2,2:0:0:0:
303,196,82022,6,0,L|297:126,1,66.8,6|2,2:0|2:0,2:0:0:0:
377,251,82454,6,0,L|371:317,1,66.8,6|2,2:0|2:0,2:0:0:0:
449,196,82886,1,2,2:0:0:0:
433,103,83102,6,0,P|396:88|359:92,1,66.8,2|2,2:0|2:0,2:0:0:0:
281,121,83533,6,0,P|250:134|217:135,1,66.8,6|2,2:0|2:0,2:0:0:0:
146,73,83965,1,2,2:0:0:0:
162,208,84181,6,0,P|192:222|225:223,1,66.8,2|2,2:0|2:0,2:0:0:0:
89,149,84612,5,6,2:0:0:0:
55,236,84828,5,2,2:0:0:0:
81,311,85044,5,2,2:0:0:0:
138,345,85260,5,2,2:0:0:0:
191,345,85476,5,2,2:0:0:0:
228,330,85691,5,6,2:0:0:0:
256,192,85799,12,0,88281,2:0:0:0:
