osu file format v14

[General]
AudioFilename: audio.mp3
AudioLeadIn: 0
PreviewTime: 40693
Countdown: 0
SampleSet: Soft
StackLeniency: 0.7
Mode: 0
LetterboxInBreaks: 0
WidescreenStoryboard: 1

[Editor]
DistanceSpacing: 0.4
BeatDivisor: 4
GridSize: 8
TimelineZoom: 1.9

[Metadata]
Title:Toki o Kizamu Uta (TV Size)
TitleUnicode:時を刻む唄 (TV Size)
Artist:Lia
ArtistUnicode:Lia
Creator:ohm002
Version:Hard
Source:クラナドアフターストーリー
Tags:Japanese Vocal wo Maeda Jun Key Sounds Label TORCH visual novel vn 麻枝准 anime OP Opening クラナド アフターストーリー frontier -_frontier_- [_lost_] conner c_o_n_n_e_r Sarawatlism CLANNAD: AFTER STORY Kai ANANT-GARDE EYES Kentarō Kentarou Fukushi 折戸 伸治 A Song That Ticks Away Time VisualArt VisualArt's soundtrack 同じ高みへ To the Same Heights Onaji Takami he e shockolatte pop jpop j-pop female vocal
BeatmapID:3348715
BeatmapSetID:1639928

[Difficulty]
HPDrainRate:4
CircleSize:4
OverallDifficulty:6
ApproachRate:7.5
SliderMultiplier:1.7
SliderTickRate:1

[Events]
//Background and Video events
Video,-437,"Cas-1(1).m4v"
0,0,"clannad opening bg.jpg",0,0
//Break Periods
//Storyboard Layer 0 (Background)
//Storyboard Layer 1 (Fail)
//Storyboard Layer 2 (Pass)
//Storyboard Layer 3 (Foreground)
//Storyboard Layer 4 (Overlay)
//Storyboard Sound Samples

[TimingPoints]
2299,428.571428571429,4,2,1,30,1,0
2299,-133.333333333333,4,2,1,30,0,0
16013,-133.333333333333,4,2,1,5,0,0
16630,431.654676258993,7,2,2,30,1,0
16630,-133.333333333333,7,2,2,30,0,0
16845,-133.333333333333,7,2,1,30,0,0
17061,-133.333333333333,7,2,2,30,0,0
17276,-133.333333333333,7,2,1,30,0,0
17493,-133.333333333333,7,2,2,30,0,0
18140,-133.333333333333,7,2,1,30,0,0
18356,-133.333333333333,7,2,2,30,0,0
18571,-133.333333333333,7,2,1,30,0,0
18788,-133.333333333333,7,2,2,30,0,0
21161,-133.333333333333,7,2,1,30,0,0
21378,-133.333333333333,7,2,2,30,0,0
21809,-133.333333333333,7,2,3,30,0,0
22241,431.654676258993,7,2,2,30,1,0
22241,-133.333333333333,7,2,2,30,0,0
22456,-133.333333333333,7,2,1,30,0,0
22673,-133.333333333333,7,2,2,30,0,0
22888,-133.333333333333,7,2,1,30,0,0
23104,-133.333333333333,7,2,2,30,0,0
23752,-133.333333333333,7,2,1,30,0,0
23968,-133.333333333333,7,2,2,30,0,0
24183,-133.333333333333,7,2,1,30,0,0
24399,-133.333333333333,7,2,2,30,0,0
26342,-133.333333333333,7,2,1,30,0,0
26558,-133.333333333333,7,2,2,30,0,0
26773,-133.333333333333,7,2,1,30,0,0
26989,-133.333333333333,7,2,2,30,0,0
27421,-133.333333333333,7,2,3,30,0,0
27853,-133.333333333333,7,2,2,30,0,0
28068,-133.333333333333,7,2,1,30,0,0
28284,431.654676258993,3,2,2,30,1,0
28284,-133.333333333333,3,2,2,30,0,0
30010,-133.333333333333,3,2,3,30,0,0
30442,-133.333333333333,3,2,2,30,0,0
30658,-133.333333333333,3,2,1,30,0,0
30874,-133.333333333333,3,2,2,30,0,0
33248,-133.333333333333,3,2,1,30,0,0
33464,-133.333333333333,3,2,2,30,0,0
35191,-133.333333333333,3,2,3,30,0,0
35622,-133.333333333333,3,2,2,30,0,0
35838,-133.333333333333,3,2,1,30,0,0
36054,-133.333333333333,3,2,2,30,0,0
38428,-133.333333333333,3,2,1,30,0,0
38643,431.654676258993,7,2,1,30,1,0
40369,-100,7,2,3,30,0,0
40802,-100,7,2,5,40,0,0
41232,-100,7,2,5,50,0,0
41665,431.654676258993,4,2,6,75,1,1
42096,-100,4,2,3,75,0,1
42312,-100,4,2,7,75,0,1
42743,-100,4,2,4,75,0,1
42959,-100,4,2,2,75,0,1
43174,-100,4,2,4,75,0,1
43391,-100,4,2,3,75,0,1
44038,-100,4,2,4,75,0,1
44254,-100,4,2,2,75,0,1
44362,-100,4,2,1,75,0,1
44470,-100,4,2,7,75,0,1
44686,-100,4,2,2,75,0,1
44901,-100,4,2,7,75,0,1
45118,-100,4,2,2,75,0,1
45549,-100,4,2,3,75,0,1
45765,-100,4,2,7,75,0,1
46196,-100,4,2,4,75,0,1
46413,-100,4,2,2,75,0,1
46628,-100,4,2,7,75,0,1
46844,-100,4,2,2,75,0,1
47060,-100,4,2,4,75,0,1
47276,-100,4,2,3,75,0,1
47492,-100,4,2,7,75,0,1
47708,-100,4,2,2,75,0,1
47815,-100,4,2,1,75,0,1
47923,-100,4,2,7,75,0,1
48139,-100,4,2,2,75,0,1
48354,-100,4,2,7,75,0,1
48571,-100,4,2,3,75,0,1
49218,-100,4,2,7,75,0,1
49649,-100,4,2,4,75,0,1
49866,-100,4,2,2,75,0,1
50081,-100,4,2,4,75,0,1
50298,-100,4,2,3,75,0,1
50944,-100,4,2,4,75,0,1
51161,-100,4,2,3,75,0,1
51376,-100,4,2,4,75,0,1
51593,-100,4,2,3,75,0,1
51808,-100,4,2,4,75,0,1
52024,-100,4,2,2,75,0,1
52455,-100,4,2,3,75,0,1
52672,-100,4,2,7,75,0,1
53103,-100,4,2,4,75,0,1
53319,-100,4,2,2,75,0,1
53534,-100,4,2,4,75,0,1
53751,-100,4,2,3,75,0,1
54397,-100,4,2,4,75,0,1
54614,-100,4,2,2,75,0,1
54721,-100,4,2,3,75,0,1
54829,-100,4,2,8,75,0,1
54937,-100,4,2,3,75,0,1
55046,-100,4,2,2,75,0,1
55153,-100,4,2,3,75,0,1
55261,-100,4,2,8,75,0,1
55369,-100,4,2,3,75,0,1
55477,-100,4,2,9,75,0,1
55908,-100,4,2,3,75,0,1
56125,-100,4,2,7,75,0,1
56556,-100,4,2,4,75,0,1
56772,-100,4,2,2,75,0,1
56987,-100,4,2,4,75,0,1
57204,-100,4,2,3,75,0,1
57851,-100,4,2,4,75,0,1
58067,-100,4,2,2,75,0,1
58175,-100,4,2,1,75,0,1
58283,-100,4,2,7,75,0,1
58499,-100,4,2,2,75,0,1
58714,-100,4,2,7,75,0,1
58931,-100,4,2,2,75,0,1
59362,-100,4,2,3,75,0,1
59578,-100,4,2,7,75,0,1
60009,-100,4,2,4,75,0,1
60226,-100,4,2,2,75,0,1
60441,-100,4,2,7,75,0,1
60657,-100,4,2,3,75,0,1
60873,-100,4,2,4,75,0,1
61089,-100,4,2,3,75,0,1
61304,-100,4,2,4,75,0,1
61521,-100,4,2,2,75,0,1
61628,-100,4,2,1,75,0,1
61736,-100,4,2,7,75,0,1
61952,-100,4,2,2,75,0,1
62167,-100,4,2,7,75,0,1
62384,-100,4,2,2,75,0,1
62815,-100,4,2,3,75,0,1
63031,-100,4,2,7,75,0,1
63462,-100,4,2,4,75,0,1
63679,-100,4,2,2,75,0,1
63894,-100,4,2,4,75,0,1
64111,-100,4,2,3,75,0,1
64757,-100,4,2,4,75,0,1
64974,-100,4,2,3,75,0,1
65190,-100,4,2,4,75,0,1
65406,-100,4,2,3,75,0,1
65621,-100,4,2,4,75,0,1
65837,-100,4,2,2,75,0,1
66268,-100,4,2,3,75,0,1
66485,-100,4,2,7,75,0,1
66916,-100,4,2,4,75,0,1
67132,-100,4,2,2,75,0,1
67347,-100,4,2,4,75,0,1
67564,-100,4,2,3,75,0,1
69290,431.654676258993,5,2,10,50,1,0
69505,-100,5,2,11,50,0,0
69721,-100,5,2,12,50,0,0
69937,-100,5,2,13,50,0,0
70152,-100,5,2,14,35,0,0
70369,-100,5,2,15,50,0,0
70584,-100,5,2,11,50,0,0
70800,-100,5,2,12,50,0,0
71016,-100,5,2,16,50,0,0
71231,-100,5,2,14,35,0,0
71448,-100,5,2,15,50,0,0
71879,-100,5,2,12,50,0,0
72095,-100,5,2,16,50,0,0
72310,-100,5,2,14,35,0,0
72527,-100,5,2,15,50,0,0
72958,-100,5,2,12,50,0,0
73174,-100,5,2,16,50,0,0
73389,-100,5,2,14,35,0,0
73606,-100,5,2,15,50,0,0
73821,-100,5,2,11,50,0,0
74037,-100,5,2,12,50,0,0
74254,-100,5,2,16,50,0,0
74469,-100,5,2,17,50,0,0
74685,-100,5,2,15,50,0,0
75116,-100,5,2,12,50,0,0
75333,-100,5,2,16,50,0,0
75764,-100,5,2,15,50,0,0
75980,-100,5,2,11,50,0,0
76196,-100,5,2,12,50,0,0
76412,-100,5,2,13,50,0,0
76627,-100,5,2,14,35,0,0
76843,-100,5,2,15,50,0,0
77058,-100,5,2,11,50,0,0
77275,-100,5,2,18,50,0,0
77490,-100,5,2,19,35,0,0
77707,-100,5,2,20,35,0,0
78138,431.654676258993,5,2,21,30,1,0
78569,-100,5,2,14,21,0,0
78785,-100,5,2,23,30,0,0
79216,-100,5,2,24,30,0,0
79432,-100,5,2,22,21,0,0
79648,-100,5,2,14,21,0,0
79864,-100,5,2,20,21,0,0
80079,-100,5,2,14,21,0,0
80296,-100,5,2,24,30,0,0
80727,-100,5,2,14,21,0,0
80943,-100,5,2,20,21,0,0
81158,-100,5,2,14,21,0,0
81375,-100,5,2,24,30,0,0
81590,-100,5,2,22,21,0,0
81806,-100,5,2,14,21,0,0
82022,-100,5,2,23,30,0,0
82237,-100,5,2,14,21,0,0
82454,-133.333333333333,5,2,24,25,0,0
82669,-133.333333333333,5,2,22,18,0,0
82886,-133.333333333333,5,2,14,18,0,0
83102,-133.333333333333,5,2,20,18,0,0
83317,-133.333333333333,5,2,14,18,0,0
83533,-133.333333333333,5,2,24,20,0,0
83748,-133.333333333333,5,2,22,20,0,0
83965,-133.333333333333,5,2,14,20,0,0
84181,-133.333333333333,5,2,20,20,0,0
84396,-133.333333333333,5,2,14,20,0,0
84612,-133.333333333333,5,2,24,20,0,0
84827,-133.333333333333,5,2,22,20,0,0
85043,-133.333333333333,5,2,14,20,0,0
85259,-133.333333333333,5,2,20,20,0,0
85475,-133.333333333333,5,2,14,20,0,0
85691,-133.333333333333,5,2,17,20,0,0
85907,-133.333333333333,5,2,17,5,0,0

[Colours]
Combo1 : 253,255,151
Combo2 : 179,205,244
Combo3 : 231,112,112
Combo4 : 255,206,170
Combo5 : 230,203,231

[HitObjects]
97,69,2299,6,0,B|119:103|119:103|106:189,1,127.500004863739,6|2,1:2|2:0,2:0:0:0:
59,269,2941,2,0,P|107:229|168:237,1,127.500004863739,2|2,2:0|2:0,2:0:0:0:
244,212,3584,1,2,2:0:0:0:
244,212,3799,1,2,2:0:0:0:
231,288,4013,2,0,L|219:351,1,63.7500024318696,2|2,2:0|2:0,2:0:0:0:
299,334,4441,2,0,P|331:333|360:344,1,63.7500024318696,2|2,2:0|2:0,2:0:0:0:
315,253,4870,1,2,2:0:0:0:
182,154,5299,1,2,2:0:0:0:
300,14,5727,6,0,B|327:38|327:38|334:130,1,127.500004863739,2|2,2:0|2:0,2:0:0:0:
410,133,6370,2,0,P|352:156|330:213,1,127.500004863739,2|2,2:0|2:0,2:0:0:0:
260,169,7013,2,0,P|229:173|198:165,1,63.7500024318696,2|2,2:0|2:0,2:0:0:0:
259,254,7441,1,2,2:0:0:0:
259,254,7656,1,2,2:0:0:0:
329,213,7870,2,0,L|338:276,1,63.7500024318696,2|2,2:0|2:0,2:0:0:0:
260,169,8299,2,0,L|278:43,1,127.500004863739,2|2,2:0|2:0,2:0:0:0:
278,42,9156,6,0,P|335:68|362:124,1,127.500004863739,2|2,2:0|2:0,2:0:0:0:
437,151,9799,2,0,B|412:184|412:184|425:269,1,127.500004863739,2|2,2:0|2:0,2:0:0:0:
394,352,10441,2,0,P|373:329|344:315,1,63.7500024318696,2|2,2:0|2:0,2:0:0:0:
272,344,10870,1,2,2:0:0:0:
272,344,11084,1,2,2:0:0:0:
236,266,11299,2,0,P|259:245|273:216,1,63.7500024318696,2|2,2:0|2:0,2:0:0:0:
333,157,11727,6,0,L|320:30,1,127.500004863739,2|2,2:0|2:0,2:0:0:0:
320,30,12584,6,0,B|292:58|292:58|205:45,1,127.500004863739,2|2,2:0|2:0,2:0:0:0:
107,18,13227,2,0,P|155:57|161:119,1,127.500004863739,2|2,2:0|2:0,2:0:0:0:
215,184,13870,5,2,2:0:0:0:
215,184,14084,1,2,2:0:0:0:
256,192,14299,12,0,16013,2:0:0:0:
162,269,16630,6,0,L|99:276,1,63.7500024318696,6|2,1:2|2:0,2:0:0:0:
126,191,17061,2,0,P|126:159|119:128,1,63.7500024318696,2|2,1:2|2:0,2:0:0:0:
208,202,17493,2,0,L|335:187,1,127.500004863739,2|2,1:2|1:2,2:0:0:0:
426,182,18140,1,2,2:0:0:0:
426,182,18356,2,0,P|411:210|406:241,1,63.7500024318696,2|2,1:2|2:0,2:0:0:0:
339,286,18788,1,2,1:2:0:0:
339,286,19219,6,0,P|322:313|321:344,1,63.7500024318696,2|0,1:2|2:0,2:0:0:0:
406,335,19651,2,0,P|433:352|464:353,1,63.7500024318696,2|0,1:2|2:0,2:0:0:0:
454,267,20083,2,0,L|444:140,1,127.500004863739,2|2,1:2|1:2,2:0:0:0:
444,140,20946,6,0,P|418:122|387:114,1,63.7500024318696,2|2,1:2|2:0,2:0:0:0:
324,45,21378,2,0,P|316:76|298:102,1,63.7500024318696,2|0,1:2|2:0,2:0:0:0:
332,176,21809,1,2,1:2:0:0:
332,176,22241,6,0,L|339:239,1,63.7500024318696,2|2,1:2|2:0,2:0:0:0:
374,311,22673,2,0,P|344:321|313:317,1,63.7500024318696,2|2,1:2|2:0,2:0:0:0:
263,253,23104,2,0,P|230:305|247:365,1,127.500004863739,2|2,1:2|1:2,2:0:0:0:
167,383,23752,1,2,2:0:0:0:
150,308,23968,2,0,P|121:297|89:299,1,63.7500024318696,2|2,1:2|2:0,2:0:0:0:
31,247,24399,1,2,1:2:0:0:
31,247,24831,6,0,L|41:183,1,63.7500024318696,2|0,1:2|2:0,2:0:0:0:
25,100,25263,2,0,P|87:110|125:159,2,127.500004863739,2|2|2,1:2|1:2|1:2,2:0:0:0:
62,24,26342,1,2,2:0:0:0:
136,49,26558,2,0,P|162:67|181:93,1,63.7500024318696,2|2,1:2|2:0,2:0:0:0:
210,172,26989,5,2,1:2:0:0:
210,172,27421,5,2,1:2:0:0:
210,172,27853,6,0,L|221:266,1,63.7500024318696,2|2,1:2|2:0,2:0:0:0:
270,100,28284,6,0,P|332:105|374:151,2,127.500004863739,2|2|2,1:2|1:2|1:2,2:0:0:0:
512,0,29579,2,0,P|470:46|408:51,2,127.500004863739,2|2|2,1:2|1:2|1:2,2:0:0:0:
459,136,30658,1,2,2:0:0:0:
459,136,30874,2,0,L|446:263,2,127.500004863739,2|2|2,1:2|1:2|1:2,2:0:0:0:
512,360,32169,6,0,B|447:381|391:330|391:330|339:285|276:304,1,255.000009727478,2|2,1:2|1:2,2:0:0:0:
366,230,33248,1,2,2:0:0:0:
366,230,33464,2,0,L|372:167,1,63.7500024318696,2|0,1:2|2:0,2:0:0:0:
348,91,33896,2,0,P|380:88|410:97,1,63.7500024318696,2|0,1:2|2:0,2:0:0:0:
463,35,34327,2,0,P|481:61|489:92,1,63.7500024318696,2|0,1:2|2:0,2:0:0:0:
454,171,34758,5,2,1:2:0:0:
286,255,35191,6,0,P|348:264|385:313,1,127.500004863739,2|2,1:2|1:2,2:0:0:0:
459,284,35838,1,2,2:0:0:0:
459,284,36054,2,0,P|446:255|446:223,1,63.7500024318696,2|0,1:2|2:0,2:0:0:0:
373,183,36486,2,0,P|392:158|419:142,1,63.7500024318696,2|0,1:2|2:0,2:0:0:0:
422,59,36917,2,0,P|453:63|481:78,1,63.7500024318696,2|0,1:2|2:0,2:0:0:0:
512,166,37349,6,0,B|447:187|391:136|391:136|339:91|276:110,1,255.000009727478,2|2,1:2|1:2,2:0:0:0:
481,78,38428,6,0,B|360:6|248:141|248:141|161:242|28:181,1,510.000019454957,2|0,2:0|2:0,2:0:0:0:
34,94,40369,5,2,1:2:0:0:
34,94,40802,5,6,1:2:0:0:
186,134,41232,5,6,1:2:0:0:
111,225,41665,6,0,B|197:205|186:264|275:244,1,170,6|10,1:2|2:0,2:0:0:0:
105,142,42312,2,0,P|34:182|33:263,1,170,2|2,2:0|2:0,2:0:0:0:
269,163,42959,2,0,P|310:170|340:199,1,85,10|2,2:0|2:0,2:0:0:0:
190,138,43391,5,2,1:2:0:0:
350,281,43823,6,0,L|337:365,1,85,10|2,2:0|2:0,2:0:0:0:
275,244,44254,1,2,1:2:0:0:
275,244,44362,1,2,2:0:0:0:
275,244,44470,1,2,2:0:0:0:
373,300,44686,2,0,L|360:384,1,85,10|2,2:0|1:2,2:0:0:0:
448,354,45118,6,0,P|465:274|410:213,1,170,2|10,1:2|2:0,2:0:0:0:
373,300,45765,2,0,B|330:286|292:320|292:320|258:350|215:337,1,170,2|2,2:0|2:0,2:0:0:0:
327,216,46413,2,0,L|317:131,1,85,10|2,2:0|2:0,2:0:0:0:
397,95,46844,5,2,1:2:0:0:
469,154,47060,1,2,2:0:0:0:
469,154,47168,1,0,2:0:0:0:
469,154,47276,1,10,2:0:0:0:
415,220,47492,1,2,2:0:0:0:
316,130,47708,6,0,P|298:123|274:121,3,42.5,2|2|2|0,1:2|2:0|2:0|2:0,2:0:0:0:
264,134,48139,2,0,L|180:147,1,85,10|2,2:0|1:2,2:0:0:0:
58,70,48571,6,0,B|103:108|103:108|76:216,1,170,6|10,1:2|2:0,2:0:0:0:
41,304,49218,2,0,P|90:239|171:248,1,170,2|2,2:0|2:0,2:0:0:0:
203,328,49866,2,0,P|161:333|123:315,1,85,10|2,2:0|2:0,2:0:0:0:
172,158,50298,5,2,1:2:0:0:
308,328,50729,6,0,P|350:333|388:315,1,85,10|2,2:0|2:0,2:0:0:0:
368,177,51161,2,0,P|343:210|339:252,1,85,2|2,1:2|2:0,2:0:0:0:
470,304,51593,2,0,P|452:265|418:241,1,85,10|2,2:0|1:2,2:0:0:0:
339,252,52024,6,0,L|316:83,1,170,2|10,1:2|2:0,2:0:0:0:
408,298,52672,2,0,P|335:334|266:290,1,170,2|2,2:0|2:0,2:0:0:0:
406,137,53319,2,0,L|417:221,1,85,10|2,2:0|2:0,2:0:0:0:
252,203,53751,5,2,1:2:0:0:
427,112,54182,6,0,L|438:196,1,85,10|2,2:0|2:0,2:0:0:0:
358,65,54614,6,0,P|339:54|319:48,3,42.5,2|2|2|2,1:2|2:0|2:0|2:0,2:0:0:0:
305,37,55046,2,0,P|286:47|271:62,3,42.5,10|2|2|2,2:0|2:0|1:2|2:0,2:0:0:0:
281,75,55477,6,0,L|292:244,1,170,6|10,1:2|2:0,2:0:0:0:
367,284,56125,2,0,B|324:270|286:304|286:304|252:334|209:321,1,170,2|2,2:0|2:0,2:0:0:0:
102,313,56772,2,0,P|133:340|146:380,1,85,10|2,2:0|2:0,2:0:0:0:
215,236,57204,5,2,1:2:0:0:
370,362,57636,6,0,P|410:349|437:317,1,85,10|2,2:0|2:0,2:0:0:0:
361,280,58067,1,2,1:2:0:0:
361,280,58175,1,2,2:0:0:0:
361,280,58283,1,2,2:0:0:0:
385,384,58499,2,0,P|425:371|452:339,1,85,10|2,2:0|1:2,2:0:0:0:
332,186,58931,6,0,P|273:243|282:325,1,170,2|10,1:2|2:0,2:0:0:0:
361,378,59578,2,0,B|247:355|247:355|201:384,1,170,2|2,2:0|2:0,2:0:0:0:
184,301,60226,2,0,P|161:265|160:223,1,85,10|2,2:0|2:0,2:0:0:0:
175,215,60549,1,0,2:0:0:0:
189,206,60657,5,2,1:2:0:0:
331,255,60873,5,2,2:0:0:0:
337,270,60981,1,0,2:0:0:0:
344,285,61089,2,0,L|260:269,1,85,10|2,2:0|2:0,2:0:0:0:
172,123,61521,6,0,L|164:81,3,42.5,2|2|2|0,1:2|2:0|2:0|2:0,2:0:0:0:
177,69,61952,6,0,L|184:27,3,42.5,10|0|2|0,2:0|2:0|1:2|2:0,2:0:0:0:
167,18,62384,6,0,P|87:36|51:109,1,170,6|10,1:2|2:0,2:0:0:0:
143,207,63031,2,0,P|223:189|259:116,1,170,2|2,2:0|2:0,2:0:0:0:
125,47,63679,2,0,P|135:87|166:115,1,85,10|2,2:0|2:0,2:0:0:0:
206,44,64111,1,2,1:2:0:0:
143,207,64542,6,0,P|153:247|184:275,1,85,10|2,2:0|2:0,2:0:0:0:
222,202,64974,1,2,1:2:0:0:
91,135,65190,1,2,2:0:0:0:
91,135,65298,1,0,2:0:0:0:
91,135,65406,2,0,P|60:164|52:205,1,85,10|2,2:0|1:2,2:0:0:0:
173,126,65837,6,0,B|211:81|211:81|319:107,1,170,2|10,1:2|2:0,2:0:0:0:
398,84,66485,2,0,P|340:143|343:226,1,170,2|2,2:0|2:0,2:0:0:0:
403,284,67132,2,0,P|367:306|326:306,1,85,10|2,2:0|2:0,2:0:0:0:
255,240,67564,6,0,L|244:367,1,127.5,2|2,1:2|2:0,2:0:0:0:
228,384,67995,2,0,L|235:299,1,85,8|10,2:0|1:2,2:0:0:0:
183,163,68427,5,8,2:0:0:0:
184,194,68534,1,8,2:0:0:0:
173,224,68642,1,8,2:0:0:0:
152,247,68750,1,8,2:0:0:0:
123,261,68859,2,0,P|103:266|82:264,3,42.5,0|0|0|0,1:0|1:0|1:0|1:0,2:0:0:0:
72,249,69290,6,0,P|57:208|62:164,2,85,6|2|2,1:2|2:0|2:0,2:0:0:0:
42,348,69937,2,0,P|81:333|123:336,1,85,2|2,2:0|2:0,2:0:0:0:
181,275,70369,5,6,1:2:0:0:
256,384,70584,1,2,2:0:0:0:
331,275,70800,1,2,2:0:0:0:
388,336,71016,2,0,P|430:333|470:348,1,85,2|2,2:0|2:0,2:0:0:0:
432,248,71448,6,0,B|450:194|450:194|493:169|493:169|512:108,1,170,6|2,1:2|2:0,2:0:0:0:
401,130,72095,2,0,P|359:121|329:92,1,85,2|2,2:0|2:0,2:0:0:0:
335,211,72527,6,0,B|317:265|317:265|274:290|274:290|255:351,1,170,6|2,1:2|2:0,2:0:0:0:
366,329,73174,2,0,P|407:337|437:366,1,85,2|2,2:0|2:0,2:0:0:0:
175,313,73606,6,0,P|166:354|137:384,2,85,6|2|2,1:2|2:0|2:0,2:0:0:0:
173,204,74254,2,0,P|203:232|244:241,1,85,2|2,2:0|2:0,2:0:0:0:
251,328,74685,6,0,L|420:312,1,170,6|2,1:2|2:0,2:0:0:0:
414,224,75333,2,0,L|278:236,1,127.5,2|0,2:0|2:0,2:0:0:0:
245,240,75764,1,6,1:2:0:0:
174,104,75980,1,2,2:0:0:0:
256,0,76196,1,2,2:0:0:0:
338,104,76412,2,0,P|313:138|307:180,1,85,2|2,2:0|2:0,2:0:0:0:
206,180,76843,6,0,L|122:195,1,85,6|2,1:2|2:0,2:0:0:0:
306,179,77275,2,0,L|390:194,1,85,2|2,2:0|2:0,2:0:0:0:
256,248,77707,1,2,2:0:0:0:
256,248,78138,6,0,P|330:287|360:364,1,170,6|2,2:0|2:0,2:0:0:0:
256,248,78785,2,0,P|182:287|152:364,1,170,2|6,2:0|2:0,2:0:0:0:
256,336,79432,1,2,2:0:0:0:
256,336,79648,1,2,2:0:0:0:
255,248,79864,2,0,L|255:163,1,85,2|2,2:0|2:0,2:0:0:0:
192,112,80296,6,0,P|255:64|318:112,1,170,6|2,2:0|2:0,2:0:0:0:
255,163,80943,2,0,L|255:248,1,85,2|2,2:0|2:0,2:0:0:0:
336,192,81375,6,0,P|373:213|419:210,2,85,6|2|2,2:0|2:0|2:0,2:0:0:0:
176,192,82022,2,0,P|139:213|93:210,1,85,6|2,2:0|2:0,2:0:0:0:
120,128,82454,6,0,L|113:64,1,63.7500024318696,6|2,2:0|2:0,2:0:0:0:
190,18,82886,1,2,2:0:0:0:
190,18,83102,2,0,L|196:81,1,63.7500024318696,2|2,2:0|2:0,2:0:0:0:
392,128,83533,6,0,L|398:64,1,63.7500024318696,6|2,2:0|2:0,2:0:0:0:
322,18,83965,1,2,2:0:0:0:
322,18,84181,2,0,L|315:81,1,63.7500024318696,2|2,2:0|2:0,2:0:0:0:
175,191,84612,5,6,2:0:0:0:
202,219,84827,1,2,2:0:0:0:
237,234,85043,1,2,2:0:0:0:
275,233,85259,1,2,2:0:0:0:
309,217,85475,1,2,2:0:0:0:
336,191,85691,5,6,2:0:0:0:
256,192,85907,12,0,88281,2:0:0:0:
