osu file format v14

[General]
AudioFilename: audio.mp3
AudioLeadIn: 0
PreviewTime: 40693
Countdown: 0
SampleSet: Soft
StackLeniency: 0.7
Mode: 0
LetterboxInBreaks: 0
WidescreenStoryboard: 1

[Editor]
DistanceSpacing: 0.7
BeatDivisor: 2
GridSize: 32
TimelineZoom: 1.3

[Metadata]
Title:Toki o Kizamu Uta (TV Size)
TitleUnicode:時を刻む唄 (TV Size)
Artist:Lia
ArtistUnicode:Lia
Creator:ohm002
Version:Frontier's Normal
Source:クラナドアフターストーリー
Tags:Japanese Vocal wo Maeda Jun Key Sounds Label TORCH visual novel vn 麻枝准 anime OP Opening クラナド アフターストーリー frontier -_frontier_- [_lost_] conner c_o_n_n_e_r Sarawatlism CLANNAD: AFTER STORY Kai ANANT-GARDE EYES Kentarō Kentarou Fukushi 折戸 伸治 A Song That Ticks Away Time VisualArt VisualArt's soundtrack 同じ高みへ To the Same Heights Onaji Takami he e shockolatte pop jpop j-pop female vocal
BeatmapID:3348714
BeatmapSetID:1639928

[Difficulty]
HPDrainRate:3
CircleSize:3.5
OverallDifficulty:4
ApproachRate:5
SliderMultiplier:1.3
SliderTickRate:1

[Events]
//Background and Video events
Video,-437,"Cas-1(1).m4v"
0,0,"rize.jpg",0,0
//Break Periods
2,14284,15430
//Storyboard Layer 0 (Background)
//Storyboard Layer 1 (Fail)
//Storyboard Layer 2 (Pass)
//Storyboard Layer 3 (Foreground)
//Storyboard Layer 4 (Overlay)
//Storyboard Sound Samples

[TimingPoints]
2299,428.571428571429,4,2,1,30,1,0
2299,-125,4,2,1,30,0,0
16630,431.654676258993,7,2,2,30,1,0
16845,-100,7,2,1,30,0,0
17061,-100,7,2,2,30,0,0
17276,-100,7,2,1,30,0,0
17493,-100,7,2,2,30,0,0
18139,-100,7,2,1,30,0,0
18356,-100,7,2,2,30,0,0
21809,-100,7,2,3,30,0,0
22241,431.654676258993,7,2,2,30,1,0
22456,-100,7,2,1,30,0,0
22673,-100,7,2,2,30,0,0
22888,-100,7,2,1,30,0,0
23104,-100,7,2,2,30,0,0
23751,-100,7,2,1,30,0,0
23967,-100,7,2,2,30,0,0
24182,-100,7,2,1,30,0,0
24399,-100,7,2,2,30,0,0
26341,-100,7,2,1,30,0,0
26558,-100,7,2,2,30,0,0
26773,-100,7,2,1,30,0,0
26989,-100,7,2,2,30,0,0
27421,-100,7,2,3,30,0,0
27853,-100,7,2,2,30,0,0
28068,-100,7,2,1,30,0,0
28284,431.654676258993,3,2,2,30,1,0
28499,-100,3,2,4,30,0,0
28715,-100,3,2,2,30,0,0
30010,-100,3,2,3,30,0,0
30442,-100,3,2,2,30,0,0
30657,-100,3,2,1,30,0,0
30874,-100,3,2,2,30,0,0
32600,-100,3,2,3,30,0,0
33032,-100,3,2,2,30,0,0
33247,-100,3,2,1,30,0,0
33464,-100,3,2,2,30,0,0
35190,-100,3,2,3,30,0,0
35622,-100,3,2,2,30,0,0
35837,-100,3,2,1,30,0,0
36054,-100,3,2,2,30,0,0
37780,-100,3,2,3,30,0,0
38212,-100,3,2,2,30,0,0
38427,-100,3,2,1,30,0,0
38643,431.654676258993,7,2,3,30,1,0
40801,-100,7,2,5,40,0,0
41665,431.654676258993,4,2,6,75,1,1
41665,-95.2380952380952,4,2,6,75,0,1
42096,-95.2380952380952,4,2,3,75,0,1
42312,-95.2380952380952,4,2,7,75,0,1
42743,-95.2380952380952,4,2,4,75,0,1
42959,-95.2380952380952,4,2,2,75,0,1
43391,-95.2380952380952,4,2,3,75,0,1
44254,-95.2380952380952,4,2,2,75,0,1
44469,-95.2380952380952,4,2,7,75,0,1
44686,-95.2380952380952,4,2,2,75,0,1
44901,-95.2380952380952,4,2,7,75,0,1
45118,-95.2380952380952,4,2,2,75,0,1
45549,-95.2380952380952,4,2,3,75,0,1
45765,-95.2380952380952,4,2,7,75,0,1
46196,-95.2380952380952,4,2,4,75,0,1
46413,-95.2380952380952,4,2,2,75,0,1
46628,-95.2380952380952,4,2,7,75,0,1
46844,-95.2380952380952,4,2,2,75,0,1
47276,-95.2380952380952,4,2,3,75,0,1
47708,-95.2380952380952,4,2,2,75,0,1
47923,-95.2380952380952,4,2,7,75,0,1
48139,-95.2380952380952,4,2,2,75,0,1
48354,-95.2380952380952,4,2,7,75,0,1
48571,-95.2380952380952,4,2,3,75,0,1
49218,-95.2380952380952,4,2,7,75,0,1
49649,-95.2380952380952,4,2,4,75,0,1
49866,-95.2380952380952,4,2,2,75,0,1
50298,-95.2380952380952,4,2,3,75,0,1
52024,-95.2380952380952,4,2,2,75,0,1
52455,-95.2380952380952,4,2,3,75,0,1
52672,-95.2380952380952,4,2,7,75,0,1
53103,-95.2380952380952,4,2,4,75,0,1
53319,-95.2380952380952,4,2,2,75,0,1
53751,-95.2380952380952,4,2,3,75,0,1
53966,-95.2380952380952,4,2,4,75,0,1
54182,-95.2380952380952,4,2,3,75,0,1
54397,-95.2380952380952,4,2,4,75,0,1
54614,-95.2380952380952,4,2,2,75,0,1
55477,-95.2380952380952,4,2,9,75,0,1
55908,-95.2380952380952,4,2,3,75,0,1
56125,-95.2380952380952,4,2,7,75,0,1
56556,-95.2380952380952,4,2,4,75,0,1
56772,-95.2380952380952,4,2,2,75,0,1
57204,-95.2380952380952,4,2,3,75,0,1
58067,-95.2380952380952,4,2,2,75,0,1
58282,-95.2380952380952,4,2,7,75,0,1
58499,-95.2380952380952,4,2,2,75,0,1
58714,-95.2380952380952,4,2,7,75,0,1
58931,-95.2380952380952,4,2,2,75,0,1
59362,-95.2380952380952,4,2,3,75,0,1
59578,-95.2380952380952,4,2,7,75,0,1
60010,-95.2380952380952,4,2,4,75,0,1
60225,-95.2380952380952,4,2,2,75,0,1
60441,-95.2380952380952,4,2,7,75,0,1
60872,-95.2380952380952,4,2,4,75,0,1
61089,-95.2380952380952,4,2,3,75,0,1
61521,-95.2380952380952,4,2,2,75,0,1
61736,-95.2380952380952,4,2,7,75,0,1
61952,-95.2380952380952,4,2,2,75,0,1
62167,-95.2380952380952,4,2,7,75,0,1
62384,-95.2380952380952,4,2,2,75,0,1
62815,-95.2380952380952,4,2,3,75,0,1
63031,-95.2380952380952,4,2,7,75,0,1
63462,-95.2380952380952,4,2,4,75,0,1
63679,-95.2380952380952,4,2,2,75,0,1
64111,-95.2380952380952,4,2,3,75,0,1
65837,-95.2380952380952,4,2,2,75,0,1
66268,-95.2380952380952,4,2,3,75,0,1
66485,-95.2380952380952,4,2,7,75,0,1
66916,-95.2380952380952,4,2,4,75,0,1
67132,-95.2380952380952,4,2,2,75,0,1
67564,-95.2380952380952,4,2,3,75,0,1
69290,431.654676258993,5,2,10,50,1,0
69721,-100,5,2,12,50,0,0
69937,-100,5,2,13,50,0,0
70369,-100,5,2,15,50,0,0
70800,-100,5,2,12,50,0,0
71016,-100,5,2,16,50,0,0
71448,-100,5,2,15,50,0,0
71879,-100,5,2,12,50,0,0
72095,-100,5,2,16,50,0,0
72527,-100,5,2,15,50,0,0
72958,-100,5,2,12,50,0,0
73174,-100,5,2,16,50,0,0
73606,-100,5,2,15,50,0,0
74037,-100,5,2,12,50,0,0
74254,-100,5,2,16,50,0,0
74685,-100,5,2,15,50,0,0
75116,-100,5,2,12,50,0,0
75333,-100,5,2,16,50,0,0
75764,-100,5,2,15,50,0,0
76411,-100,5,2,13,50,0,0
76843,-100,5,2,15,50,0,0
77058,-100,5,2,11,50,0,0
77275,-100,5,2,18,50,0,0
77490,-100,5,2,19,35,0,0
77707,-100,5,2,20,35,0,0
78138,431.654676258993,5,2,21,30,1,0
78785,-100,5,2,23,30,0,0
79217,-100,5,2,24,30,0,0
79864,-100,5,2,20,21,0,0
80296,-100,5,2,24,30,0,0
80943,-100,5,2,20,21,0,0
81375,-100,5,2,24,30,0,0
81806,-100,5,2,14,21,0,0
82022,-100,5,2,23,30,0,0
82454,-100,5,2,24,25,0,0
83101,-100,5,2,20,18,0,0
83533,-100,5,2,24,20,0,0
84180,-100,5,2,20,20,0,0
84612,-100,5,2,24,20,0,0
85259,-100,5,2,20,20,0,0
85691,-100,5,2,17,20,0,0
88281,-100,5,2,17,5,0,0

[Colours]
Combo1 : 46,79,165
Combo2 : 255,128,192
Combo3 : 128,128,192
Combo4 : 128,64,64
Combo5 : 219,183,183
Combo6 : 255,128,128

[HitObjects]
80,64,2299,6,0,P|130:54|178:73,1,104,6|2,1:2|2:0,2:0:0:0:
205,109,2941,1,2,2:0:0:0:
205,109,3156,2,0,L|196:175,1,52,2|2,2:0|2:0,2:0:0:0:
166,194,3584,1,2,2:0:0:0:
209,277,4013,6,0,P|234:271|259:276,1,52,2|2,2:0|2:0,2:0:0:0:
290,241,4441,2,0,P|311:255|326:276,1,52,2|2,2:0|2:0,2:0:0:0:
359,309,4870,1,2,2:0:0:0:
411,231,5299,1,2,2:0:0:0:
370,147,5727,6,0,L|260:132,1,104,2|2,2:0|2:0,2:0:0:0:
238,95,6370,1,2,2:0:0:0:
238,95,6584,2,0,P|212:89|187:94,1,52,2|2,2:0|2:0,2:0:0:0:
157,59,7012,1,2,2:0:0:0:
91,126,7441,6,0,L|82:192,1,52,2|2,2:0|2:0,2:0:0:0:
51,211,7870,2,0,L|60:277,1,52,2|2,2:0|2:0,2:0:0:0:
91,296,8299,1,2,2:0:0:0:
181,274,8727,1,2,2:0:0:0:
246,341,9156,6,0,P|293:359|344:350,1,104,2|2,2:0|2:0,2:0:0:0:
379,319,9799,1,2,2:0:0:0:
379,319,10013,2,0,P|384:293|379:268,1,52,2|2,2:0|2:0,2:0:0:0:
351,230,10441,1,2,2:0:0:0:
374,139,10870,6,0,P|348:133|323:138,1,52,2|2,2:0|2:0,2:0:0:0:
290,171,11299,2,0,P|264:176|239:171,1,52,2|2,2:0|2:0,2:0:0:0:
206,138,11727,1,2,2:0:0:0:
139,71,12156,1,2,2:0:0:0:
47,96,12584,6,0,P|34:145|49:195,1,104,2|2,2:0|2:0,2:0:0:0:
82,228,13227,1,2,2:0:0:0:
82,228,13441,2,0,L|148:237,1,52,2|2,2:0|2:0,2:0:0:0:
167,268,13870,2,0,L|233:259,1,52,2|2,2:0|2:0,2:0:0:0:
252,228,16630,6,0,L|318:237,1,65,6|2,1:2|2:0,2:0:0:0:
345,271,17061,2,0,L|411:262,1,65,2|2,1:2|2:0,2:0:0:0:
441,229,17493,1,2,1:2:0:0:
486,149,17924,2,0,P|492:118|483:87,1,65,2|2,1:2|2:0,2:0:0:0:
449,57,18356,6,0,B|378:42|395:104|325:90,1,130,2|2,1:2|1:2,2:0:0:0:
265,155,19219,2,0,B|194:169|211:107|141:121,1,130,2|2,1:2|1:2,2:0:0:0:
74,63,20083,6,0,P|106:117|89:178,1,130,2|2,1:2|1:2,2:0:0:0:
44,257,20946,2,0,P|26:317|59:372,1,130,2|2,1:2|1:2,2:0:0:0:
119,303,21809,1,2,1:2:0:0:
208,321,22241,6,0,P|239:328|271:324,1,65,2|2,1:2|2:0,2:0:0:0:
305,355,22673,2,0,P|332:337|352:312,1,65,2|2,1:2|2:0,2:0:0:0:
397,310,23104,1,2,1:2:0:0:
461,245,23536,6,0,L|452:179,1,65,2|2,1:2|2:0,2:0:0:0:
418,152,23967,2,0,L|427:86,1,65,2|2,1:2|2:0,2:0:0:0:
460,56,24399,1,2,1:2:0:0:
375,23,24831,1,2,1:2:0:0:
304,81,25263,6,0,P|243:98|188:65,1,130,2|2,1:2|1:2,2:0:0:0:
105,27,26126,2,0,P|97:58|101:90,1,65,2|2,1:2|2:0,2:0:0:0:
71,124,26558,2,0,P|88:151|113:171,1,65,2|2,1:2|2:0,2:0:0:0:
153,193,26989,1,2,1:2:0:0:
108,272,27421,1,2,1:2:0:0:
154,351,27853,2,0,L|220:342,1,65,2|2,1:2|2:0,2:0:0:0:
259,322,28284,6,0,P|274:350|273:382,2,65,2|2|2,1:2|2:0|1:2,2:0:0:0:
211,244,29147,1,2,1:2:0:0:
255,164,29579,2,0,L|387:182,1,130,2|2,1:2|1:2,2:0:0:0:
460,132,30442,2,0,P|467:100|458:70,1,65,2|2,1:2|2:0,2:0:0:0:
483,31,30874,6,0,P|442:62|360:52,1,130,2|2,1:2|1:2,2:0:0:0:
285,15,31737,1,2,1:2:0:0:
208,65,32169,2,0,L|225:214,1,130,2|2,1:2|1:2,2:0:0:0:
287,258,33032,2,0,L|278:332,1,65,2|2,1:2|2:0,2:0:0:0:
276,368,33464,6,0,P|213:377|159:342,1,130,2|2,1:2|1:2,2:0:0:0:
74,374,34327,1,2,1:2:0:0:
5,316,34759,2,0,L|19:186,1,130,2|2,1:2|1:2,2:0:0:0:
101,146,35622,2,0,L|93:81,1,65,2|2,1:2|2:0,2:0:0:0:
58,51,36054,6,0,B|128:65|111:3|181:17,1,130,2|2,1:2|1:2,2:0:0:0:
241,81,36917,1,2,1:2:0:0:
329,57,37349,2,0,P|391:48|441:88,1,130,2|2,1:2|1:2,2:0:0:0:
502,154,38212,2,0,P|498:182|473:202,1,65,2|2,1:2|2:0,2:0:0:0:
425,215,38644,5,2,1:2:0:0:
256,192,38858,12,6,40801,1:2:0:0:
413,176,41665,6,0,P|440:236|413:296,1,136.499995834351,6|10,1:2|2:0,2:0:0:0:
449,328,42312,2,0,L|296:310,1,136.499995834351,2|2,2:0|2:0,2:0:0:0:
266,313,42959,1,10,2:0:0:0:
175,344,43391,1,2,1:2:0:0:
89,301,43823,1,10,2:0:0:0:
71,207,44254,6,0,L|81:140,1,68.2499979171754,2|2,1:2|2:0,2:0:0:0:
122,165,44686,2,0,P|156:169|188:158,1,68.2499979171754,10|2,2:0|1:2,2:0:0:0:
230,180,45118,6,0,P|200:133|223:51,1,136.499995834351,2|10,1:2|2:0,2:0:0:0:
254,88,45765,2,0,B|284:117|284:117|391:104,1,136.499995834351,2|2,2:0|2:0,2:0:0:0:
401,63,46413,2,0,P|433:72|457:96,1,68.2499979171754,10|2,2:0|2:0,2:0:0:0:
463,143,46844,1,2,1:2:0:0:
393,208,47276,1,10,2:0:0:0:
328,276,47708,2,0,L|337:358,1,68.2499979171754,2|2,1:2|2:0,2:0:0:0:
292,324,48139,2,0,P|258:320|226:329,1,68.2499979171754,10|2,2:0|1:2,2:0:0:0:
181,343,48571,6,0,B|202:297|202:297|174:202,1,136.499995834351,6|10,1:2|2:0,2:0:0:0:
209,179,49218,2,0,B|140:199|151:136|82:157,1,136.499995834351,2|2,2:0|2:0,2:0:0:0:
49,121,49866,1,10,2:0:0:0:
119,56,50298,1,2,1:2:0:0:
196,108,50729,1,10,2:0:0:0:
263,40,51161,2,0,L|416:22,1,136.499995834351,2|10,1:2|2:0,2:0:0:0:
355,108,52024,6,0,P|329:169|357:229,1,136.499995834351,2|10,1:2|2:0,2:0:0:0:
384,267,52672,2,0,P|324:241|264:269,1,136.499995834351,2|2,2:0|2:0,2:0:0:0:
238,308,53319,1,10,2:0:0:0:
149,271,53751,2,0,L|156:203,1,68.2499979171754,2|2,1:2|2:0,2:0:0:0:
190,169,54182,2,0,L|182:101,1,68.2499979171754,10|2,2:0|2:0,2:0:0:0:
207,61,54614,2,0,P|146:87|86:60,1,136.499995834351,2|10,1:2|2:0,2:0:0:0:
49,148,55477,6,0,L|35:282,1,136.499995834351,6|10,1:2|2:0,2:0:0:0:
67,319,56125,2,0,P|127:346|188:318,1,136.499995834351,2|2,2:0|2:0,2:0:0:0:
216,280,56772,1,10,2:0:0:0:
305,247,57204,1,2,1:2:0:0:
356,326,57636,1,10,2:0:0:0:
449,307,58067,2,0,P|462:277|457:244,1,68.2499979171754,2|2,1:2|2:0,2:0:0:0:
409,234,58499,2,0,P|376:239|344:227,1,68.2499979171754,10|2,2:0|1:2,2:0:0:0:
305,254,58931,6,0,P|331:193|303:133,1,136.499995834351,2|10,1:2|2:0,2:0:0:0:
265,105,59578,1,2,2:0:0:0:
179,145,60010,2,0,P|145:148|114:135,1,68.2499979171754,2|10,2:0|2:0,2:0:0:0:
80,101,60441,2,0,B|52:131|52:131|64:238,1,136.499995834351,2|2,2:0|2:0,2:0:0:0:
71,272,61089,1,10,2:0:0:0:
151,324,61521,2,0,B|161:256,1,68.2499979171754,2|2,1:2|2:0,2:0:0:0:
201,230,61952,2,0,P|234:237|265:224,1,68.2499979171754,10|2,2:0|1:2,2:0:0:0:
307,246,62384,6,0,P|280:185|308:125,1,136.499995834351,6|10,1:2|2:0,2:0:0:0:
351,143,63031,2,0,L|486:158,1,136.499995834351,2|2,2:0|2:0,2:0:0:0:
480,110,63679,1,10,2:0:0:0:
403,55,64111,1,2,1:2:0:0:
307,51,64542,1,10,2:0:0:0:
236,116,64974,2,0,B|166:130|182:68|112:82,1,136.499995834351,2|10,1:2|2:0,2:0:0:0:
35,141,65837,6,0,L|49:275,1,136.499995834351,2|10,1:2|2:0,2:0:0:0:
90,250,66485,2,0,L|224:265,1,136.499995834351,2|2,2:0|2:0,2:0:0:0:
266,240,67132,1,10,2:0:0:0:
349,286,67564,6,0,P|352:252|342:220,1,68.2499979171754,2|2,1:2|2:0,2:0:0:0:
382,195,67995,2,0,P|361:169|330:153,1,68.2499979171754,8|10,2:0|1:2,2:0:0:0:
312,108,68427,2,0,P|278:100|245:108,1,68.2499979171754,8|8,2:0|2:0,2:0:0:0:
201,91,68859,2,0,P|178:116|168:148,1,68.2499979171754,0|0,1:0|1:0,2:0:0:0:
188,189,69290,6,0,L|200:318,1,130,6|2,1:2|2:0,2:0:0:0:
206,363,69937,1,2,2:0:0:0:
297,363,70369,6,0,L|284:233,1,130,6|2,1:2|2:0,2:0:0:0:
279,189,71016,1,2,2:0:0:0:
369,184,71448,6,0,L|381:313,1,130,6|2,1:2|2:0,2:0:0:0:
387,358,72095,1,2,2:0:0:0:
477,349,72527,6,0,L|464:219,1,130,6|2,1:2|2:0,2:0:0:0:
459,175,73174,1,2,2:0:0:0:
395,109,73606,6,0,B|318:96|318:96|282:52,1,130,6|2,1:2|2:0,2:0:0:0:
251,26,74254,1,2,2:0:0:0:
195,97,74685,6,0,B|117:110|117:110|81:154,1,130,6|2,1:2|2:0,2:0:0:0:
50,180,75333,1,2,2:0:0:0:
6,260,75764,6,0,B|34:328|34:328|154:295,1,195,6|2,1:2|2:0,2:0:0:0:
238,270,76843,6,0,P|234:238|217:211,1,65,6|2,1:2|2:0,2:0:0:0:
217,165,77275,2,0,P|242:146|258:118,1,65,2|2,2:0|2:0,2:0:0:0:
303,109,77707,1,2,2:0:0:0:
334,195,78138,6,0,B|394:248|394:248|355:356,1,195,6|2,2:0|2:0,2:0:0:0:
277,308,79217,2,0,P|187:286|133:361,1,195,6|2,2:0|2:0,2:0:0:0:
52,319,80296,2,0,P|73:229|-2:175,1,195,6|2,2:0|2:0,2:0:0:0:
53,101,81375,6,0,B|98:78|98:78|109:-1,1,130,6|2,2:0|2:0,2:0:0:0:
149,20,82022,1,6,2:0:0:0:
199,95,82454,6,0,P|290:101|328:18,1,195,6|2,2:0|2:0,2:0:0:0:
406,63,83533,2,0,B|433:167|359:142|381:250,1,195,6|2,2:0|2:0,2:0:0:0:
363,339,84612,2,0,P|325:255|233:262,1,195,6|2,2:0|2:0,2:0:0:0:
167,199,85691,5,6,2:0:0:0:
256,192,85907,12,0,88281,2:0:0:0:
