osu file format v14

[General]
AudioFilename: audio.mp3
AudioLeadIn: 0
PreviewTime: 54788
Countdown: 0
SampleSet: Soft
StackLeniency: 0.7
Mode: 0
LetterboxInBreaks: 0
WidescreenStoryboard: 1

[Editor]
Bookmarks: 79483
DistanceSpacing: 1.9
BeatDivisor: 4
GridSize: 32
TimelineZoom: 4.350001

[Metadata]
Title:TORCH (TV Size)
TitleUnicode:TORCH (TV Size)
Artist:Lia
ArtistUnicode:Lia
Creator:pewdekz
Version:Milo's Normal
Source:CLANNAD ~AFTER STORY~
Tags:milo milkshake big snag Kyoto Animation KyoAni 京都アニメーション japanese pop anime ed ending jpop j-pop vn visual novel art key クラナド アフターストーリー
BeatmapID:3947390
BeatmapSetID:1905940

[Difficulty]
HPDrainRate:2
CircleSize:3.5
OverallDifficulty:4.1
ApproachRate:5.2
SliderMultiplier:1.3
SliderTickRate:1

[Events]
//Background and Video events
Video,499,"video.mp4"
0,0,"clannd hah.jpg",0,0
//Break Periods
//Storyboard Layer 0 (Background)
//Storyboard Layer 1 (Fail)
//Storyboard Layer 2 (Pass)
//Storyboard Layer 3 (Foreground)
//Storyboard Layer 4 (Overlay)
//Storyboard Sound Samples

[TimingPoints]
1025,470.883691728143,4,2,1,15,1,0
1025,-250,4,2,1,15,0,0
1378,-250,4,2,1,5,0,0
1495,470.883691728143,4,2,1,50,1,0
1495,-133.333333333333,4,2,1,50,0,0
9029,-166.666666666667,4,2,1,45,0,0
24097,-153.846153846154,4,2,1,47,0,0
39165,-153.846153846154,4,2,1,47,0,0
55999,-153.846153846154,4,2,1,5,0,0
56117,-125,4,2,1,53,0,1
69066,-125,4,2,1,53,0,0
71185,-125,4,2,1,53,0,1
84135,-125,4,2,1,53,0,0
88137,-125,4,2,1,45,0,0
88608,-125,4,2,1,35,0,0
89079,-125,4,2,1,25,0,0
89550,-125,4,2,1,15,0,0
89667,-125,4,2,1,5,0,0

[Colours]
Combo1 : 255,174,255
Combo2 : 255,182,108
Combo3 : 130,222,253
Combo4 : 155,255,55

[HitObjects]
12,203,1495,6,0,P|4:180|11:138,1,48.750001859665,14|0,0:2|0:2,0:0:0:0:
41,85,1965,2,0,P|88:80|126:122,1,97.50000371933,2|10,1:2|0:2,0:0:0:0:
167,179,2672,1,8,0:2:0:0:
118,239,2907,1,0,1:2:0:0:
217,359,3378,6,0,P|238:363|274:375,2,48.750001859665,10|2|2,0:2|0:2|1:2,0:0:0:0:
247,282,4084,2,0,P|243:240|222:178,1,97.50000371933,2|2,0:2|0:2,0:0:0:0:
168,134,4791,1,0,1:2:0:0:
181,57,5026,1,2,0:2:0:0:
251,23,5262,6,0,P|260:49|264:77,1,48.750001859665,10|2,0:2|0:2,0:0:0:0:
314,129,5732,2,0,P|361:119|423:112,1,97.50000371933,2|10,1:2|0:2,0:0:0:0:
466,56,6439,2,0,P|478:28|493:1,2,48.750001859665,2|2|14,1:2|1:2|0:2,0:0:0:0:
256,192,7145,12,14,8322,0:2:0:0:
440,323,9029,6,0,P|439:286|421:236,1,77.999997619629,12|10,0:2|0:2,0:0:0:0:
365,198,9735,1,2,0:2:0:0:
423,147,9970,2,0,P|443:145|475:132,2,38.9999988098145,10|2|10,0:2|0:2|0:2,0:0:0:0:
367,91,10677,2,0,P|312:77|261:124,1,116.999996429443,2|10,0:2|0:2,0:0:0:0:
191,247,11854,5,10,0:2:0:0:
138,189,12089,2,0,P|105:173|96:171,2,38.9999988098145,2|10|2,0:2|0:2|0:2,0:0:0:0:
214,171,12796,2,0,P|211:136|219:84,1,77.999997619629,10|8,0:2|0:2,0:0:0:0:
163,35,13502,2,0,P|92:47|76:95,1,116.999996429443,2|10,0:2|0:2,0:0:0:0:
256,192,14679,12,2,16327,0:2:0:0:
142,340,17034,6,0,P|138:309|120:257,1,77.999997619629,10|10,0:2|0:2,0:0:0:0:
60,220,17740,2,0,P|71:203|89:192,1,38.9999988098145,2|10,0:2|0:2,0:0:0:0:
101,116,18211,2,0,P|144:104|207:149,1,116.999996429443,2|8,0:2|0:2,0:0:0:0:
256,286,19388,5,8,0:2:0:0:
320,241,19624,2,0,P|343:243|365:251,2,38.9999988098145,0|10|2,0:2|0:2|0:2,0:0:0:0:
250,204,20330,2,0,P|238:172|228:118,1,77.999997619629,10|8,0:2|0:2,0:0:0:0:
252,54,21036,2,0,P|309:45|348:87,1,116.999996429443,2|10,0:2|0:2,0:0:0:0:
425,84,21978,2,0,P|432:121|442:166,1,77.999997619629,2|2,0:2|0:2,0:0:0:0:
494,216,22684,1,10,0:2:0:0:
377,319,23155,1,10,0:2:0:0:
316,269,23391,2,0,P|318:253|333:226,1,38.9999988098145,2|2,1:2|1:2,0:0:0:0:
350,73,24097,6,0,P|306:86|266:77,1,84.4999961318971,14|2,0:2|1:2,0:0:0:0:
192,54,24803,2,0,P|195:31|201:9,2,42.2499980659486,2|10|2,0:2|0:2|0:2,0:0:0:0:
126,101,25510,1,2,1:2:0:0:
181,159,25745,2,0,P|191:206|203:286,1,126.749994197846,2|2,0:2|1:2,0:0:0:0:
68,371,26922,5,10,0:2:0:0:
39,295,27158,2,0,P|18:284|-8:276,2,42.2499980659486,2|2|2,0:2|1:2|0:2,0:0:0:0:
118,304,27864,2,0,P|153:286|207:269,1,84.4999961318971,10|0,0:2|1:2,0:0:0:0:
274,286,28570,2,0,P|272:242|249:196,1,84.4999961318971,2|0,0:2|0:2,0:0:0:0:
331,177,29277,2,0,P|333:153|342:119,1,42.2499980659486,2|0,1:2|0:2,0:0:0:0:
290,69,29748,2,0,P|248:77|195:91,2,84.4999961318971,10|2|10,0:2|1:2|0:2,0:0:0:0:
449,85,31160,1,2,1:2:0:0:
318,179,31631,1,8,0:2:0:0:
464,245,32102,6,0,P|454:265|446:286,1,42.2499980659486,2|2,1:2|0:2,0:0:0:0:
393,348,32573,2,0,P|372:339|343:329,1,42.2499980659486,10|2,0:2|0:2,0:0:0:0:
290,281,33044,1,2,1:2:0:0:
224,327,33279,2,0,P|161:317|157:248,1,126.749994197846,2|2,0:2|1:2,0:0:0:0:
250,137,34456,5,10,0:2:0:0:
313,186,34692,2,0,P|313:207|303:241,2,42.2499980659486,2|2|2,0:2|1:2|0:2,0:0:0:0:
386,153,35398,2,0,P|381:110|368:61,1,84.4999961318971,10|0,0:2|1:2,0:0:0:0:
311,14,36104,2,0,P|274:15|221:40,1,84.4999961318971,2|8,0:2|0:2,0:0:0:0:
172,89,36811,1,2,1:2:0:0:
103,45,37046,2,0,P|64:53|53:100,1,84.4999961318971,10|10,0:2|0:2,0:0:0:0:
8,160,37753,2,0,P|20:180|27:209,1,42.2499980659486,2|2,1:2|0:2,0:0:0:0:
113,332,38459,5,2,1:2:0:0:
181,290,38694,2,0,P|179:267|167:240,1,42.2499980659486,2|2,1:2|0:2,0:0:0:0:
109,198,39165,2,0,P|138:174|197:170,1,84.4999961318971,14|0,0:2|1:2,0:0:0:0:
252,125,39872,1,0,0:2:0:0:
312,176,40107,2,0,P|323:207|327:254,2,63.3749970989229,10|2|2,0:2|0:2|0:2,0:0:0:0:
349,104,41049,2,0,P|409:125|416:153,1,84.4999961318971,8|2,0:2|1:2,0:0:0:0:
492,280,41990,5,10,0:2:0:0:
445,345,42226,2,0,P|404:328|362:316,1,84.4999961318971,2|2,0:2|0:2,0:0:0:0:
304,264,42932,1,10,0:2:0:0:
153,317,43403,1,2,1:2:0:0:
84,359,43639,2,0,P|76:320|60:270,1,84.4999961318971,2|0,0:2|0:2,0:0:0:0:
18,210,44345,2,0,P|37:201|57:197,1,42.2499980659486,0|2,1:2|0:2,0:0:0:0:
96,126,44816,6,0,P|156:138|174:164,1,84.4999961318971,10|2,0:2|1:2,0:0:0:0:
249,157,45522,2,0,P|241:188|232:254,1,84.4999961318971,2|10,0:2|0:2,0:0:0:0:
179,299,46228,1,2,1:2:0:0:
225,364,46464,1,2,0:2:0:0:
297,329,46699,6,0,P|341:316|390:309,1,84.4999961318971,10|2,0:2|1:2,0:0:0:0:
495,199,47641,2,0,P|491:162|481:137,2,63.3749970989229,10|2|2,0:2|0:2|2:2,0:0:0:0:
415,186,48583,1,8,0:2:0:0:
287,283,49054,5,2,1:2:0:0:
252,210,49289,2,0,P|211:196|168:192,2,84.4999961318971,2|2|2,0:2|0:2|0:2,0:0:0:0:
324,175,50466,2,0,P|366:171|409:148,1,84.4999961318971,10|2,0:2|1:2,0:0:0:0:
465,100,51173,2,0,P|462:59|427:16,1,84.4999961318971,2|2,0:2|0:2,0:0:0:0:
285,75,52114,5,10,0:2:0:0:
311,151,52350,2,0,P|284:161|205:227,1,126.749994197846,10|0,0:2|0:2,0:0:0:0:
147,271,53292,2,0,P|155:291|159:322,1,42.2499980659486,10|2,0:2|1:2,0:0:0:0:
102,369,53763,1,10,0:2:0:0:
23,353,53998,1,10,0:2:0:0:
0,275,54233,2,0,P|6:232|30:183,1,84.4999961318971,10|10,0:2|0:2,0:0:0:0:
111,61,55175,1,10,0:2:0:0:
111,61,56117,6,0,P|104:103|146:149,1,104,14|2,0:2|1:2,0:0:0:0:
227,153,56823,2,0,P|212:196|199:268,1,104,2|8,0:2|0:2,0:0:0:0:
167,330,57530,1,2,1:2:0:0:
236,375,57765,1,0,0:2:0:0:
294,315,58001,2,0,P|336:303|355:300,2,52,10|2|2,0:2|0:2|1:2,0:0:0:0:
224,268,58707,1,2,0:2:0:0:
269,198,58942,2,0,P|263:147|245:76,1,104,10|0,0:2|1:2,0:0:0:0:
400,22,59884,6,0,P|440:61|432:112,1,104,10|2,0:2|1:2,0:0:0:0:
479,176,60590,2,0,P|428:188|376:240,1,104,2|8,0:2|0:2,0:0:0:0:
305,229,61297,2,0,P|316:253|319:282,1,52,2|0,1:2|0:2,0:0:0:0:
277,350,61768,1,10,0:2:0:0:
203,310,62003,2,0,P|202:281|213:255,2,52,2|2|2,0:2|1:2|0:2,0:0:0:0:
127,346,62709,2,0,P|89:332|72:269,1,104,10|2,0:2|1:2,0:0:0:0:
96,109,63651,6,0,P|137:113|205:141,1,104,10|2,0:2|1:2,0:0:0:0:
261,186,64357,1,2,0:2:0:0:
337,151,64593,2,0,P|346:195|365:257,1,104,10|2,0:2|1:2,0:0:0:0:
415,320,65299,2,0,P|456:308|486:200,1,156,2|0,0:2|1:2,0:0:0:0:
417,59,66476,6,0,P|448:44|504:38,2,78,10|2|2,0:2|0:2|0:2,0:0:0:0:
371,128,67418,2,0,P|328:107|312:55,1,104,10|2,0:2|1:2,0:0:0:0:
237,16,68125,2,0,P|178:16|128:47,1,104,2|8,0:2|0:2,0:0:0:0:
58,56,68831,1,2,1:2:0:0:
37,136,69066,6,0,P|39:159|57:201,1,52,14|0,0:2|0:0,0:0:0:0:
96,254,69537,2,0,P|114:243|152:228,1,52,14|2,0:2|1:2,0:0:0:0:
195,166,70008,1,14,0:2:0:0:
275,192,70244,2,0,P|291:217|300:248,1,52,10|6,0:2|1:2,0:0:0:0:
305,320,70714,1,2,1:2:0:0:
143,360,71185,6,0,P|96:336|80:286,1,104,14|2,0:2|1:2,0:0:0:0:
25,228,71892,2,0,P|21:178|13:109,1,104,2|8,0:2|0:2,0:0:0:0:
2,43,72598,1,2,1:2:0:0:
73,2,72833,1,0,0:2:0:0:
137,54,73069,2,0,P|133:82|130:110,2,52,10|2|2,0:2|0:2|1:2,0:0:0:0:
209,11,73775,1,2,0:2:0:0:
275,60,74011,2,0,P|327:47|392:33,1,104,10|2,0:2|1:2,0:0:0:0:
507,138,74952,6,0,P|457:156|449:204,1,104,10|2,0:2|1:2,0:0:0:0:
446,282,75659,2,0,P|391:274|356:238,1,104,2|8,0:2|0:2,0:0:0:0:
275,225,76365,2,0,P|282:201|286:167,1,52,2|0,1:2|0:2,0:0:0:0:
334,107,76836,2,0,P|357:94|382:89,2,52,10|2|2,0:2|0:2|1:2,0:0:0:0:
254,89,77542,1,2,0:2:0:0:
190,141,77778,2,0,P|144:114|79:121,1,104,10|2,0:2|1:2,0:0:0:0:
11,259,78719,6,0,P|61:268|110:288,1,104,10|2,0:2|1:2,0:0:0:0:
175,340,79426,1,2,0:2:0:0:
245,295,79661,2,0,P|244:248|233:191,1,104,8|2,0:2|1:2,0:0:0:0:
221,107,80368,2,0,B|266:98|319:126|276:149|362:174,1,156,2|0,0:2|1:2,0:0:0:0:
490,74,81545,6,0,P|484:40|469:-1,2,78,10|2|2,0:2|0:2|0:2,0:0:0:0:
498,157,82486,2,0,P|409:172|346:207,1,156,10|2,0:2|0:2,0:0:0:0:
271,228,83428,2,0,P|275:273|235:313,1,104,10|0,0:2|1:2,0:0:0:0:
155,332,84135,1,14,0:2:0:0:
22,231,84605,5,10,0:2:0:0:
55,155,84841,2,0,P|82:163|108:181,1,52,2|2,1:2|0:2,0:0:0:0:
144,247,85312,2,0,P|180:235|226:225,2,78,10|2|2,0:2|0:2|1:2,0:0:0:0:
75,294,86254,1,10,0:2:0:0:
223,132,87195,2,0,P|297:148|310:225,1,156,10|14,0:2|0:2,0:0:0:0:
256,192,88137,12,0,89785,0:2:0:0:
