osu file format v14

[General]
AudioFilename: audio.mp3
AudioLeadIn: 0
PreviewTime: 54788
Countdown: 0
SampleSet: Soft
StackLeniency: 0.7
Mode: 0
LetterboxInBreaks: 0
WidescreenStoryboard: 1

[Editor]
DistanceSpacing: 1.6
BeatDivisor: 4
GridSize: 32
TimelineZoom: 1

[Metadata]
Title:TORCH (TV Size)
TitleUnicode:TORCH (TV Size)
Artist:Lia
ArtistUnicode:Lia
Creator:pewdekz
Version:Hard
Source:CLANNAD ~AFTER STORY~
Tags:milo milkshake big snag Kyoto Animation KyoAni 京都アニメーション japanese pop anime ed ending jpop j-pop vn visual novel art key クラナド アフターストーリー
BeatmapID:3932992
BeatmapSetID:1905940

[Difficulty]
HPDrainRate:3
CircleSize:3.8
OverallDifficulty:6
ApproachRate:7.1
SliderMultiplier:1.6
SliderTickRate:1

[Events]
//Background and Video events
Video,499,"video.mp4"
0,0,"clannd hah.jpg",0,0
//Break Periods
//Storyboard Layer 0 (Background)
//Storyboard Layer 1 (Fail)
//Storyboard Layer 2 (Pass)
//Storyboard Layer 3 (Foreground)
//Storyboard Layer 4 (Overlay)
//Storyboard Sound Samples

[TimingPoints]
1025,470.883691728143,4,2,1,15,1,0
1025,-250,4,2,1,15,0,0
1376,-333.333333333333,4,2,1,5,0,0
1495,470.883691728143,4,2,1,50,1,0
9029,-105.263157894737,4,2,1,45,0,0
24097,-105.263157894737,4,2,1,47,0,0
39165,-105.263157894737,4,2,1,47,0,0
55175,-200,4,2,1,47,0,0
55999,-333.333333333333,4,2,1,5,0,0
56117,-95.2380952380952,4,2,1,53,0,1
69066,-95.2380952380952,4,2,1,53,0,0
71185,-93.4579439252336,4,2,1,53,0,1
84135,-93.4579439252336,4,2,1,53,0,0
88137,-93.4579439252336,4,2,1,45,0,0
88608,-93.4579439252336,4,2,1,35,0,0
89079,-93.4579439252336,4,2,1,25,0,0
89550,-93.4579439252336,4,2,1,15,0,0
89667,-93.4579439252336,4,2,1,5,0,0

[Colours]
Combo1 : 255,174,255
Combo2 : 255,182,108
Combo3 : 130,222,253
Combo4 : 155,255,55

[HitObjects]
62,340,1495,6,0,L|75:257,1,80,14|0,0:2|0:2,0:0:0:0:
79,238,1848,1,0,0:2:0:0:
85,210,1965,2,0,P|120:197|165:197,1,80,2|0,1:2|0:2,0:0:0:0:
220,263,2436,2,0,P|255:275|299:272,1,80,10|8,0:2|0:2,0:0:0:0:
351,199,2907,1,0,1:2:0:0:
258,123,3143,1,0,0:2:0:0:
258,123,3260,1,0,0:2:0:0:
258,123,3378,6,0,L|272:212,2,80,10|2|2,0:2|0:2|1:2,0:0:0:0:
175,62,4084,2,0,P|118:62|66:96,1,120,2|0,0:2|0:2,0:0:0:0:
51,121,4555,1,2,0:2:0:0:
85,213,4791,1,0,1:2:0:0:
50,311,5026,1,2,0:2:0:0:
106,383,5262,6,0,L|191:365,1,80,10|2,0:2|0:2,0:0:0:0:
212,355,5615,1,2,0:2:0:0:
237,339,5732,2,0,P|244:321|248:281,3,40,2|2|2|2,1:2|0:2|0:2|1:2,0:0:0:0:
232,269,6203,1,10,0:2:0:0:
391,264,6439,6,0,P|353:262|309:239,1,80,2|2,1:2|1:2,0:0:0:0:
372,172,6910,1,14,0:2:0:0:
385,353,7381,1,2,0:2:0:0:
246,382,7851,2,0,L|165:369,1,80,2|0,0:2|1:2,0:0:0:0:
113,302,8322,1,14,0:2:0:0:
113,302,8793,2,0,L|104:254,1,40,0|0,1:2|1:2,0:0:0:0:
77,234,9029,6,0,L|111:118,1,113.999996955872,12|0,0:2|0:2,0:0:0:0:
118,97,9500,2,0,P|153:82|218:88,1,75.9999979705811,10|2,0:2|0:2,0:0:0:0:
257,133,9970,2,0,P|289:145|340:143,1,75.9999979705811,10|2,0:2|0:2,0:0:0:0:
267,49,10441,1,10,0:2:0:0:
177,160,10677,6,0,L|190:242,1,75.9999979705811,2|8,0:2|0:2,0:0:0:0:
139,318,11148,1,2,0:2:0:0:
204,384,11383,1,10,0:2:0:0:
204,384,11501,2,0,P|243:378|277:358,1,75.9999979705811,2|2,0:2|0:2,0:0:0:0:
300,332,11854,1,10,0:2:0:0:
392,345,12089,1,2,0:2:0:0:
456,272,12325,2,0,L|442:189,1,75.9999979705811,10|2,0:2|0:2,0:0:0:0:
512,144,12796,6,0,B|477:131|444:148|444:148|407:165|367:140,1,151.999995941162,10|8,0:2|0:2,0:0:0:0:
280,193,13502,1,2,0:2:0:0:
233,107,13737,2,0,P|312:97|375:157,1,151.999995941162,10|10,0:2|0:2,0:0:0:0:
286,342,14679,6,0,B|211:334|211:334|140:374,1,151.999995941162,10|10,0:2|0:2,0:0:0:0:
65,330,15386,1,2,0:2:0:0:
117,252,15621,1,10,0:2:0:0:
117,252,15739,1,2,0:2:0:0:
117,252,15856,2,0,L|174:265,2,37.9999989852906,2|2|10,0:2|0:2|0:2,0:0:0:0:
113,153,16327,1,2,0:2:0:0:
167,81,16563,6,0,P|219:91|276:59,1,113.999996955872,8|0,0:2|0:2,0:0:0:0:
294,46,17034,2,0,P|351:26|393:38,1,75.9999979705811,10|0,0:2|0:2,0:0:0:0:
431,95,17505,1,10,0:2:0:0:
393,182,17740,2,0,L|298:166,2,75.9999979705811,2|10|2,0:2|0:2|0:2,0:0:0:0:
417,278,18446,6,0,L|312:259,1,75.9999979705811,8|0,0:2|0:2,0:0:0:0:
256,291,18917,1,8,0:2:0:0:
256,291,19035,2,0,P|214:262|195:210,1,75.9999979705811,2|2,0:2|0:2,0:0:0:0:
183,219,19388,2,0,L|200:142,1,75.9999979705811,8|0,0:2|0:2,0:0:0:0:
174,66,19859,1,10,0:2:0:0:
174,66,20094,1,2,0:2:0:0:
79,7,20330,6,0,P|33:15|2:105,1,151.999995941162,10|8,0:2|0:2,0:0:0:0:
8,204,21036,2,0,L|91:180,1,75.9999979705811,2|8,0:2|0:2,0:0:0:0:
139,109,21507,1,2,0:2:0:0:
218,162,21742,1,10,0:2:0:0:
218,162,21978,2,0,L|194:245,1,75.9999979705811,2|8,0:2|0:2,0:0:0:0:
99,265,22449,1,2,0:2:0:0:
107,368,22684,5,10,0:2:0:0:
125,345,22802,1,0,0:2:0:0:
152,338,22920,1,0,0:2:0:0:
180,341,23037,1,0,0:2:0:0:
207,346,23155,2,0,L|260:353,3,37.9999989852906,10|0|2|0,0:2|0:2|1:2|0:2,0:0:0:0:
261,373,23626,2,0,L|314:366,3,37.9999989852906,2|2|0|0,1:2|1:2|0:2|0:2,0:0:0:0:
319,348,24097,6,0,L|336:267,1,75.9999979705811,14|0,0:2|0:2,0:0:0:0:
359,188,24568,1,2,1:2:0:0:
305,112,24803,1,2,0:2:0:0:
305,112,24921,1,0,1:2:0:0:
305,112,25039,2,0,P|274:129|224:129,1,75.9999979705811,10|2,0:2|0:2,0:0:0:0:
248,44,25510,1,2,1:2:0:0:
393,110,25745,2,0,P|388:145|359:185,1,75.9999979705811,2|8,0:2|0:2,0:0:0:0:
310,287,26216,6,0,L|224:273,1,75.9999979705811,2|2,0:2|1:2,0:0:0:0:
210,260,26569,2,0,L|124:272,1,75.9999979705811,2|0,0:2|1:2,0:0:0:0:
117,293,26922,1,10,0:2:0:0:
28,228,27158,2,0,L|41:150,1,75.9999979705811,2|2,0:2|1:2,0:0:0:0:
106,93,27629,1,2,0:2:0:0:
267,83,27864,6,0,P|246:134|150:155,1,151.999995941162,10|0,0:2|1:2,0:0:0:0:
106,93,28570,1,2,0:2:0:0:
124,0,28806,2,0,P|159:6|195:30,1,75.9999979705811,8|0,0:2|0:2,0:0:0:0:
267,83,29277,2,0,P|308:76|361:30,1,113.999996955872,2|0,1:2|0:2,0:0:0:0:
384,12,29748,6,0,P|419:12|455:31,1,75.9999979705811,10|2,0:2|0:2,0:0:0:0:
484,128,30218,1,2,1:2:0:0:
484,128,30336,1,2,0:2:0:0:
484,128,30454,1,0,0:2:0:0:
430,213,30689,2,0,L|385:205,3,37.9999989852906,10|2|2|2,0:2|0:2|0:2|0:2,0:0:0:0:
375,183,31160,1,2,1:2:0:0:
277,210,31396,1,2,0:2:0:0:
281,238,31513,1,0,1:2:0:0:
283,266,31631,6,0,P|267:297|211:318,1,75.9999979705811,8|0,0:2|0:2,0:0:0:0:
146,378,32102,1,2,1:2:0:0:
80,310,32337,1,2,0:2:0:0:
80,310,32455,1,0,1:2:0:0:
80,310,32573,2,0,L|94:224,1,75.9999979705811,10|2,0:2|0:2,0:0:0:0:
173,189,33044,1,2,1:2:0:0:
12,182,33279,2,0,L|-2:268,1,75.9999979705811,2|8,0:2|0:2,0:0:0:0:
59,103,33750,5,2,0:2:0:0:
140,34,33985,1,2,1:2:0:0:
140,34,34103,2,0,P|166:48|226:48,1,75.9999979705811,0|0,0:2|1:2,0:0:0:0:
238,41,34456,2,0,P|264:27|324:27,1,75.9999979705811,10|2,0:2|0:2,0:0:0:0:
373,82,34927,1,2,1:2:0:0:
339,175,35163,1,2,0:2:0:0:
387,267,35398,6,0,B|344:267|318:295|318:295|288:321|244:315,1,151.999995941162,10|0,0:2|1:2,0:0:0:0:
174,259,36104,1,2,0:2:0:0:
263,160,36340,2,0,L|255:236,1,75.9999979705811,8|8,0:2|0:2,0:0:0:0:
199,96,36811,1,2,1:2:0:0:
82,108,37046,6,0,B|116:133|116:133|131:250,1,151.999995941162,10|10,0:2|0:2,0:0:0:0:
24,371,37753,1,2,1:2:0:0:
22,285,37988,2,0,P|57:291|93:320,1,75.9999979705811,2|8,0:2|0:2,0:0:0:0:
166,384,38459,1,2,1:2:0:0:
166,384,38694,2,0,P|201:378|237:349,1,75.9999979705811,2|2,1:2|0:2,0:0:0:0:
327,359,39165,6,0,B|319:303|319:303|290:279|290:279|279:211,1,151.999995941162,14|0,0:2|1:2,0:0:0:0:
280,221,40107,2,0,L|292:139,1,75.9999979705811,10|0,0:2|0:2,0:0:0:0:
313,128,40460,2,0,L|300:46,1,75.9999979705811,2|0,0:2|0:2,0:0:0:0:
294,25,40813,1,2,0:2:0:0:
183,0,41049,6,0,P|149:34|45:32,1,151.999995941162,8|2,0:2|1:2,0:0:0:0:
3,116,41755,1,0,0:2:0:0:
3,116,41873,1,0,1:2:0:0:
3,116,41990,2,0,L|21:201,1,75.9999979705811,10|2,0:2|0:2,0:0:0:0:
40,209,42344,2,0,L|22:294,1,75.9999979705811,2|0,0:2|0:2,0:0:0:0:
18,311,42697,1,2,0:2:0:0:
78,384,42932,6,0,B|181:362|181:362|202:302,1,151.999995941162,10|2,0:2|1:2,0:0:0:0:
283,381,43639,2,0,L|296:291,1,75.9999979705811,2|10,0:2|0:2,0:0:0:0:
395,273,44109,1,0,0:2:0:0:
395,273,44227,1,2,0:2:0:0:
395,273,44345,2,0,L|381:183,1,75.9999979705811,0|2,1:2|0:2,0:0:0:0:
288,189,44816,6,0,P|241:213|175:204,1,113.999996955872,10|0,0:2|0:2,0:0:0:0:
159,188,45287,1,2,1:2:0:0:
99,110,45522,2,0,B|119:44|119:44|202:5,1,151.999995941162,2|10,0:2|0:2,0:0:0:0:
287,49,46228,1,2,1:2:0:0:
384,16,46464,1,2,0:2:0:0:
384,16,46582,1,0,1:2:0:0:
384,16,46699,6,0,P|441:36|464:129,1,151.999995941162,10|2,0:2|1:2,0:0:0:0:
467,117,47641,2,0,L|453:200,1,75.9999979705811,10|0,0:2|0:2,0:0:0:0:
438,213,47994,2,0,L|451:296,1,75.9999979705811,2|0,0:2|0:2,0:0:0:0:
457,315,48347,1,2,2:2:0:0:
395,384,48583,6,0,B|339:374|339:374|313:355|313:355|246:344,1,151.999995941162,8|2,0:2|1:2,0:0:0:0:
154,384,49289,1,2,0:2:0:0:
154,384,49407,1,0,1:2:0:0:
154,384,49525,2,0,P|121:356|100:316,1,75.9999979705811,10|2,0:2|0:2,0:0:0:0:
98,300,49878,2,0,L|116:217,1,75.9999979705811,0|0,0:2|0:2,0:0:0:0:
122,198,50231,1,2,0:2:0:0:
182,105,50466,6,0,P|249:92|323:133,1,151.999995941162,10|2,0:2|1:2,0:0:0:0:
374,203,51173,1,2,0:2:0:0:
459,164,51408,2,0,L|475:79,1,75.9999979705811,8|2,0:2|0:2,0:0:0:0:
478,61,51761,1,0,0:2:0:0:
483,33,51879,1,0,1:2:0:0:
389,0,52114,1,10,0:2:0:0:
295,76,52350,6,0,L|309:153,1,75.9999979705811,10|0,0:2|0:2,0:0:0:0:
400,221,52821,2,0,L|385:300,1,75.9999979705811,2|0,1:2|0:2,0:0:0:0:
381,324,53174,1,0,1:2:0:0:
376,351,53292,5,10,0:2:0:0:
279,288,53527,1,2,1:2:0:0:
179,329,53763,1,10,0:2:0:0:
89,269,53998,1,10,0:2:0:0:
128,162,54233,5,10,0:2:0:0:
128,162,54704,1,10,0:2:0:0:
128,162,55175,6,0,L|266:140,1,140,10|0,0:2|0:2,0:0:0:0:
285,114,56117,6,0,P|319:132|365:132,1,83.9999974365235,14|2,0:2|0:2,0:0:0:0:
391,121,56470,1,2,0:2:0:0:
417,108,56588,1,2,1:2:0:0:
491,192,56823,2,0,L|471:284,1,83.9999974365235,2|8,0:2|0:2,0:0:0:0:
382,315,57294,1,8,0:2:0:0:
263,221,57530,2,0,B|292:242|292:242|380:221,1,125.999996154785,2|0,1:2|0:2,0:0:0:0:
392,194,58001,5,10,0:2:0:0:
408,100,58236,1,2,0:2:0:0:
281,63,58471,2,0,L|300:155,1,83.9999974365235,2|2,1:2|0:2,0:0:0:0:
248,241,58942,5,10,0:2:0:0:
137,207,59178,1,2,0:2:0:0:
248,241,59413,1,0,1:2:0:0:
137,207,59649,1,2,0:2:0:0:
21,289,59884,6,0,P|30:326|80:361,1,83.9999974365235,10|2,0:2|0:2,0:0:0:0:
89,368,60237,1,2,0:2:0:0:
118,365,60355,1,2,1:2:0:0:
210,332,60590,2,0,L|195:239,1,83.9999974365235,2|8,0:2|0:2,0:0:0:0:
117,195,61061,1,8,0:2:0:0:
145,79,61297,6,0,B|169:92|203:72|203:72|234:55|267:67,1,125.999996154785,2|0,1:2|0:2,0:0:0:0:
289,84,61768,1,10,0:2:0:0:
372,29,62003,1,2,0:2:0:0:
450,91,62238,2,0,L|435:178,1,83.9999974365235,2|2,1:2|0:2,0:0:0:0:
378,278,62709,5,10,0:2:0:0:
497,243,62945,1,2,0:2:0:0:
378,278,63180,1,2,1:2:0:0:
497,243,63416,1,2,0:2:0:0:
370,123,63651,6,0,B|331:131|331:131|290:109,1,83.9999974365235,10|2,0:2|0:2,0:0:0:0:
263,104,64004,1,2,0:2:0:0:
235,115,64122,2,0,L|239:159,3,41.9999987182618,2|2|2|2,1:2|0:2|0:2|1:2,0:0:0:0:
224,182,64593,2,0,P|177:203|98:190,1,125.999996154785,10|0,0:2|0:2,0:0:0:0:
92,166,65064,1,2,1:2:0:0:
1,221,65299,6,0,L|16:316,1,83.9999974365235,2|10,0:2|0:2,0:0:0:0:
22,332,65652,1,2,0:2:0:0:
28,360,65770,2,0,P|65:364|115:338,1,83.9999974365235,2|0,0:2|1:2,0:0:0:0:
163,270,66241,1,0,0:2:0:0:
314,384,66476,2,0,L|226:371,1,83.9999974365235,10|0,0:2|0:2,0:0:0:0:
219,344,66830,1,2,0:2:0:0:
219,344,66947,1,0,1:2:0:0:
239,217,67183,1,2,0:2:0:0:
320,158,67418,6,0,L|408:171,1,83.9999974365235,10|2,0:2|0:2,0:0:0:0:
469,240,67889,1,2,1:2:0:0:
464,86,68125,2,0,L|381:74,1,83.9999974365235,2|8,0:2|0:2,0:0:0:0:
299,14,68595,1,8,0:2:0:0:
217,63,68831,1,2,1:2:0:0:
109,23,69066,5,14,0:2:0:0:
25,135,69537,1,14,0:2:0:0:
59,272,70008,1,14,0:2:0:0:
168,209,70244,6,0,P|132:192|87:190,1,83.9999974365235,10|6,0:2|1:2,0:0:0:0:
121,327,70714,2,0,P|159:323|200:301,1,83.9999974365235,2|4,1:2|1:2,0:0:0:0:
223,281,71068,1,0,1:2:0:0:
250,263,71185,6,0,P|288:266|330:288,1,85.5999973876954,14|2,0:2|0:2,0:0:0:0:
407,357,71656,1,2,1:2:0:0:
490,302,71892,2,0,L|477:214,1,85.5999973876954,2|8,0:2|0:2,0:0:0:0:
483,125,72362,1,8,0:2:0:0:
402,51,72598,6,0,B|361:41|361:41|336:14|336:14|288:5,1,128.399996081543,2|0,1:2|0:2,0:0:0:0:
260,18,73069,1,10,0:2:0:0:
281,117,73304,1,2,0:2:0:0:
211,195,73540,2,0,L|123:181,1,85.5999973876954,2|2,1:2|0:2,0:0:0:0:
28,127,74011,5,10,0:2:0:0:
50,240,74246,1,2,0:2:0:0:
28,127,74481,1,2,1:2:0:0:
50,240,74717,1,2,0:2:0:0:
120,98,74952,6,0,L|207:111,1,85.5999973876954,10|2,0:2|0:2,0:0:0:0:
234,116,75306,1,2,0:2:0:0:
263,120,75423,1,2,1:2:0:0:
304,32,75659,2,0,P|337:51|364:95,1,85.5999973876954,2|8,0:2|0:2,0:0:0:0:
340,187,76130,1,8,0:2:0:0:
239,235,76365,2,0,L|253:144,1,85.5999973876954,2|0,1:2|0:2,0:0:0:0:
170,45,76836,5,10,0:2:0:0:
97,104,77071,1,2,0:2:0:0:
149,246,77307,2,0,L|163:155,1,85.5999973876954,2|2,1:2|0:2,0:0:0:0:
185,330,77778,5,10,0:2:0:0:
78,351,78013,1,2,0:2:0:0:
185,330,78249,1,2,1:2:0:0:
78,351,78484,1,2,0:2:0:0:
0,254,78719,6,0,P|16:219|23:168,1,85.5999973876954,10|2,0:2|0:2,0:0:0:0:
17,143,79073,1,2,0:2:0:0:
9,113,79190,2,0,P|20:91|47:68,3,42.7999986938477,2|2|2|2,1:2|0:2|0:2|1:2,0:0:0:0:
51,54,79661,2,0,B|113:45|113:45|182:82,1,128.399996081543,8|0,0:2|0:2,0:0:0:0:
195,93,80132,1,2,1:2:0:0:
282,29,80368,2,0,L|296:119,1,85.5999973876954,2|10,0:2|0:2,0:0:0:0:
378,192,80838,5,2,0:2:0:0:
378,192,80956,1,0,0:2:0:0:
378,192,81074,2,0,L|363:282,1,85.5999973876954,0|2,1:2|0:2,0:0:0:0:
300,362,81545,2,0,P|269:331|215:316,1,85.5999973876954,10|2,0:2|0:2,0:0:0:0:
203,302,81898,2,0,L|118:316,1,85.5999973876954,2|0,0:2|0:2,0:0:0:0:
99,339,82251,1,2,0:2:0:0:
31,267,82486,6,0,L|45:182,1,85.5999973876954,10|2,0:2|0:2,0:0:0:0:
51,152,82840,1,2,0:2:0:0:
56,122,82957,1,2,1:2:0:0:
207,49,83193,1,2,0:2:0:0:
207,138,83428,2,0,P|165:129|128:80,1,85.5999973876954,10|0,0:2|0:2,0:0:0:0:
207,49,83899,1,0,1:2:0:0:
336,77,84135,6,0,B|353:168|353:168|331:213,1,128.399996081543,14|0,0:2|0:2,0:0:0:0:
323,226,84605,1,10,0:2:0:0:
373,310,84841,2,0,L|469:294,1,85.5999973876954,2|2,1:2|0:2,0:0:0:0:
510,200,85312,2,0,L|494:104,1,85.5999973876954,10|0,0:2|0:2,0:0:0:0:
490,86,85665,1,2,0:2:0:0:
483,56,85783,1,0,1:2:0:0:
402,6,86018,1,2,1:2:0:0:
374,26,86136,1,0,1:2:0:0:
341,34,86254,5,10,0:2:0:0:
254,192,87195,1,10,0:2:0:0:
254,192,87902,5,14,0:2:0:0:
256,192,88137,12,0,89785,0:2:0:0:
