osu file format v14

[General]
AudioFilename: audio.mp3
AudioLeadIn: 0
PreviewTime: 54788
Countdown: 0
SampleSet: Soft
StackLeniency: 0.7
Mode: 0
LetterboxInBreaks: 0
WidescreenStoryboard: 0

[Editor]
DistanceSpacing: 1.6
BeatDivisor: 4
GridSize: 32
TimelineZoom: 1.3

[Metadata]
Title:TORCH (TV Size)
TitleUnicode:TORCH (TV Size)
Artist:Lia
ArtistUnicode:Lia
Creator:pewdekz
Version:Happy Ending
Source:CLANNAD ~AFTER STORY~
Tags:milo milkshake big snag Kyoto Animation KyoAni 京都アニメーション japanese pop anime ed ending jpop j-pop vn visual novel art key クラナド アフターストーリー
BeatmapID:3930069
BeatmapSetID:1905940

[Difficulty]
HPDrainRate:4
CircleSize:4.2
OverallDifficulty:7.5
ApproachRate:8.1
SliderMultiplier:1.7
SliderTickRate:1

[Events]
//Background and Video events
Video,499,"video.mp4"
0,0,"clannd hah.jpg",0,0
//Break Periods
//Storyboard Layer 0 (Background)
//Storyboard Layer 1 (Fail)
//Storyboard Layer 2 (Pass)
//Storyboard Layer 3 (Foreground)
//Storyboard Layer 4 (Overlay)
//Storyboard Sound Samples

[TimingPoints]
1025,470.883691728143,4,2,1,15,1,0
1025,-250,4,2,1,15,0,0
1376,-333.333333333333,4,2,1,5,0,0
1495,470.883691728143,4,2,1,50,1,0
9029,-111.111111111111,4,2,1,45,0,0
24097,-105.263157894737,4,2,1,47,0,0
39165,-100,4,2,1,47,0,0
55175,-333.333333333333,4,2,1,47,0,0
55999,-333.333333333333,4,2,1,5,0,0
56117,-90.9090909090909,4,2,1,53,0,1
69066,-90.9090909090909,4,2,1,53,0,0
71185,-86.9565217391304,4,2,1,53,0,1
84135,-90.9090909090909,4,2,1,53,0,0
88137,-90.9090909090909,4,2,1,45,0,0
88608,-90.9090909090909,4,2,1,35,0,0
89079,-90.9090909090909,4,2,1,25,0,0
89550,-90.9090909090909,4,2,1,15,0,0
89667,-90.9090909090909,4,2,1,5,0,0

[Colours]
Combo1 : 255,117,255
Combo2 : 255,148,40
Combo3 : 4,167,221
Combo4 : 88,176,0

[HitObjects]
470,355,1025,6,0,P|470:373|450:358,1,51,8|0,0:2|0:2,0:0:0:0:
438,351,1495,6,0,P|448:310|435:270,1,85,14|0,0:2|0:2,0:0:0:0:
420,244,1848,1,0,0:2:0:0:
407,216,1965,2,0,L|415:164,1,42.5,2|0,1:2|0:2,0:0:0:0:
327,308,2201,2,0,L|378:316,1,42.5,0|0,0:2|1:2,0:0:0:0:
489,207,2436,1,10,0:2:0:0:
339,139,2672,2,0,L|330:190,1,42.5,8|0,0:2|0:2,0:0:0:0:
409,90,2907,1,0,1:2:0:0:
281,238,3143,1,0,0:2:0:0:
267,66,3378,6,0,P|300:41|343:41,1,85,10|2,0:2|0:2,0:0:0:0:
413,173,3849,1,2,1:2:0:0:
195,129,4084,2,0,L|180:37,1,85,2|8,0:2|0:2,0:0:0:0:
137,192,4555,6,0,P|153:204|175:209,1,42.5,2|0,0:2|0:2,0:0:0:0:
275,160,4791,1,0,1:2:0:0:
134,200,5026,2,0,P|150:212|172:217,1,42.5,2|0,0:2|0:2,0:0:0:0:
280,153,5262,1,10,0:2:0:0:
168,294,5497,5,2,0:2:0:0:
136,293,5615,1,2,0:2:0:0:
107,282,5732,1,2,1:2:0:0:
82,263,5850,1,2,0:2:0:0:
64,238,5968,1,2,0:2:0:0:
195,129,6203,1,10,0:2:0:0:
246,260,6439,1,2,1:2:0:0:
89,146,6674,1,2,1:2:0:0:
301,118,6910,5,14,0:2:0:0:
306,138,7381,1,2,0:2:0:0:
312,163,7851,1,2,0:2:0:0:
344,49,8087,1,0,1:2:0:0:
328,242,8322,2,0,P|286:238|253:212,1,85,14|0,0:2|0:2,0:0:0:0:
167,37,8793,1,0,1:2:0:0:
196,33,8911,1,0,1:2:0:0:
222,44,9029,6,0,L|209:125,1,76.4999976654053,12|0,0:2|0:2,0:0:0:0:
207,148,9382,1,0,0:2:0:0:
203,176,9500,1,10,0:2:0:0:
135,227,9735,1,2,0:2:0:0:
39,139,9970,2,0,L|56:231,2,76.4999976654053,10|2|10,0:2|0:2|0:2,0:0:0:0:
82,66,10677,1,2,0:2:0:0:
207,42,10912,6,0,P|238:62|276:64,1,76.4999976654053,8|2,0:2|0:2,0:0:0:0:
347,21,11383,1,10,0:2:0:0:
347,21,11501,2,0,P|378:1|416:-1,1,76.4999976654053,2|2,0:2|0:2,0:0:0:0:
450,6,11854,2,0,P|476:30|496:85,1,76.4999976654053,10|2,0:2|0:2,0:0:0:0:
491,151,12325,1,10,0:2:0:0:
422,106,12560,1,2,0:2:0:0:
339,226,12796,6,0,P|375:221|405:197,1,76.4999976654053,10|2,0:2|0:2,0:0:0:0:
344,140,13267,1,8,0:2:0:0:
344,140,13384,1,2,0:2:0:0:
249,206,13620,1,0,0:2:0:0:
249,206,13737,2,0,L|273:319,1,114.749996498108,10|0,0:2|0:0,0:0:0:0:
264,350,14208,2,0,P|227:349|166:288,1,114.749996498108,10|0,0:2|0:2,0:0:0:0:
144,288,14679,6,0,L|161:211,1,76.4999976654053,10|0,0:2|0:2,0:0:0:0:
249,206,15150,1,10,0:2:0:0:
249,206,15268,2,0,B|243:168|243:168|219:140|219:140|212:98,1,114.749996498108,0|10,0:2|0:2,0:0:0:0:
208,74,15739,1,2,0:2:0:0:
204,46,15856,1,2,0:2:0:0:
119,31,16092,1,10,0:2:0:0:
293,84,16327,1,2,0:2:0:0:
266,212,16563,6,0,L|188:199,1,76.4999976654053,8|0,0:2|0:2,0:0:0:0:
344,228,17034,2,0,P|317:273|245:289,1,114.749996498108,10|0,0:2|0:2,0:0:0:0:
229,281,17505,1,10,0:2:0:0:
144,347,17740,1,2,0:2:0:0:
144,347,17858,1,0,0:2:0:0:
144,347,17975,2,0,L|131:269,1,76.4999976654053,10|2,0:2|0:2,0:0:0:0:
25,229,18446,6,0,L|38:151,1,76.4999976654053,8|0,0:2|0:2,0:0:0:0:
97,88,18917,1,8,0:2:0:0:
97,88,19035,2,0,P|129:68|166:67,1,76.4999976654053,2|2,0:2|0:2,0:0:0:0:
192,74,19388,2,0,P|227:86|263:80,1,76.4999976654053,8|0,0:2|0:2,0:0:0:0:
235,4,19859,1,10,0:2:0:0:
150,144,20094,1,2,0:2:0:0:
179,236,20330,6,0,L|253:216,1,76.4999976654053,10|0,0:2|0:2,0:0:0:0:
406,88,20801,1,8,0:2:0:0:
420,176,21036,2,0,L|346:157,1,76.4999976654053,2|8,0:2|0:2,0:0:0:0:
318,150,21389,1,0,0:2:0:0:
291,144,21507,1,2,0:2:0:0:
252,216,21742,1,10,0:2:0:0:
293,293,21978,2,0,P|319:266|333:230,1,76.4999976654053,2|8,0:2|0:2,0:0:0:0:
291,144,22449,1,2,0:2:0:0:
146,43,22684,5,10,0:2:0:0:
149,61,22802,1,0,0:2:0:0:
152,79,22920,1,0,0:2:0:0:
155,97,23037,1,0,0:2:0:0:
157,115,23155,1,10,0:2:0:0:
228,40,23391,1,2,1:2:0:0:
78,149,23626,1,2,1:2:0:0:
78,149,23744,2,0,P|99:180|131:201,1,76.4999976654053,2|0,1:2|0:2,0:0:0:0:
201,235,24097,6,0,L|282:217,1,80.7499978437424,14|0,0:2|0:2,0:0:0:0:
348,316,24568,1,2,1:2:0:0:
348,316,24686,2,0,L|266:333,1,80.7499978437424,0|0,0:2|1:2,0:0:0:0:
244,335,25039,1,10,0:2:0:0:
279,217,25274,1,2,0:2:0:0:
417,363,25510,1,2,1:2:0:0:
487,314,25745,2,0,L|499:232,1,80.7499978437424,2|8,0:2|0:2,0:0:0:0:
468,156,26216,1,2,0:2:0:0:
311,111,26451,5,2,1:2:0:0:
311,111,26569,2,0,L|323:193,1,80.7499978437424,2|0,0:2|1:2,0:0:0:0:
328,214,26922,2,0,L|319:270,1,40.3749989218712,10|2,0:2|0:2,0:0:0:0:
395,167,27158,1,2,0:2:0:0:
237,143,27393,1,2,1:2:0:0:
321,253,27629,1,2,0:2:0:0:
434,84,27864,6,0,P|408:55|369:44,2,80.7499978437424,10|0|0,0:2|0:2|1:2,0:0:0:0:
283,26,28570,1,2,0:2:0:0:
283,26,28688,1,0,1:2:0:0:
283,26,28806,2,0,L|289:70,2,40.3749989218712,8|0|0,0:2|0:2|0:2,0:0:0:0:
282,164,29277,2,0,P|243:153|216:124,1,80.7499978437424,2|0,1:2|0:2,0:0:0:0:
56,58,29748,6,0,P|84:29|123:21,1,80.7499978437424,10|2,0:2|0:2,0:0:0:0:
216,124,30218,1,2,1:2:0:0:
216,124,30336,1,2,0:2:0:0:
27,178,30572,1,0,1:2:0:0:
27,178,30689,2,0,L|38:122,1,40.3749989218712,10|2,0:2|0:2,0:0:0:0:
125,120,30925,2,0,L|113:175,1,40.3749989218712,2|2,0:2|0:2,0:0:0:0:
56,58,31160,1,2,1:2:0:0:
96,241,31396,1,2,0:2:0:0:
96,241,31513,1,0,1:2:0:0:
96,240,31631,6,0,P|135:242|168:265,1,80.7499978437424,8|0,0:2|0:2,0:0:0:0:
206,344,32102,1,2,1:2:0:0:
271,205,32337,2,0,L|216:217,1,40.3749989218712,2|0,0:2|1:2,0:0:0:0:
170,163,32573,1,10,0:2:0:0:
278,283,32808,1,2,0:2:0:0:
323,131,33044,1,2,1:2:0:0:
252,39,33279,2,0,L|238:124,1,80.7499978437424,2|8,0:2|0:2,0:0:0:0:
403,107,33750,6,0,L|396:58,2,40.3749989218712,2|8|2,0:2|0:2|1:2,0:0:0:0:
361,227,34221,1,0,0:2:0:0:
361,227,34339,1,0,1:2:0:0:
361,227,34456,2,0,L|368:276,1,40.3749989218712,10|2,0:2|0:2,0:0:0:0:
433,185,34692,1,2,0:2:0:0:
328,138,34927,2,0,P|292:156|252:155,1,80.7499978437424,2|2,1:2|0:2,0:0:0:0:
64,34,35398,6,0,P|111:32|159:93,1,121.124996765614,10|0,0:2|0:2,0:0:0:0:
160,107,35869,1,0,1:2:0:0:
39,197,36104,1,2,0:2:0:0:
39,197,36222,1,0,1:2:0:0:
39,197,36340,2,0,L|20:107,1,80.7499978437424,8|8,0:2|0:2,0:0:0:0:
64,34,36811,1,2,1:2:0:0:
264,176,37046,6,0,B|268:214|245:235|245:235|137:206,1,161.499995687485,10|10,0:2|0:2,0:0:0:0:
184,131,37753,1,2,1:2:0:0:
87,254,37988,1,2,0:2:0:0:
94,282,38106,1,0,1:2:0:0:
102,311,38223,1,8,0:2:0:0:
59,165,38459,5,2,1:2:0:0:
104,53,38694,1,2,1:2:0:0:
229,35,38930,2,0,L|243:88,1,40.3749989218712,2|0,0:2|1:2,0:0:0:0:
303,119,39165,6,0,L|267:258,1,127.5,14|0,0:2|0:2,0:0:0:0:
264,267,39636,1,0,1:2:0:0:
365,226,39872,1,0,0:2:0:0:
215,136,40107,2,0,P|178:155|136:154,1,85,10|0,0:2|0:2,0:0:0:0:
114,142,40460,1,2,0:2:0:0:
114,142,40578,2,0,P|77:122|35:123,1,85,0|2,1:2|0:2,0:0:0:0:
8,292,41049,6,0,B|21:258|21:258|117:238,1,127.5,8|8,0:2|0:2,0:0:0:0:
134,249,41520,1,2,1:2:0:0:
220,145,41755,1,0,0:2:0:0:
220,145,41873,1,0,1:2:0:0:
220,145,41990,2,0,L|201:55,1,85,10|2,0:2|0:2,0:0:0:0:
201,40,42344,1,2,0:2:0:0:
201,40,42461,1,0,1:2:0:0:
277,6,42697,1,2,0:2:0:0:
395,105,42932,6,0,P|359:84|317:82,1,85,10|0,0:2|0:2,0:0:0:0:
202,223,43403,1,2,1:2:0:0:
271,157,43639,2,0,L|288:240,1,85,2|10,0:2|0:2,0:0:0:0:
421,267,44109,1,0,0:2:0:0:
421,267,44227,1,2,0:2:0:0:
421,267,44345,2,0,L|403:183,1,85,0|2,1:2|0:2,0:0:0:0:
321,317,44816,6,0,P|258:314|218:267,1,127.5,10|0,0:2|0:2,0:0:0:0:
208,240,45287,1,2,1:2:0:0:
87,261,45522,2,0,L|97:211,2,42.5,2|0|8,0:2|1:2|0:2,0:0:0:0:
19,204,45993,1,10,0:2:0:0:
120,331,46228,1,2,1:2:0:0:
208,240,46464,2,0,L|197:190,1,42.5,2|0,0:2|1:2,0:0:0:0:
218,172,46699,6,0,B|240:88|240:88|278:64,1,127.5,10|0,0:2|0:2,0:0:0:0:
305,61,47170,1,2,1:2:0:0:
324,149,47406,1,0,0:2:0:0:
135,162,47641,2,0,L|157:80,1,85,10|0,0:2|0:2,0:0:0:0:
167,55,47994,1,2,0:2:0:0:
167,55,48112,2,0,P|127:34|87:35,1,85,0|2,1:2|2:2,2:0:0:0:
9,93,48583,6,0,L|31:175,1,85,8|0,0:2|0:2,0:0:0:0:
15,265,49054,1,2,1:2:0:0:
109,325,49289,1,2,0:2:0:0:
118,288,49407,1,0,1:2:0:0:
128,250,49525,1,10,0:2:0:0:
15,265,49760,1,2,0:2:0:0:
242,238,49996,2,0,L|215:334,1,85,0|2,1:2|0:2,0:0:0:0:
185,106,50466,6,0,P|234:68|296:75,1,127.5,10|0,0:2|0:2,0:0:0:0:
317,90,50937,1,2,1:2:0:0:
102,109,51173,2,0,P|116:59|150:30,1,85,2|8,0:2|0:2,0:0:0:0:
241,171,51644,2,0,L|233:218,1,42.5,2|0,0:2|0:2,0:0:0:0:
320,187,51879,1,0,1:2:0:0:
185,106,52114,1,10,0:2:0:0:
110,257,52350,5,10,0:2:0:0:
69,100,52585,1,0,0:2:0:0:
0,336,52821,5,2,1:2:0:0:
26,169,53056,1,0,0:2:0:0:
56,185,53174,1,0,1:2:0:0:
90,183,53292,1,10,0:2:0:0:
43,25,53527,1,2,1:2:0:0:
242,84,53763,5,10,0:2:0:0:
159,284,53998,2,0,L|151:237,1,42.5,10|0,0:2|1:2,0:0:0:0:
280,152,54233,5,10,0:2:0:0:
43,25,54704,1,10,0:2:0:0:
280,152,55175,6,0,L|370:127,1,89.2499972763062,10|0,0:2|0:2,0:0:0:0:
350,53,56117,6,0,P|402:55|439:102,1,93.5000028533936,14|2,0:2|0:2,0:0:0:0:
481,161,56470,1,2,0:2:0:0:
481,161,56588,2,0,L|467:218,1,46.7500014266968,2|0,1:2|0:2,0:0:0:0:
366,128,56823,1,2,0:2:0:0:
366,296,57059,2,0,L|391:193,1,93.5000028533936,8|8,0:2|0:2,0:0:0:0:
231,235,57530,1,2,1:2:0:0:
254,335,57765,1,0,0:2:0:0:
254,335,57883,1,0,0:2:0:0:
254,335,58001,5,10,0:2:0:0:
214,147,58236,1,2,0:2:0:0:
402,107,58471,1,2,1:2:0:0:
442,295,58707,1,2,0:2:0:0:
329,224,58942,1,10,0:2:0:0:
285,90,59178,6,0,L|300:18,1,46.7500014266968,2|0,0:2|0:2,0:0:0:0:
214,147,59413,1,0,1:2:0:0:
291,87,59649,2,0,L|306:15,1,46.7500014266968,2|0,0:2|0:2,0:0:0:0:
207,153,59884,1,10,0:2:0:0:
3,80,60120,5,2,0:2:0:0:
18,49,60237,1,2,0:2:0:0:
45,27,60355,1,2,1:2:0:0:
78,18,60473,1,2,0:2:0:0:
112,23,60590,1,2,0:2:0:0:
38,174,60826,1,8,0:2:0:0:
117,183,61061,2,0,P|113:139|82:101,1,93.5000028533936,8|2,0:2|1:2,0:0:0:0:
18,284,61532,1,0,0:2:0:0:
52,274,61650,1,0,0:2:0:0:
85,263,61768,5,10,0:2:0:0:
241,349,62003,1,2,0:2:0:0:
203,167,62238,1,2,1:2:0:0:
141,347,62474,1,2,0:2:0:0:
333,294,62709,1,10,0:2:0:0:
260,246,62945,6,0,L|215:258,1,46.7500014266968,2|0,0:2|0:2,0:0:0:0:
303,175,63180,1,2,1:2:0:0:
257,255,63416,2,0,L|212:267,1,46.7500014266968,2|0,0:2|1:2,0:0:0:0:
307,168,63651,1,10,0:2:0:0:
461,358,63887,5,2,0:2:0:0:
469,321,64004,1,2,0:2:0:0:
477,284,64122,1,2,1:2:0:0:
485,248,64240,1,2,0:2:0:0:
493,211,64357,1,2,0:2:0:0:
263,260,64593,2,0,L|287:376,1,93.5000028533936,10|0,0:2|0:2,0:0:0:0:
187,219,65064,1,2,1:2:0:0:
422,154,65299,1,2,0:2:0:0:
422,154,65417,1,0,0:2:0:0:
422,154,65535,6,0,L|411:220,1,46.7500014266968,10|2,0:2|0:2,0:0:0:0:
348,106,65770,1,2,0:2:0:0:
187,219,66006,2,0,L|172:316,1,93.5000028533936,0|0,1:2|0:2,0:0:0:0:
168,339,66359,1,0,1:2:0:0:
164,367,66476,1,10,0:2:0:0:
25,377,66712,2,0,L|34:324,1,46.7500014266968,0|2,0:2|0:2,0:0:0:0:
44,253,66947,1,0,1:2:0:0:
187,219,67183,1,2,0:2:0:0:
119,112,67418,5,10,0:2:0:0:
4,139,67654,1,2,0:2:0:0:
11,107,67771,1,2,0:2:0:0:
19,74,67889,1,2,1:2:0:0:
92,26,68125,1,2,0:2:0:0:
201,147,68360,2,0,P|156:142|118:111,1,93.5000028533936,8|8,0:2|0:2,0:0:0:0:
92,26,68831,1,2,1:2:0:0:
293,141,69066,5,14,0:2:0:0:
293,141,69537,1,14,0:2:0:0:
249,289,69773,1,2,1:2:0:0:
169,96,70008,1,14,0:2:0:0:
198,77,70126,1,0,0:2:0:0:
232,73,70244,5,10,0:2:0:0:
321,231,70479,1,6,1:2:0:0:
153,178,70714,5,2,1:2:0:0:
375,122,70950,2,0,L|367:168,1,46.7500014266968,4|0,1:2|1:2,0:0:0:0:
400,290,71185,5,14,0:2:0:0:
377,316,71303,1,2,0:2:0:0:
345,330,71421,1,2,0:2:0:0:
311,330,71538,1,2,0:2:0:0:
279,316,71656,1,2,1:2:0:0:
154,260,71892,2,0,P|106:266|67:294,1,97.7500018644333,2|8,0:2|0:2,0:0:0:0:
139,345,72362,1,8,0:2:0:0:
325,237,72598,2,0,L|304:139,1,97.7500018644333,2|0,1:2|0:2,0:0:0:0:
297,113,72951,1,0,0:2:0:0:
290,84,73069,5,10,0:2:0:0:
243,224,73304,1,2,0:2:0:0:
379,130,73540,1,2,1:2:0:0:
268,8,73775,1,2,0:2:0:0:
170,177,74011,1,10,0:2:0:0:
28,111,74246,6,0,L|75:98,1,48.8750009322167,2|0,0:2|0:2,0:0:0:0:
127,34,74481,1,2,1:2:0:0:
170,177,74717,2,0,L|122:164,1,48.8750009322167,2|0,0:2|0:2,0:0:0:0:
125,24,74952,1,10,0:2:0:0:
42,231,75188,5,2,0:2:0:0:
77,239,75306,1,2,0:2:0:0:
112,248,75423,1,2,1:2:0:0:
147,257,75541,1,2,0:2:0:0:
182,266,75659,1,2,0:2:0:0:
42,231,75894,1,8,0:2:0:0:
192,127,76130,2,0,P|228:158|242:204,1,97.7500018644333,8|2,0:2|1:2,0:0:0:0:
44,324,76600,1,0,0:2:0:0:
44,324,76718,1,0,0:2:0:0:
44,324,76836,5,10,0:2:0:0:
242,204,77071,1,2,0:2:0:0:
120,382,77307,1,2,1:2:0:0:
142,161,77542,1,2,0:2:0:0:
131,279,77778,1,10,0:2:0:0:
379,209,78013,6,0,P|359:194|335:190,1,48.8750009322167,2|0,0:2|0:2,0:0:0:0:
326,273,78249,1,2,1:2:0:0:
282,130,78484,2,0,P|301:115|325:110,1,48.8750009322167,2|0,0:2|1:2,0:0:0:0:
325,280,78719,1,10,0:2:0:0:
442,80,78955,5,2,0:2:0:0:
473,95,79073,1,2,0:2:0:0:
495,122,79190,1,2,1:2:0:0:
504,155,79308,1,2,0:2:0:0:
499,189,79426,2,0,L|481:253,1,48.8750009322167,2|2,0:2|1:2,0:0:0:0:
332,370,79661,2,0,P|285:358|252:324,1,97.7500018644333,8|0,0:2|0:2,0:0:0:0:
251,236,80132,1,2,1:2:0:0:
440,305,80368,1,2,0:2:0:0:
440,305,80485,1,0,0:2:0:0:
440,305,80603,6,0,L|424:368,2,48.8750009322167,10|2|2,0:2|0:2|0:2,0:0:0:0:
382,229,81074,1,0,1:2:0:0:
221,292,81309,1,2,0:2:0:0:
230,327,81427,1,2,1:2:0:0:
239,362,81545,1,10,0:2:0:0:
382,229,81780,2,0,L|392:181,1,48.8750009322167,2|2,0:2|0:2,0:0:0:0:
409,97,82016,1,0,1:2:0:0:
336,41,82251,1,2,0:2:0:0:
152,177,82486,5,10,0:2:0:0:
239,164,82722,1,2,0:2:0:0:
227,131,82840,1,2,0:2:0:0:
202,106,82957,1,2,1:2:0:0:
170,94,83075,1,2,0:2:0:0:
136,95,83193,1,2,0:2:0:0:
12,196,83428,2,0,L|33:296,1,97.7500018644333,10|0,0:2|0:2,0:0:0:0:
204,331,83899,1,0,1:2:0:0:
117,139,84135,6,0,B|96:173|96:173|118:276,1,140.25000428009,14|0,0:2|0:2,0:0:0:0:
124,298,84605,1,10,0:2:0:0:
284,373,84841,1,2,1:2:0:0:
284,373,84959,1,10,0:2:0:0:
284,373,85076,2,0,L|298:308,1,46.7500014266968,2|2,0:2|0:2,0:0:0:0:
375,291,85312,2,0,L|357:178,1,93.5000028533936,10|0,0:2|0:2,0:0:0:0:
356,170,85665,1,2,0:2:0:0:
351,142,85783,1,0,1:2:0:0:
431,32,86018,2,0,P|454:37|475:48,1,46.7500014266968,2|0,1:2|1:2,0:0:0:0:
427,114,86254,5,10,0:2:0:0:
74,273,87195,1,10,0:2:0:0:
256,192,87902,5,14,0:2:0:0:
256,192,88137,12,0,89785,0:2:0:0:
