osu file format v14

[General]
AudioFilename: audio.mp3
AudioLeadIn: 0
PreviewTime: 54788
Countdown: 0
SampleSet: Soft
StackLeniency: 0.7
Mode: 0
LetterboxInBreaks: 0
WidescreenStoryboard: 1

[Editor]
Bookmarks: 79483
DistanceSpacing: 1.9
BeatDivisor: 4
GridSize: 32
TimelineZoom: 2.050003

[Metadata]
Title:TORCH (TV Size)
TitleUnicode:TORCH (TV Size)
Artist:Lia
ArtistUnicode:Lia
Creator:pewdekz
Version:Easy
Source:CLANNAD ~AFTER STORY~
Tags:milo milkshake big snag Kyoto Animation KyoAni 京都アニメーション japanese pop anime ed ending jpop j-pop vn visual novel art key クラナド アフターストーリー
BeatmapID:3930603
BeatmapSetID:1905940

[Difficulty]
HPDrainRate:1.5
CircleSize:3.2
OverallDifficulty:3
ApproachRate:3.1
SliderMultiplier:1
SliderTickRate:1

[Events]
//Background and Video events
Video,499,"video.mp4"
0,0,"clannd hah.jpg",0,0
//Break Periods
//Storyboard Layer 0 (Background)
//Storyboard Layer 1 (Fail)
//Storyboard Layer 2 (Pass)
//Storyboard Layer 3 (Foreground)
//Storyboard Layer 4 (Overlay)
//Storyboard Sound Samples

[TimingPoints]
1025,470.883691728143,4,2,1,15,1,0
1025,-100,4,2,1,15,0,0
1378,-100,4,2,1,5,0,0
1495,470.883691728143,4,2,1,50,1,0
1495,-100,4,2,1,50,0,0
9029,-103.092783505155,4,2,1,45,0,0
24097,-100,4,2,1,47,0,0
39165,-100,4,2,1,47,0,0
55999,-100,4,2,1,5,0,0
56117,-97.0873786407767,4,2,1,53,0,1
69066,-97.0873786407767,4,2,1,53,0,0
71185,-97.0873786407767,4,2,1,53,0,1
84135,-97.0873786407767,4,2,1,53,0,0
88137,-97.0873786407767,4,2,1,45,0,0
88608,-97.0873786407767,4,2,1,35,0,0
89079,-97.0873786407767,4,2,1,25,0,0
89550,-97.0873786407767,4,2,1,15,0,0
89667,-97.0873786407767,4,2,1,5,0,0

[Colours]
Combo1 : 255,174,255
Combo2 : 255,182,108
Combo3 : 130,222,253
Combo4 : 155,255,55

[HitObjects]
48,316,1495,6,0,P|95:330|141:313,1,100,14|2,0:2|1:2,0:0:0:0:
175,219,2436,1,10,0:2:0:0:
156,120,2907,1,0,1:2:0:0:
205,32,3378,2,0,P|252:17|298:34,1,100,10|2,0:2|1:2,0:0:0:0:
333,70,4084,1,2,0:2:0:0:
398,145,4555,2,0,L|382:245,1,100,2|2,0:2|0:2,0:0:0:0:
363,290,5262,6,0,B|327:310|267:277|267:277|214:250|165:282,1,200,10|10,0:2|0:2,0:0:0:0:
129,303,6439,2,0,L|136:357,2,50,2|2|14,1:2|1:2|0:2,0:0:0:0:
42,172,8322,1,14,0:2:0:0:
151,51,9029,6,0,P|195:67|241:54,1,97.000002294159,12|10,0:2|0:2,0:0:0:0:
327,9,9970,2,0,P|372:21|416:71,1,97.000002294159,10|10,0:2|0:2,0:0:0:0:
401,151,10912,2,0,B|349:148|349:148|267:183|267:183|205:179,1,194.000004588318,8|10,0:2|0:2,0:0:0:0:
133,125,12325,1,10,0:2:0:0:
49,175,12796,6,0,P|31:234|68:316,1,145.500003441239,10|2,0:2|0:2,0:0:0:0:
186,382,14208,1,10,0:2:0:0:
253,312,14679,2,0,L|216:102,1,194.000004588318,10|10,0:2|0:2,0:0:0:0:
257,31,16092,1,10,0:2:0:0:
353,26,16563,6,0,P|400:26|455:62,1,97.000002294159,8|10,0:2|0:2,0:0:0:0:
486,136,17505,1,10,0:2:0:0:
454,227,17975,1,10,0:2:0:0:
472,321,18446,2,0,P|393:371|301:350,1,194.000004588318,8|8,0:2|0:2,0:0:0:0:
246,270,19859,1,10,0:2:0:0:
195,187,20330,6,0,B|89:208|89:208|74:248,1,145.500003441239,10|2,0:2|0:2,0:0:0:0:
0,337,21742,2,0,P|20:363|91:370,1,97.000002294159,10|8,0:2|0:2,0:0:0:0:
158,315,22684,2,0,B|204:312|204:312|220:293|220:293|262:292|262:292|284:267|284:267|336:265,1,194.000004588318,10|2,0:2|1:2,0:0:0:0:
383,179,24097,5,14,0:2:0:0:
334,91,24568,2,0,P|273:77|223:93,1,100,2|10,1:2|0:2,0:0:0:0:
194,111,25274,1,2,0:2:0:0:
154,141,25510,2,0,P|93:155|43:139,1,100,2|8,1:2|0:2,0:0:0:0:
4,231,26451,1,2,1:2:0:0:
35,325,26922,1,10,0:2:0:0:
129,358,27393,2,0,L|194:340,1,50,2|2,1:2|0:2,0:0:0:0:
216,314,27864,6,0,P|277:344|363:344,1,150,10|2,0:2|0:2,0:0:0:0:
421,209,29277,1,2,1:2:0:0:
389,113,29748,2,0,B|348:118|304:66|304:66|264:22|207:34,1,200,10|10,0:2|0:2,0:0:0:0:
137,95,31160,1,2,1:2:0:0:
156,192,31631,6,0,L|263:218,1,100,8|2,0:2|1:2,0:0:0:0:
301,200,32337,1,2,0:2:0:0:
349,188,32573,2,0,P|392:215|407:269,1,100,10|2,0:2|1:2,0:0:0:0:
382,356,33515,2,0,L|278:372,1,100,8|2,0:2|1:2,0:0:0:0:
198,317,34456,1,10,0:2:0:0:
156,226,34927,2,0,L|166:178,1,50,2|2,1:2|0:2,0:0:0:0:
181,129,35398,6,0,P|246:129|324:76,2,150,10|2|2,0:2|0:2|1:2,0:0:0:0:
137,103,37046,2,0,P|84:102|35:124,1,100,10|10,0:2|0:2,0:0:0:0:
6,155,37753,1,2,1:2:0:0:
57,240,38223,1,8,0:2:0:0:
9,327,38694,1,2,1:2:0:0:
99,369,39165,6,0,P|155:369|199:345,1,100,14|0,0:2|1:2,0:0:0:0:
229,256,40107,2,0,L|213:170,2,75,10|2|2,0:2|0:2|0:2,0:0:0:0:
274,277,41049,2,0,P|320:254|378:256,1,100,8|2,0:2|1:2,0:0:0:0:
466,271,41990,1,10,0:2:0:0:
505,179,42461,1,0,1:2:0:0:
471,84,42932,6,0,P|428:80|368:112,1,100,10|2,0:2|1:2,0:0:0:0:
333,127,43639,2,0,P|275:157|189:137,1,150,2|0,0:2|1:2,0:0:0:0:
117,77,44816,2,0,P|78:97|48:160,1,100,10|2,0:2|1:2,0:0:0:0:
36,192,45522,2,0,B|57:269|57:269|133:249,1,150,2|2,0:2|1:2,0:0:0:0:
222,271,46699,5,10,0:2:0:0:
298,206,47170,1,2,1:2:0:0:
395,229,47641,2,0,L|407:307,2,75,10|2|2,0:2|0:2|2:2,0:0:0:0:
419,185,48583,2,0,L|443:79,1,100,8|2,0:2|1:2,0:0:0:0:
413,44,49289,1,2,0:2:0:0:
315,23,49760,2,0,B|267:42|267:42|214:33,1,100,2|2,0:2|0:2,0:0:0:0:
171,19,50466,6,0,P|127:20|83:64,1,100,10|2,0:2|1:2,0:0:0:0:
63,100,51173,1,2,0:2:0:0:
69,199,51644,2,0,L|181:222,1,100,2|10,0:2|0:2,0:0:0:0:
199,257,52350,6,0,L|318:228,1,100,10|2,0:2|1:2,0:0:0:0:
396,228,53292,2,0,P|390:279|341:326,1,100,10|10,0:2|0:2,0:0:0:0:
276,371,54233,1,10,0:2:0:0:
188,323,54704,1,10,0:2:0:0:
97,365,55175,1,10,0:2:0:0:
9,238,56117,6,0,L|39:124,1,102.99999913559,14|2,0:2|1:2,0:0:0:0:
50,88,56823,2,0,P|100:83|142:110,1,102.99999913559,2|8,0:2|0:2,0:0:0:0:
167,156,57530,1,2,1:2:0:0:
220,237,58001,2,0,B|243:232|271:247|271:247|298:261|327:254,1,102.99999913559,10|2,0:2|1:2,0:0:0:0:
421,244,58942,1,10,0:2:0:0:
452,146,59413,1,0,1:2:0:0:
392,68,59884,6,0,P|347:81|307:129,1,102.99999913559,10|2,0:2|1:2,0:0:0:0:
278,162,60590,2,0,L|296:277,1,102.99999913559,2|8,0:2|0:2,0:0:0:0:
304,314,61297,1,2,1:2:0:0:
210,360,61768,2,0,B|144:343|144:343|120:300,1,102.99999913559,10|2,0:2|1:2,0:0:0:0:
107,209,62709,1,10,0:2:0:0:
172,129,63180,1,2,1:2:0:0:
132,35,63651,6,0,P|70:35|30:69,1,102.99999913559,10|2,0:2|1:2,0:0:0:0:
10,101,64357,1,2,0:2:0:0:
0,150,64593,2,0,L|22:256,1,102.99999913559,10|2,0:2|1:2,0:0:0:0:
28,301,65299,2,0,P|69:349|164:342,1,154.499998703384,2|0,0:2|1:2,0:0:0:0:
234,281,66476,2,0,L|246:187,2,77.2499993516922,10|2|2,0:2|0:2|0:2,0:0:0:0:
274,312,67418,6,0,B|300:310|300:310|343:328|343:328|376:326,1,102.99999913559,10|2,0:2|1:2,0:0:0:0:
424,329,68125,2,0,P|451:288|447:225,1,102.99999913559,2|8,0:2|0:2,0:0:0:0:
431,187,68831,2,0,P|420:161|417:126,1,51.4999995677948,2|14,1:2|0:2,0:0:0:0:
428,35,69537,5,14,0:2:0:0:
327,15,70008,2,0,P|282:41|218:39,1,102.99999913559,14|6,0:2|1:2,0:0:0:0:
182,26,70714,1,2,1:2:0:0:
85,62,71185,6,0,L|100:162,1,102.99999913559,14|2,0:2|1:2,0:0:0:0:
139,197,71892,2,0,L|123:297,1,102.99999913559,2|8,0:2|0:2,0:0:0:0:
117,351,72598,1,2,1:2:0:0:
215,379,73069,2,0,B|241:376|241:376|281:350|281:350|313:348,1,102.99999913559,10|2,0:2|1:2,0:0:0:0:
409,321,74011,1,10,0:2:0:0:
447,224,74481,1,2,1:2:0:0:
381,144,74952,6,0,P|330:143|286:168,1,102.99999913559,10|2,0:2|1:2,0:0:0:0:
257,211,75659,2,0,P|206:211|162:186,1,102.99999913559,2|8,0:2|0:2,0:0:0:0:
125,148,76365,1,2,1:2:0:0:
136,45,76836,2,0,P|185:26|241:33,1,102.99999913559,10|2,0:2|1:2,0:0:0:0:
337,21,77778,1,10,0:2:0:0:
417,84,78249,1,2,1:2:0:0:
399,185,78719,6,0,B|352:205|352:205|302:192,1,102.99999913559,10|2,0:2|1:2,0:0:0:0:
256,166,79426,1,2,0:2:0:0:
208,185,79661,2,0,L|219:292,1,102.99999913559,8|2,0:2|1:2,0:0:0:0:
200,337,80368,2,0,B|173:321|127:346|127:346|88:366|51:342,1,154.499998703384,2|0,0:2|1:2,0:0:0:0:
48,241,81545,2,0,P|85:229|116:203,2,77.2499993516922,10|2|2,0:2|0:2|0:2,0:0:0:0:
5,212,82486,6,0,L|22:102,1,102.99999913559,10|2,0:2|1:2,0:0:0:0:
90,34,83428,2,0,P|126:72|196:83,1,102.99999913559,10|0,0:2|1:2,0:0:0:0:
219,62,84135,2,0,B|254:57|287:84|287:84|312:46|369:48,1,154.499998703384,14|2,0:2|1:2,0:0:0:0:
423,126,85312,2,0,L|410:225,2,77.2499993516922,10|2|2,0:2|0:2|1:2,0:0:0:0:
468,101,86254,5,10,0:2:0:0:
256,192,87195,1,10,0:2:0:0:
135,99,87902,5,14,0:2:0:0:
256,192,88137,12,0,89785,0:2:0:0:
