osu file format v14

[General]
AudioFilename: Saya's Song Remix.mp3
AudioLeadIn: 0
PreviewTime: 188076
Countdown: 0
SampleSet: Soft
StackLeniency: 0.6
Mode: 0
LetterboxInBreaks: 0
WidescreenStoryboard: 0

[Editor]
Bookmarks: 43293,83728,126771,147641,188076,231119,251989,275467,280684,300249,343293,364163,383728
DistanceSpacing: 0.8
BeatDivisor: 4
GridSize: 8
TimelineZoom: 2.899998

[Metadata]
Title:Saya's Song Remix
TitleUnicode:Saya's Song Remix
Artist:Lia
ArtistUnicode:Lia
Creator:Heatherfield
Version:Insane
Source:リトルバスターズ!エクスタシー
Tags:little busters! busters ecstasy maeda jun va compilation cd vol.1 panorama key vn visual novel eroge tokido saya 朱鷺戸沙耶 japanese game 麻枝 准 Tsukasa リトルバスターズ!EX EX anime OVA original video animation VISUAL ARTS Co. Key electronic theme insert song dnb drum and bass
BeatmapID:359099
BeatmapSetID:144609

[Difficulty]
HPDrainRate:6
CircleSize:4
OverallDifficulty:8
ApproachRate:9
SliderMultiplier:1.8
SliderTickRate:1

[Events]
//Background and Video events
0,0,"go go aiaiclala.jpg",0,0
//Break Periods
2,126971,146389
2,231319,248780
2,280884,286606
//Storyboard Layer 0 (Background)
//Storyboard Layer 1 (Fail)
//Storyboard Layer 2 (Pass)
//Storyboard Layer 3 (Foreground)
//Storyboard Layer 4 (Overlay)
//Storyboard Sound Samples

[TimingPoints]
250,326.086956521739,4,2,1,30,1,0
250,-200,4,2,1,30,0,0
22423,-200,4,2,1,40,0,0
43293,-125,4,2,1,40,0,0
58130,-125,4,2,1,40,0,0
79815,-125,4,2,1,50,0,0
82464,-125,4,2,1,40,0,0
83728,-100,4,2,1,50,0,1
85032,-100,4,1,1,60,0,1
124163,-100,4,2,1,60,0,1
124203,-100,4,2,1,35,0,1
124489,-100,4,2,1,60,0,1
124529,-100,4,2,1,35,0,1
124815,-100,4,2,1,60,0,1
124855,-100,4,2,1,35,0,1
125141,-100,4,2,1,60,0,1
125182,-100,4,2,1,35,0,1
125467,-100,4,2,1,60,0,1
125508,-100,4,2,1,50,0,1
125793,-100,4,2,1,60,0,1
125834,-100,4,2,1,50,0,1
126119,-100,4,2,1,60,0,1
126771,-125,4,2,1,50,0,0
146989,-125,4,2,1,40,0,0
167858,-125,4,2,1,40,0,0
168510,-125,4,2,1,50,0,0
186771,-200,4,2,1,50,0,0
188076,-100,4,2,1,50,0,1
189380,-100,4,1,1,60,0,1
231119,-125,4,2,1,50,0,0
249380,-125,4,2,1,40,0,0
280684,-200,4,2,1,10,0,0
291119,-200,4,2,1,45,0,0
298945,-100,4,2,1,50,0,0
300902,-100,4,2,1,40,0,0
301554,-125,4,2,1,55,0,1
301595,-200,4,2,1,50,0,0
322423,-100,4,1,1,60,0,1
332858,-200,4,2,1,50,0,1
338076,-100,4,2,1,60,0,1
338116,-100,4,2,1,35,0,1
338728,-100,4,2,1,60,0,1
338769,-100,4,2,1,35,0,1
339380,-100,4,2,1,60,0,1
339421,-100,4,2,1,35,0,1
339543,-100,4,2,1,60,0,1
339584,-100,4,2,1,40,0,1
340032,-100,4,2,1,60,0,1
340073,-100,4,2,1,40,0,1
340521,-100,4,2,1,60,0,1
340562,-100,4,2,1,40,0,1
340684,-100,4,2,1,60,0,1
340725,-100,4,2,1,45,0,1
341010,-100,4,2,1,60,0,1
341051,-100,4,2,1,45,0,1
341336,-100,4,2,1,60,0,1
341377,-100,4,2,1,45,0,1
341663,-100,4,2,1,60,0,1
341703,-100,4,2,1,45,0,1
341989,-100,4,2,1,60,0,1
343293,-125,4,1,1,50,0,0
364163,-125,4,2,1,40,0,0

[Colours]
Combo1 : 253,225,251
Combo2 : 239,239,239
Combo3 : 226,236,115
Combo4 : 253,245,174

[HitObjects]
256,312,250,6,0,B|280:280|280:280|224:216|256:136,1,180,2|2,0:0|0:0,0:0:0:0:
256,40,1554,1,2,0:0:0:0:
392,296,3184,6,0,P|436:291|496:272,2,90,2|2|2,0:0|0:0|0:0,0:0:0:0:
152,201,4489,1,2,0:0:0:0:
205,362,5141,1,2,0:0:0:0:
322,350,5467,6,0,B|333:307|333:307|409:295|479:256,1,180,2|2,0:0|0:0,0:0:0:0:
465,49,6445,1,2,0:0:0:0:
383,154,6771,1,2,0:0:0:0:
264,96,7097,6,0,L|218:81,3,45
136,248,7913,1,0,0:0:0:0:
136,248,8076,2,0,L|80:232,1,45
136,248,8402,2,0,L|192:240,1,45
336,344,8891,2,0,L|344:296,2,45
296,104,9543,5,0,0:0:0:0:
296,104,9706,2,0,L|248:88,3,45
408,288,10521,1,0,0:0:0:0:
408,288,10684,2,0,L|392:232,3,45
464,200,11336,2,0,L|448:144,1,45
504,80,11826,1,0,0:0:0:0:
256,280,12152,5,0,0:0:0:0:
256,280,12315,2,0,L|320:296,3,45
144,128,13130,1,0,0:0:0:0:
144,128,13293,2,0,L|200:104,1,45
144,128,13619,2,0,L|80:120,1,45
56,320,14108,2,0,L|48:272,2,45
304,320,14760,5,0,0:0:0:0:
304,320,14923,2,0,L|352:352,3,45
384,160,15739,1,0,0:0:0:0:
384,160,15902,2,0,L|440:136,1,45
384,160,16228,2,0,L|328:152,1,45
168,112,16717,2,0,L|192:64,2,45
88,296,17369,5,0,0:0:0:0:
88,296,17532,2,0,L|144:320,3,45
48,128,18347,1,0,0:0:0:0:
48,128,18510,2,0,L|32:80,3,45
296,48,19326,2,0,L|264:104,2,45
352,280,19978,1,0,0:0:0:0:
352,280,20141,2,0,L|416:296,1,45
352,280,20467,2,0,L|328:232,1,45
256,192,20650,12,4,22423,3:2:0:0:
115,86,23565,5,0,3:0:0:0:
20,172,23728,2,0,P|41:248|141:271,1,180,0|0,3:0|0:0,0:0:0:0:
172,338,24543,1,0,3:0:0:0:
172,338,24869,1,0,3:0:0:0:
116,225,25032,2,0,L|320:294,1,180,0|0,3:0|0:0,0:0:0:0:
177,109,26173,5,0,3:0:0:0:
270,56,26336,2,0,P|360:98|366:177,1,180,0|0,3:0|0:0,0:0:0:0:
410,234,27152,1,0,3:0:0:0:
410,234,27478,1,0,3:0:0:0:
468,337,27641,2,0,L|283:266,1,180,0|0,3:0|0:0,0:0:0:0:
477,136,28782,5,0,3:0:0:0:
456,52,28945,2,0,P|398:107|428:199,1,180,0|0,3:0|0:0,0:0:0:0:
313,101,29760,1,0,3:0:0:0:
313,101,30086,1,0,3:0:0:0:
282,17,30249,2,0,P|224:72|254:164,1,180,0|0,3:0|0:0,0:0:0:0:
96,368,31391,5,0,3:0:0:0:
174,340,31554,2,0,B|183:277|75:258|95:172,1,180,0|0,3:0|0:0,0:0:0:0:
182,186,32369,1,0,3:0:0:0:
182,186,32695,1,0,3:0:0:0:
248,79,32858,2,0,L|274:257,1,180,4|0,3:2|0:0,0:0:0:0:
64,54,33836,5,0,0:0:0:0:
40,126,33999,1,0,3:0:0:0:
88,185,34163,2,0,P|131:199|184:185,1,90,0|0,3:0|0:0,0:0:0:0:
400,168,34815,1,0,0:0:0:0:
416,81,34978,1,0,3:0:0:0:
503,98,35141,1,0,0:0:0:0:
486,184,35304,1,0,3:0:0:0:
389,180,35467,6,0,P|340:167|302:133,1,90,0|0,3:0|0:0,0:0:0:0:
261,83,35956,1,0,0:0:0:0:
307,22,36119,2,0,P|321:13|358:4,2,45
238,56,36608,1,0,3:0:0:0:
89,58,36771,6,0,P|80:99|91:156,1,90,0|0,3:0|0:0,0:0:0:0:
66,325,37423,1,0,0:0:0:0:
66,325,37586,1,0,3:0:0:0:
274,187,37913,1,0,3:0:0:0:
274,187,38076,6,0,P|292:227|333:255,1,90,0|0,3:0|0:0,0:0:0:0:
401,277,38565,1,0,0:0:0:0:
466,237,38728,2,0,P|480:212|483:182,2,45
424,300,39217,1,0,3:0:0:0:
365,349,39380,2,0,L|309:329,1,45,0|0,3:0|0:0,0:0:0:0:
248,351,39706,2,0,L|201:357,1,45
93,106,40195,5,0,3:0:0:0:
163,136,40358,2,0,P|188:137|214:129,1,45,0|0,0:0|3:0,0:0:0:0:
253,71,40684,1,0,3:0:0:0:
256,192,40705,12,0,43130,3:0:0:0:
74,69,43293,6,0,P|70:149|88:230,1,144,4|0,3:2|0:0,0:0:0:0:
224,328,43782,1,0,0:0:0:0:
224,328,43945,2,0,P|231:256|221:185,1,144
512,229,44597,6,0,P|490:294|419:306,1,144,0|0,0:0|3:0,0:0:0:0:
368,104,45086,1,0,0:0:0:0:
368,104,45249,2,0,L|360:200,1,72,0|0,1:0|0:0,0:0:0:0:
319,329,45576,1,0,0:0:0:0:
249,291,45739,1,0,0:0:0:0:
313,251,45902,1,0,3:0:0:0:
197,358,46065,1,0,0:0:0:0:
167,201,46228,1,0,0:0:0:0:
74,70,46554,6,0,P|55:146|52:213,1,144
83,292,47043,1,0,0:0:0:0:
198,152,47206,1,0,3:0:0:0:
198,152,47369,2,0,P|113:158|71:195,1,144,0|0,3:0|0:0,0:0:0:0:
150,277,47858,5,0,1:0:0:0:
214,358,48021,1,0,1:0:0:0:
231,223,48184,1,0,0:0:0:0:
408,280,48347,1,0,0:0:0:0:
231,338,48510,1,0,3:0:0:0:
341,187,48673,1,0,0:0:0:0:
341,374,48836,2,0,P|425:363|492:362,2,144
214,196,49815,6,0,P|207:139|217:85,1,108
116,18,50141,2,0,P|126:53|130:90,1,72,0|0,3:0|0:0,0:0:0:0:
61,219,50467,5,0,1:0:0:0:
0,159,50630,1,0,0:0:0:0:
59,325,50793,1,0,0:0:0:0:
93,227,50956,1,0,0:0:0:0:
242,65,51119,1,0,3:0:0:0:
87,110,51282,1,0,0:0:0:0:
125,235,51445,1,0,0:0:0:0:
438,70,51771,6,0,P|457:146|460:213,1,144
429,300,52260,1,0,0:0:0:0:
314,152,52423,1,0,3:0:0:0:
314,152,52586,2,0,P|399:158|441:195,1,144,0|0,3:0|0:0,0:0:0:0:
463,293,53076,1,0,1:0:0:0:
262,349,53239,2,0,P|252:304|252:257,1,72,0|0,1:0|0:0,0:0:0:0:
489,305,53565,1,0,1:0:0:0:
293,364,53728,6,0,P|276:298|282:192,1,144,4|0,3:2|0:0,0:0:0:0:
328,128,54217,1,0,0:0:0:0:
432,88,54380,1,0,0:0:0:0:
448,96,54543,6,0,L|304:88,1,144,0|0,3:0|0:0,0:0:0:0:
208,232,55032,2,0,L|352:224,1,144,0|0,3:0|0:0,0:0:0:0:
128,360,55684,6,0,P|101:330|92:293,1,72,0|0,1:0|0:0,0:0:0:0:
79,207,56010,1,0,0:0:0:0:
129,128,56173,1,0,0:0:0:0:
272,256,56336,5,0,3:0:0:0:
190,209,56499,1,0,0:0:0:0:
188,303,56663,1,0,0:0:0:0:
344,96,56989,5,0,0:0:0:0:
320,80,57152,2,0,P|320:168|336:224,1,144,0|0,3:0|0:0,0:0:0:0:
269,357,57641,2,0,P|262:321|246:289,1,72,0|0,3:0|1:0,0:0:0:0:
246,289,58130,5,0,0:0:0:0:
164,246,58293,2,0,P|162:210|172:175,1,72,0|0,1:2|1:0,0:0:0:0:
227,100,58619,1,0,0:0:0:0:
227,100,58782,1,0,0:0:0:0:
304,153,58945,1,0,3:0:0:0:
397,155,59108,1,0,0:0:0:0:
424,244,59271,1,0,0:0:0:0:
491,308,59434,1,0,0:0:0:0:
485,344,59760,6,0,P|454:263|483:190,1,144,0|0,3:0|0:0,0:0:0:0:
424,127,60249,1,0,3:0:0:0:
471,45,60413,1,0,0:0:0:0:
377,46,60576,2,0,P|332:49|285:76,1,72
351,303,60902,5,0,1:0:0:0:
271,353,61065,1,0,0:0:0:0:
271,260,61228,2,0,P|259:223|271:180,1,72
47,62,61554,5,0,3:0:0:0:
134,28,61717,1,0,0:0:0:0:
198,95,61880,2,0,P|203:133|197:165,1,72
83,347,62206,5,0,1:0:0:0:
46,260,62369,1,0,0:0:0:0:
76,171,62532,2,0,P|95:128|140:120,1,72
197,334,62858,5,0,3:0:0:0:
269,273,63021,1,0,0:0:0:0:
360,292,63184,2,0,P|403:289|428:257,1,72
407,76,63510,5,0,1:0:0:0:
340,283,63673,1,0,1:0:0:0:
291,163,63836,1,0,0:0:0:0:
426,348,63999,1,0,1:0:0:0:
455,184,64163,6,0,P|502:142|506:66,2,108,4|0|0,3:2|0:0|0:0,0:0:0:0:
436,326,64815,1,0,1:0:0:0:
436,326,64978,2,0,P|362:342|272:319,1,144,0|0,3:0|0:0,0:0:0:0:
179,366,65467,2,0,L|140:213,1,144,0|0,3:0|0:0,0:0:0:0:
73,164,65956,1,0,0:0:0:0:
73,164,66038,1,0,0:0:0:0:
73,164,66119,1,0,1:0:0:0:
142,101,66282,1,0,1:0:0:0:
233,120,66445,1,0,0:0:0:0:
304,60,66608,1,0,0:0:0:0:
391,91,66771,6,0,P|447:94|517:126,2,108,0|0|0,3:0|0:0|0:0,0:0:0:0:
335,227,67423,1,0,1:0:0:0:
335,227,67586,2,0,P|263:245|165:218,1,144,0|0,3:0|0:0,0:0:0:0:
361,309,68076,2,0,P|441:284|511:289,1,144,0|0,3:0|0:0,0:0:0:0:
512,194,68565,1,0,0:0:0:0:
512,194,68646,1,0,0:0:0:0:
512,194,68728,1,0,1:0:0:0:
437,137,68891,1,0,1:0:0:0:
343,139,69054,1,0,0:0:0:0:
274,74,69217,1,0,0:0:0:0:
180,79,69380,6,0,P|120:65|60:79,2,108,0|0|0,3:0|0:0|0:0,0:0:0:0:
206,277,70032,1,0,1:0:0:0:
206,277,70195,2,0,B|253:274|263:206|263:206|310:183,1,144,0|0,3:0|0:0,0:0:0:0:
383,17,70684,2,0,B|335:19|325:87|325:87|278:110,1,144,0|0,3:0|0:0,0:0:0:0:
146,83,71173,1,0,0:0:0:0:
136,93,71255,1,0,0:0:0:0:
129,105,71336,1,0,1:0:0:0:
291,149,71499,5,0,1:0:0:0:
125,118,71663,1,0,0:0:0:0:
282,164,71826,1,0,0:0:0:0:
59,222,71989,6,0,P|55:275|89:328,2,108,0|0|0,3:0|0:0|0:0,0:0:0:0:
161,249,72641,1,0,1:0:0:0:
161,249,72804,2,0,P|241:283|323:274,1,144,0|0,3:0|0:0,0:0:0:0:
430,295,73293,2,0,P|410:204|423:165,1,108,0|0,3:0|0:0,0:0:0:0:
367,59,73619,2,0,P|361:103|344:147,1,72
292,223,73945,1,0,1:0:0:0:
194,196,74108,1,0,1:0:0:0:
194,196,74190,1,0,0:0:0:0:
194,196,74271,1,0,0:0:0:0:
112,254,74434,1,0,0:0:0:0:
0,302,74597,6,0,P|-16:237|-9:167,1,108,4|0,3:2|0:0,0:0:0:0:
71,86,74923,2,0,P|83:139|74:183,1,72
188,292,75249,1,0,1:0:0:0:
188,292,75413,1,0,3:0:0:0:
275,118,75576,6,0,P|265:48|231:-2,2,108
338,310,76228,2,0,P|349:266|385:232,1,72
441,373,76554,2,0,P|476:346|491:291,1,72,0|0,1:0|0:0,0:0:0:0:
472,192,76880,1,0,0:0:0:0:
472,192,77043,1,0,0:0:0:0:
456,96,77206,6,0,P|368:80|288:80,1,144,0|0,3:0|0:0,0:0:0:0:
368,192,77695,1,0,0:0:0:0:
456,288,77858,2,0,P|368:304|288:304,1,144,0|0,1:0|0:0,0:0:0:0:
256,192,78347,1,0,0:0:0:0:
240,56,78510,2,0,P|152:40|72:40,1,144,0|0,3:0|0:0,0:0:0:0:
120,192,78999,1,0,0:0:0:0:
240,328,79163,2,0,P|152:344|72:344,1,144,0|0,1:0|0:0,0:0:0:0:
8,192,79652,1,0,0:0:0:0:
8,192,79815,6,0,P|81:183|168:192,1,144,0|0,1:0|1:0,0:0:0:0:
504,192,80467,2,0,P|430:183|344:192,1,144,0|0,1:0|1:0,0:0:0:0:
256,360,81119,2,0,B|242:307|275:255|257:217,1,144,0|0,1:0|1:0,0:0:0:0:
80,216,81771,5,0,1:0:0:0:
176,120,81934,1,0,1:0:0:0:
257,217,82097,1,0,1:0:0:0:
336,120,82260,1,0,1:0:0:0:
432,216,82423,6,0,L|454:230,31,18,0|0|0|0|0|0|0|0|0|0|0|0|0|0|0|0|0|0|0|0|0|0|0|0|0|0|0|0|0|0|0|0,3:0|0:0|0:0|0:0|0:0|0:0|0:0|0:0|0:0|0:0|0:0|0:0|0:0|0:0|0:0|0:0|0:0|0:0|0:0|0:0|0:0|0:0|0:0|0:0|0:0|0:0|0:0|0:0|0:0|0:0|0:0|0:0,0:0:0:0:
394,172,83728,5,0,1:0:0:0:
357,238,83891,1,0,0:0:0:0:
300,295,84054,1,0,1:0:0:0:
215,328,84217,1,0,0:0:0:0:
109,303,84380,5,0,1:0:0:0:
40,219,84543,1,0,1:0:0:0:
62,101,84706,1,0,1:0:0:0:
32,336,85032,6,0,P|136:304|176:232,1,180,4|2,0:2|0:2,0:0:0:0:
113,144,85521,2,0,P|169:128|241:144,1,90
296,150,85847,1,0,0:0:0:0:
379,97,86010,1,2,0:2:0:0:
450,347,86336,6,0,L|438:249,1,90
354,338,86663,2,0,L|342:240,1,90,2|0,0:2|0:0,0:0:0:0:
450,37,86989,2,0,L|438:135,1,90
354,46,87315,2,0,L|342:144,1,90,2|0,0:2|0:0,0:0:0:0:
248,192,87641,5,0,0:0:0:0:
158,149,87804,1,0,0:0:0:0:
158,149,87885,1,0,0:0:0:0:
158,149,87967,1,2,0:2:0:0:
86,217,88130,1,0,0:0:0:0:
33,133,88293,1,0,0:0:0:0:
104,201,88456,1,0,0:0:0:0:
121,298,88619,1,2,0:2:0:0:
425,321,88945,6,0,P|334:330|233:293,1,180,0|2,0:0|0:2,0:0:0:0:
155,330,89434,1,0,0:0:0:0:
155,330,89516,1,8,0:0:0:0:
155,330,89597,1,0,0:0:0:0:
131,153,89760,1,0,0:0:0:0:
242,255,89923,1,8,0:0:0:0:
436,51,90249,6,0,P|386:82|336:80,1,90
202,183,90576,2,0,P|252:152|302:154,1,90,2|0,0:2|0:0,0:0:0:0:
457,242,90902,1,0,0:0:0:0:
436,339,91065,1,0,0:0:0:0:
363,273,91228,1,2,0:2:0:0:
47,128,91554,6,0,L|164:97,1,90
93,196,91880,2,0,L|210:165,1,90,2|0,0:2|0:0,0:0:0:0:
465,128,92206,2,0,L|348:97,1,90
419,196,92532,2,0,L|302:165,1,90,2|0,0:2|0:0,0:0:0:0:
216,232,92858,5,0,0:0:0:0:
156,311,93021,1,0,0:0:0:0:
156,311,93103,1,0,0:0:0:0:
156,311,93184,1,2,0:2:0:0:
67,266,93347,1,0,0:0:0:0:
125,186,93510,1,0,0:0:0:0:
155,91,93673,1,0,0:0:0:0:
59,117,93836,1,2,0:2:0:0:
436,94,94163,6,0,P|358:107|272:43,1,180,0|2,0:0|0:2,0:0:0:0:
184,80,94652,1,0,0:0:0:0:
184,80,94733,1,8,0:0:0:0:
184,80,94815,1,0,0:0:0:0:
48,160,94978,1,0,0:0:0:0:
184,256,95141,1,8,0:2:0:0:
48,336,95304,1,8,0:0:0:0:
235,353,95467,6,0,P|146:363|58:350,1,180,4|2,0:2|0:2,0:0:0:0:
287,274,95956,2,0,P|376:264|465:278,1,180
465,278,96445,1,2,0:2:0:0:
78,69,96771,6,0,P|129:142|213:172,1,180,0|2,0:0|0:2,0:0:0:0:
433,69,97260,2,0,P|382:142|298:172,1,180
256,248,97749,1,2,0:2:0:0:
256,248,98076,5,0,0:0:0:0:
171,297,98239,1,0,0:0:0:0:
171,297,98320,1,0,0:0:0:0:
171,297,98402,2,0,P|126:303|81:302,1,90,2|0,0:2|0:0,0:0:0:0:
31,90,98728,1,0,0:0:0:0:
23,188,98891,1,0,0:0:0:0:
121,199,99054,1,2,0:2:0:0:
336,336,99380,6,0,L|346:221,1,90
441,249,99706,1,2,0:2:0:0:
453,140,99869,1,0,0:0:0:0:
453,140,99951,1,8,0:0:0:0:
352,143,100114,1,0,0:0:0:0:
325,137,100195,1,8,0:0:0:0:
212,74,100358,1,8,0:0:0:0:
212,74,100684,6,0,P|182:138|179:181,1,90
234,238,101010,1,2,0:2:0:0:
331,221,101173,1,0,0:0:0:0:
201,333,101336,1,0,0:0:0:0:
102,319,101499,2,0,P|33:301|20:263,1,90,0|2,0:0|0:2,0:0:0:0:
410,319,101989,6,0,P|461:263|456:147,1,180,0|2,0:0|0:2,0:0:0:0:
384,221,102478,2,0,B|329:155|412:94|382:44,1,180
302,74,102967,1,2,0:2:0:0:
102,319,103293,6,0,P|51:263|56:147,1,180,0|2,0:0|0:2,0:0:0:0:
128,221,103782,2,0,B|183:155|100:94|130:44,1,180
210,74,104271,1,2,0:2:0:0:
306,332,104597,6,0,P|264:320|204:288,1,90
160,234,104923,1,2,0:2:0:0:
306,203,105086,1,0,0:0:0:0:
327,194,105168,2,0,P|354:157|367:43,1,135,8|0,0:0|0:0,0:0:0:0:
456,48,105576,1,8,0:0:0:0:
276,106,105739,1,8,0:0:0:0:
419,230,105902,6,0,P|377:321|281:370,1,180,4|2,0:2|0:2,0:0:0:0:
157,289,106391,2,0,P|223:278|285:289,1,90
80,358,106717,1,0,0:0:0:0:
65,262,106880,1,2,0:2:0:0:
65,262,107206,6,0,P|46:195|52:143,1,90
163,201,107532,2,0,L|267:237,1,90,2|0,0:2|0:0,0:0:0:0:
386,351,107858,2,0,P|350:303|350:238,1,90
450,267,108184,2,0,L|486:169,1,90,2|0,0:2|0:0,0:0:0:0:
480,74,108510,5,0,0:0:0:0:
392,120,108673,1,0,0:0:0:0:
392,120,108755,1,0,0:0:0:0:
392,120,108836,1,2,0:2:0:0:
312,60,108999,1,0,0:0:0:0:
312,194,109163,1,0,0:0:0:0:
195,126,109326,1,0,0:0:0:0:
312,60,109489,1,2,0:2:0:0:
150,222,109815,6,0,P|37:154|19:102,1,180,0|2,0:0|0:2,0:0:0:0:
121,128,110304,1,0,0:0:0:0:
121,128,110385,1,8,0:0:0:0:
121,128,110467,1,0,0:0:0:0:
25,250,110630,1,0,0:0:0:0:
200,343,110793,1,8,0:0:0:0:
200,343,111119,6,0,P|254:326|305:332,1,90
393,384,111445,2,0,L|371:286,1,90,2|0,0:2|0:0,0:0:0:0:
458,117,111771,1,0,0:0:0:0:
458,234,111934,1,0,0:0:0:0:
356,175,112097,1,2,0:2:0:0:
356,175,112423,6,0,P|304:176|248:152,1,90
124,71,112749,2,0,P|176:70|232:94,1,90,2|0,0:2|0:0,0:0:0:0:
151,319,113076,2,0,P|160:277|157:216,1,90
40,257,113402,2,0,P|29:214|26:169,1,90,2|0,0:2|0:0,0:0:0:0:
124,71,113728,5,0,0:0:0:0:
159,172,113891,1,0,0:0:0:0:
159,172,113972,1,0,0:0:0:0:
159,172,114054,1,2,0:2:0:0:
265,152,114217,1,0,0:0:0:0:
383,281,114380,1,0,0:0:0:0:
277,258,114543,1,0,0:0:0:0:
234,357,114706,1,2,0:2:0:0:
479,380,115032,6,0,P|497:286|483:166,1,180,0|2,0:0|0:2,0:0:0:0:
482,91,115521,1,0,0:0:0:0:
482,91,115603,1,8,0:0:0:0:
482,91,115684,1,0,0:0:0:0:
366,41,115847,1,0,0:0:0:0:
267,119,116010,1,8,0:0:0:0:
145,84,116173,1,8,0:0:0:0:
57,174,116336,6,0,P|35:256|76:345,1,180,4|2,0:2|0:2,0:0:0:0:
145,254,116826,2,0,L|337:283,1,180
224,350,117315,1,2,0:2:0:0:
224,350,117641,6,0,L|416:378,1,180,0|2,0:0|0:2,0:0:0:0:
383,291,118130,2,0,P|463:242|493:144,1,180
485,45,118619,1,2,0:2:0:0:
219,138,118945,5,0,0:0:0:0:
133,88,119108,1,0,0:0:0:0:
111,82,119190,1,0,0:0:0:0:
88,81,119271,2,0,P|64:117|68:179,1,90,2|0,0:2|0:0,0:0:0:0:
66,269,119597,1,0,0:0:0:0:
172,288,119760,1,0,0:0:0:0:
278,304,119923,1,2,0:2:0:0:
278,304,120249,6,0,P|341:296|383:273,1,90
456,228,120576,1,2,0:2:0:0:
446,120,120739,1,0,0:0:0:0:
446,120,120820,1,8,0:0:0:0:
343,87,120983,1,0,0:0:0:0:
343,87,121065,1,0,0:0:0:0:
270,166,121228,1,8,0:0:0:0:
270,166,121554,6,0,P|218:179|163:176,1,90
74,164,121880,1,2,0:2:0:0:
37,265,122043,1,0,0:0:0:0:
119,334,122206,1,0,0:0:0:0:
210,276,122369,2,0,L|314:306,1,90,0|2,0:0|0:2,0:0:0:0:
459,63,122858,6,0,P|385:153|406:223,1,180,0|2,0:0|0:2,0:0:0:0:
489,337,123347,2,0,L|295:319,1,180
168,357,123836,1,2,0:2:0:0:
256,160,124163,6,0,L|256:134,15,22.5,0|0|0|0|0|0|0|0|0|0|0|0|0|0|0|0,1:0|0:0|0:0|0:0|0:0|0:0|0:0|0:0|1:0|0:0|0:0|0:0|0:0|0:0|0:0|0:0,0:0:0:0:
256,224,124815,6,0,L|256:250,15,22.5,0|0|0|0|0|0|0|0|0|0|0|0|0|0|0|0,1:0|0:0|0:0|0:0|0:0|0:0|0:0|0:0|1:0|0:0|0:0|0:0|0:0|0:0|0:0|0:0,0:0:0:0:
293,192,125467,6,0,L|333:192,7,22.5,0|0|0|0|0|0|0|0,1:0|0:0|0:0|0:0|0:0|0:0|0:0|0:0,0:0:0:0:
219,192,125793,6,0,L|179:192,7,22.5,0|0|0|0|0|0|0|0,1:0|0:0|0:0|0:0|0:0|0:0|0:0|0:0,0:0:0:0:
256,120,126119,5,0,1:0:0:0:
178,51,126282,5,0,1:0:0:0:
334,51,126445,5,0,1:0:0:0:
256,312,126771,5,4,1:2:0:0:
95,111,146989,5,8,0:0:0:0:
89,108,147152,1,8,0:0:0:0:
83,106,147315,1,0,0:0:0:0:
76,105,147478,1,8,0:0:0:0:
69,104,147641,6,0,P|63:173|102:239,1,144,4|0,3:2|0:0,0:0:0:0:
214,228,148130,1,0,0:0:0:0:
214,228,148293,2,0,L|375:255,1,144,0|0,1:0|0:0,0:0:0:0:
357,252,148945,6,0,P|410:132|299:69,1,252,0|0,3:0|0:0,0:0:0:0:
280,61,149597,1,0,1:0:0:0:
209,132,149760,1,0,1:0:0:0:
209,132,149923,2,0,P|183:86|178:57,1,72
280,61,150249,1,0,3:0:0:0:
177,202,150413,1,0,0:0:0:0:
100,43,150576,1,0,0:0:0:0:
44,313,150902,6,0,P|19:250|34:166,1,144,0|0,1:0|0:0,0:0:0:0:
119,142,151391,1,0,0:0:0:0:
119,142,151554,2,0,L|273:176,1,144,0|0,3:0|0:0,0:0:0:0:
456,62,152206,6,0,L|435:103,1,36,0|0,1:0|0:0,0:0:0:0:
395,108,152369,2,0,P|401:150|421:177,1,72,0|0,3:0|0:0,0:0:0:0:
477,276,152695,1,0,0:0:0:0:
477,276,152858,2,0,P|440:289|382:296,1,72,0|0,3:0|0:0,0:0:0:0:
311,238,153184,1,0,0:0:0:0:
132,348,153510,5,0,1:0:0:0:
132,348,153673,2,0,L|295:369,1,144,0|0,3:0|0:0,0:0:0:0:
401,347,154163,2,0,L|117:364,1,252,0|0,3:0|0:0,0:0:0:0:
101,365,154815,1,0,1:0:0:0:
18,318,154978,1,0,1:0:0:0:
101,265,155141,2,0,P|99:226|88:184,1,72
267,39,155467,5,0,3:0:0:0:
278,126,155630,2,0,P|229:138|196:140,1,72
443,296,156119,5,0,1:0:0:0:
443,296,156282,2,0,L|459:143,1,144,0|0,3:0|0:0,0:0:0:0:
366,206,156771,2,0,L|382:53,1,144,0|0,3:0|0:0,0:0:0:0:
105,53,157423,5,0,1:0:0:0:
101,160,157586,1,0,1:0:0:0:
145,258,157749,1,0,0:0:0:0:
115,362,157913,1,0,1:0:0:0:
36,287,158076,6,0,P|106:293|186:331,1,144,4|0,3:2|0:0,0:0:0:0:
266,376,158565,1,0,0:0:0:0:
266,376,158728,2,0,L|421:327,1,144,0|0,1:0|0:0,0:0:0:0:
403,332,159380,6,0,P|473:216|390:125,1,252,0|0,3:0|0:0,0:0:0:0:
360,112,160032,1,0,1:0:0:0:
234,55,160195,1,0,1:0:0:0:
234,55,160358,2,0,L|249:146,1,72
272,256,160684,1,0,3:0:0:0:
168,216,160847,1,0,0:0:0:0:
64,176,161010,1,0,0:0:0:0:
33,348,161336,6,0,L|14:185,1,144,0|0,1:0|0:0,0:0:0:0:
113,279,161826,1,0,0:0:0:0:
113,279,161989,2,0,L|94:116,1,144,0|0,3:0|0:0,0:0:0:0:
334,52,162641,6,0,L|292:82,1,36,0|0,1:0|0:0,0:0:0:0:
264,99,162804,2,0,P|248:142|250:172,1,72,0|0,3:0|0:0,0:0:0:0:
319,246,163130,1,0,0:0:0:0:
319,246,163293,2,0,L|392:201,1,72,0|0,3:0|0:0,0:0:0:0:
483,222,163619,1,0,0:0:0:0:
498,233,163945,5,0,1:0:0:0:
444,317,164108,2,0,P|411:234|420:169,1,144,0|0,3:0|0:0,0:0:0:0:
495,82,164597,2,0,B|386:107|306:26|222:69,1,252,0|0,1:0|1:0,0:0:0:0:
191,73,165249,1,0,0:0:0:0:
101,103,165413,1,0,1:0:0:0:
101,103,165576,2,0,L|12:96,1,72
110,258,165902,5,0,3:0:0:0:
110,258,166065,2,0,L|118:171,1,72
131,287,166391,1,0,0:0:0:0:
231,344,166554,6,0,L|311:350,1,72,0|0,1:0|1:0,0:0:0:0:
391,318,166880,2,0,L|471:324,1,72,0|0,0:0|1:0,0:0:0:0:
410,155,167206,5,0,3:0:0:0:
435,64,167369,1,0,1:0:0:0:
435,64,167451,1,0,0:0:0:0:
435,64,167532,2,0,L|360:73,1,72
256,88,167858,5,8,0:0:0:0:
112,72,168021,1,8,0:0:0:0:
242,225,168184,1,0,0:0:0:0:
98,209,168347,1,8,0:0:0:0:
184,337,168510,6,0,L|42:361,1,144,4|8,1:2|0:0,0:0:0:0:
0,215,168999,1,0,0:0:0:0:
0,215,169163,2,0,L|74:225,1,72,0|0,1:0|0:0,0:0:0:0:
176,145,169489,2,0,L|211:-3,2,144,8|0|8,0:0|1:0|0:0,0:0:0:0:
216,313,170304,2,0,P|225:264|252:226,1,72,0|0,0:0|1:0,0:0:0:0:
303,181,170630,1,0,0:0:0:0:
396,186,170793,1,8,0:0:0:0:
452,260,170956,1,0,0:0:0:0:
387,328,171119,6,0,B|405:269|405:269|431:257|431:257|453:194,1,144,0|8,1:0|0:0,0:0:0:0:
435,36,171608,2,0,B|416:94|416:94|390:106|390:106|368:169,1,144,0|0,1:0|0:0,0:0:0:0:
387,328,172097,2,0,P|338:312|304:315,1,72,8|0,0:0|0:0,0:0:0:0:
49,322,172423,6,0,L|37:150,1,144,0|8,1:0|0:0,0:0:0:0:
58,78,172913,1,0,0:0:0:0:
123,154,173076,1,0,1:0:0:0:
217,189,173239,1,0,0:0:0:0:
310,152,173402,1,8,0:0:0:0:
367,69,173565,1,0,0:0:0:0:
430,265,173728,6,0,L|447:113,1,144,0|8,1:0|0:0,0:0:0:0:
297,115,174217,1,0,0:0:0:0:
297,115,174380,2,0,P|313:155|349:180,1,72,0|0,1:0|0:0,0:0:0:0:
194,154,174706,2,0,L|47:104,2,144,8|0|8,0:0|1:0|0:0,0:0:0:0:
347,260,175521,2,0,P|286:257|260:258,1,72,0|0,1:0|1:0,0:0:0:0:
55,288,175847,5,0,0:0:0:0:
179,352,176010,1,8,0:0:0:0:
171,214,176173,1,0,0:0:0:0:
148,51,176336,6,0,B|129:109|129:109|143:134|143:134|123:198,1,144,0|8,1:0|0:0,0:0:0:0:
20,325,176826,2,0,B|37:274|37:274|23:249|23:249|42:191,1,144,0|0,1:0|0:0,0:0:0:0:
148,51,177315,2,0,P|197:76|243:72,1,72,8|0,0:0|0:0,0:0:0:0:
495,82,177641,6,0,L|326:62,1,144,0|8,1:0|0:0,0:0:0:0:
251,78,178130,1,0,1:0:0:0:
186,155,178293,1,0,1:0:0:0:
203,254,178456,1,8,0:0:0:0:
281,317,178619,1,8,0:0:0:0:
380,298,178782,1,0,0:0:0:0:
445,222,178945,6,0,L|436:133,1,72,4|0,1:2|0:0,0:0:0:0:
380,298,179271,2,0,L|460:306,1,72,8|0,0:0|0:0,0:0:0:0:
254,356,179597,2,0,P|257:313|250:265,1,72,0|0,1:0|1:0,0:0:0:0:
95,298,179923,2,0,P|131:303|169:327,1,72,8|0,0:0|0:0,0:0:0:0:
45,146,180249,1,0,1:0:0:0:
134,194,180413,1,0,0:0:0:0:
180,104,180576,2,0,P|232:82|274:83,1,72,8|0,0:0|1:0,0:0:0:0:
458,220,180902,5,0,1:0:0:0:
369,268,181065,1,0,0:0:0:0:
323,178,181228,2,0,P|282:158|250:157,1,72,8|0,0:0|0:0,0:0:0:0:
182,345,181554,6,0,P|154:307|139:197,1,144,0|8,1:0|0:0,0:0:0:0:
256,192,182043,1,0,0:0:0:0:
330,345,182206,2,0,P|357:307|373:197,1,144,0|8,1:0|0:0,0:0:0:0:
256,192,182695,1,0,0:0:0:0:
88,80,182858,2,0,B|120:48|176:40|176:40|232:80,1,144,0|8,1:0|0:0,0:0:0:0:
256,192,183347,1,0,0:0:0:0:
424,80,183510,2,0,B|392:48|336:40|336:40|280:80,1,144,0|8,1:0|0:0,0:0:0:0:
144,192,183999,5,0,0:0:0:0:
368,192,184163,5,4,1:2:0:0:
256,192,184183,12,0,186608,0:0:0:0:
119,25,186771,6,0,B|27:35|8:125|182:136|164:285|41:269,1,337.5
71,305,188076,5,0,1:0:0:0:
130,350,188239,1,0,0:0:0:0:
209,362,188402,1,0,1:0:0:0:
289,352,188565,1,0,0:0:0:0:
380,315,188728,5,0,1:0:0:0:
439,212,188891,1,0,1:0:0:0:
411,77,189054,1,0,1:0:0:0:
48,168,189380,5,4,0:2:0:0:
164,188,189543,1,0,0:0:0:0:
164,188,189624,1,0,0:0:0:0:
164,188,189706,2,0,L|148:88,1,90,2|0,0:2|0:0,0:0:0:0:
108,308,190032,1,0,0:0:0:0:
108,308,190195,2,0,P|164:323|205:319,1,90,0|2,0:0|0:2,0:0:0:0:
465,250,190684,6,0,L|300:276,1,135
278,294,191010,2,0,P|261:249|254:202,1,90,2|0,0:2|0:0,0:0:0:0:
202,102,191336,1,0,0:0:0:0:
319,45,191499,1,0,0:0:0:0:
202,102,191663,1,2,0:2:0:0:
32,280,191989,6,0,L|136:269,1,90
237,259,192315,1,2,0:2:0:0:
480,224,192559,5,0,0:0:0:0:
480,224,192641,1,0,0:0:0:0:
368,192,192804,1,0,0:0:0:0:
256,160,192967,1,2,0:2:0:0:
21,73,193293,6,0,L|118:50,1,90
224,65,193619,1,2,0:2:0:0:
214,205,193782,1,0,0:0:0:0:
244,226,193864,2,0,P|297:237|348:226,1,90
365,218,194108,1,0,0:0:0:0:
480,128,194271,6,0,L|511:39,2,90,2|0|0,0:2|0:0|0:0,0:0:0:0:
300,120,194760,1,0,0:0:0:0:
324,224,194923,1,2,0:2:0:0:
348,328,195086,1,0,0:0:0:0:
80,312,195413,5,0,0:0:0:0:
185,332,195576,2,0,L|204:207,1,90,2|0,0:2|0:0,0:0:0:0:
129,117,195902,6,0,L|237:97,1,90
413,99,196228,2,0,L|324:115,1,90,2|0,0:2|0:0,0:0:0:0:
57,171,196554,2,0,P|46:122|46:75,1,90
218,124,196880,2,0,L|129:117,1,90,2|0,0:2|0:0,0:0:0:0:
280,339,197206,5,0,0:0:0:0:
133,321,197369,1,0,0:0:0:0:
292,357,197532,1,2,0:2:0:0:
133,321,197695,2,0,P|226:291|313:286,1,180
465,340,198184,1,2,0:2:0:0:
465,340,198510,6,0,B|457:266|457:266|477:234|477:234|469:128,1,180,0|2,0:0|0:2,0:0:0:0:
339,179,198999,1,0,0:0:0:0:
299,182,199081,2,0,P|238:152|191:63,1,135,8|0,0:0|0:0,0:0:0:0:
294,93,199489,1,8,0:0:0:0:
94,141,199652,1,8,0:0:0:0:
228,287,199815,6,0,L|412:262,1,180,4|2,0:2|0:2,0:0:0:0:
477,354,200304,2,0,P|511:301|479:161,1,180
450,87,200793,1,2,0:2:0:0:
431,90,201119,6,0,L|234:63,2,180,0|2|0,0:0|0:2|0:0,0:0:0:0:
483,192,201934,1,0,0:0:0:0:
483,192,202016,1,0,0:0:0:0:
483,192,202097,1,2,0:2:0:0:
466,298,202260,1,0,0:0:0:0:
359,280,202423,6,0,P|308:253|280:214,1,90
256,133,202749,1,2,0:2:0:0:
199,367,202913,1,0,0:0:0:0:
68,320,203076,2,0,L|166:295,1,90
340,326,203402,1,2,0:2:0:0:
340,326,203728,6,0,P|377:265|397:182,1,135
429,161,204054,2,0,P|397:128|361:97,1,90,2|0,0:2|0:0,0:0:0:0:
314,80,204298,1,0,0:0:0:0:
314,80,204380,1,8,0:0:0:0:
259,318,204543,1,0,0:0:0:0:
129,247,204706,1,8,0:0:0:0:
142,261,205032,6,0,P|211:311|313:304,1,180,0|2,0:0|0:2,0:0:0:0:
248,201,205521,2,0,L|427:154,1,180
504,81,206010,1,2,0:2:0:0:
504,81,206336,6,0,B|425:68|425:68|401:77|401:77|318:58,1,180,0|2,0:0|0:2,0:0:0:0:
121,119,206826,2,0,B|200:132|200:132|224:123|224:123|307:142,1,180
456,219,207315,2,0,P|417:218|356:241,1,90,2|0,0:2|0:0,0:0:0:0:
264,307,207641,1,0,0:0:0:0:
425,306,207804,1,0,0:0:0:0:
275,260,207967,1,2,0:2:0:0:
123,315,208130,6,0,P|108:233|104:110,1,180
284,210,208619,1,2,0:2:0:0:
445,69,208945,5,0,0:0:0:0:
460,169,209108,1,0,0:0:0:0:
460,169,209190,1,0,0:0:0:0:
460,169,209271,2,0,P|417:182|356:182,1,90,2|0,0:2|0:0,0:0:0:0:
341,177,209516,1,0,0:0:0:0:
313,162,209597,1,8,0:0:0:0:
231,80,209760,2,0,L|114:57,1,90,0|8,0:0|0:0,0:0:0:0:
2,78,210086,1,0,0:0:0:0:
86,312,210249,6,0,L|81:171,1,135,4|0,0:2|0:0,0:0:0:0:
103,132,210576,2,0,P|149:126|223:132,1,90,2|0,0:2|0:0,0:0:0:0:
264,208,210902,1,0,0:0:0:0:
368,184,211065,1,0,0:0:0:0:
472,160,211228,1,2,0:2:0:0:
144,48,211554,6,0,L|160:144,1,90
184,240,211880,1,2,0:2:0:0:
328,344,212124,5,0,0:0:0:0:
328,344,212206,1,0,0:0:0:0:
352,240,212369,1,0,0:0:0:0:
384,136,212532,1,2,0:2:0:0:
469,346,212858,6,0,L|374:335,1,90
273,313,213184,1,2,0:2:0:0:
167,337,213347,1,0,0:0:0:0:
112,245,213510,1,0,0:0:0:0:
182,162,213673,1,0,0:0:0:0:
282,205,213836,1,2,0:2:0:0:
456,56,214163,6,0,L|356:76,1,90,0|0,0:0|0:0,0:0:0:0:
512,167,214489,1,2,0:2:0:0:
391,105,214652,1,0,0:0:0:0:
367,96,214733,2,0,P|290:93|242:129,1,135,8|0,0:0|0:0,0:0:0:0:
327,207,215141,1,8,0:0:0:0:
139,123,215304,1,0,0:0:0:0:
55,229,215467,6,0,L|49:133,2,90,0|0|2,0:0|0:0|0:2,0:0:0:0:
29,333,215956,2,0,P|89:349|214:344,1,180
323,292,216445,6,0,L|413:302,1,90,2|0,0:2|0:0,0:0:0:0:
179,240,216771,2,0,L|90:250,1,90,0|0,0:0|0:0,0:0:0:0:
332,143,217097,2,0,L|422:134,1,90,2|0,0:2|0:0,0:0:0:0:
188,91,217423,2,0,L|99:82,1,90
323,292,217749,2,0,L|413:302,1,90,2|0,0:2|0:0,0:0:0:0:
234,103,218076,5,0,0:0:0:0:
139,225,218239,1,0,0:0:0:0:
277,280,218402,1,2,0:2:0:0:
372,158,218565,1,0,0:0:0:0:
139,225,218728,5,0,0:0:0:0:
277,280,218891,1,0,0:0:0:0:
277,280,218972,1,0,0:0:0:0:
277,280,219054,1,2,0:2:0:0:
27,322,219380,6,0,P|6:228|7:123,1,180
108,85,219869,1,0,0:0:0:0:
142,66,219951,1,8,0:0:0:0:
247,90,220114,1,0,0:0:0:0:
291,84,220195,1,8,0:0:0:0:
442,93,220358,1,8,0:0:0:0:
413,249,220521,1,0,0:0:0:0:
181,226,220684,6,0,P|173:133|200:43,1,180,4|2,0:2|0:2,0:0:0:0:
331,158,221173,2,0,P|339:251|312:341,1,180
208,317,221663,1,2,0:2:0:0:
106,352,221826,1,0,0:0:0:0:
70,109,221989,6,0,L|81:203,1,90
188,192,222315,1,2,0:2:0:0:
188,192,222478,1,0,0:0:0:0:
442,109,222641,2,0,L|431:203,1,90
324,192,222967,1,2,0:2:0:0:
324,192,223293,6,0,P|275:157|196:129,1,135
146,124,223619,2,0,P|165:78|195:44,1,90,2|0,0:2|0:0,0:0:0:0:
190,47,223864,1,0,0:0:0:0:
190,47,223945,1,0,0:0:0:0:
36,183,224108,1,0,0:0:0:0:
128,289,224271,1,2,0:2:0:0:
408,164,224597,6,0,P|422:252|404:340,1,180,0|2,0:0|0:2,0:0:0:0:
225,337,225086,1,0,0:0:0:0:
225,337,225168,2,0,P|276:321|310:281,1,90,8|0,0:0|0:0,0:0:0:0:
319,257,225413,1,0,0:0:0:0:
179,200,225576,1,8,0:0:0:0:
8,81,225902,6,0,B|87:68|87:68|111:77|111:77|194:58,1,180,0|2,0:0|0:2,0:0:0:0:
391,119,226391,2,0,B|312:132|312:132|288:123|288:123|205:142,1,180
40,239,226880,2,0,P|95:244|141:256,1,90,2|0,0:2|0:0,0:0:0:0:
274,361,227206,1,0,0:0:0:0:
80,327,227369,1,0,0:0:0:0:
241,284,227532,1,2,0:2:0:0:
354,351,227695,6,0,P|369:269|373:146,1,180
362,42,228184,1,2,0:2:0:0:
362,42,228510,6,0,L|261:52,1,90
110,167,228836,2,0,L|211:157,1,90,2|0,0:2|0:0,0:0:0:0:
347,295,229163,2,0,L|337:194,1,90
177,36,229489,2,0,L|187:137,1,90,2|0,0:2|0:0,0:0:0:0:
156,266,229815,2,0,L|55:276,1,90
297,71,230141,2,0,L|386:62,1,90,2|0,0:2|0:0,0:0:0:0:
465,54,230385,1,0,0:0:0:0:
465,54,230467,5,2,0:2:0:0:
440,184,230630,1,2,0:2:0:0:
416,312,230793,1,2,0:2:0:0:
424,320,231119,5,4,1:2:0:0:
384,106,249380,6,0,P|405:155|355:228,1,144,4|0,0:2|0:0,0:0:0:0:
236,344,249869,2,0,P|215:295|265:222,1,144
236,142,250358,2,0,L|168:114,1,72,0|0,0:0|3:0,0:0:0:0:
67,139,250684,1,0,3:0:0:0:
135,295,251336,5,8,0:0:0:0:
129,292,251499,1,8,0:0:0:0:
123,290,251663,1,0,0:0:0:0:
116,289,251826,1,8,0:0:0:0:
110,292,251989,2,0,B|190:279|329:345|400:296,1,288,4|0,3:2|0:0,0:0:0:0:
486,106,253130,5,0,3:0:0:0:
486,106,253293,1,0,3:0:0:0:
242,47,253945,5,0,1:0:0:0:
226,139,254108,1,0,3:0:0:0:
72,180,254434,1,0,3:0:0:0:
80,273,254597,2,0,P|53:275|-23:264,1,72,0|0,3:0|0:0,0:0:0:0:
163,321,254923,2,0,P|201:321|254:316,1,72
324,305,255249,5,2,0:0:0:0:
413,247,255902,1,2,0:0:0:0:
439,139,256554,5,2,1:2:0:0:
304,76,256717,1,0,3:0:0:0:
304,76,257043,1,0,3:0:0:0:
439,139,257206,2,0,P|440:182|431:214,1,72,2|0,3:2|0:0,0:0:0:0:
446,306,257532,2,0,L|346:293,1,72
281,300,257858,1,0,2:0:0:0:
178,332,258021,1,0,2:0:0:0:
146,230,258184,1,0,2:0:0:0:
248,197,258347,1,0,3:0:0:0:
60,245,258510,6,0,P|51:208|60:142,1,72,0|0,3:0|0:0,0:0:0:0:
134,90,258836,1,0,0:0:0:0:
134,90,258999,1,0,0:0:0:0:
212,192,259163,5,0,1:0:0:0:
315,224,259326,1,0,2:0:0:0:
347,122,259489,1,0,2:0:0:0:
245,89,259652,1,0,3:0:0:0:
440,138,259815,6,0,P|446:97|445:52,1,72,0|0,3:0|0:0,0:0:0:0:
380,253,260141,2,0,P|363:216|356:172,1,72
431,345,260467,2,0,P|460:303|474:265,1,72,2|0,0:0|0:0,0:0:0:0:
468,283,260956,5,0,3:0:0:0:
284,312,261119,2,0,P|274:359|274:404,1,72,2|0,3:2|0:0,0:0:0:0:
121,348,261445,2,0,P|111:301|111:256,1,72
141,160,261771,5,10,0:0:0:0:
147,157,261934,1,8,0:0:0:0:
153,155,262097,1,0,0:0:0:0:
160,154,262260,1,8,0:0:0:0:
166,157,262423,1,2,3:2:0:0:
431,304,263565,5,0,0:0:0:0:
431,304,263728,1,0,1:0:0:0:
342,344,264380,5,0,1:2:0:0:
256,192,264706,1,0,1:2:0:0:
170,344,265032,1,4,3:2:0:0:
62,171,266173,5,0,3:0:0:0:
79,203,266336,1,0,3:0:0:0:
450,171,266989,5,0,1:0:0:0:
433,203,267152,1,0,3:0:0:0:
433,330,267478,5,0,3:0:0:0:
433,330,267641,1,0,3:0:0:0:
344,299,267804,1,0,0:0:0:0:
256,332,267967,1,0,0:0:0:0:
168,299,268130,1,0,0:0:0:0:
79,330,268293,1,2,0:0:0:0:
62,171,268782,5,0,3:0:0:0:
79,203,268945,1,2,3:2:0:0:
450,171,269597,5,2,1:2:0:0:
433,203,269760,1,0,3:0:0:0:
433,330,270086,5,0,3:0:0:0:
433,330,270249,1,2,3:2:0:0:
270,276,270576,1,0,0:0:0:0:
242,365,270739,1,0,0:0:0:0:
41,242,271065,1,0,0:0:0:0:
69,331,271228,1,0,0:0:0:0:
158,301,271391,1,0,3:0:0:0:
132,212,271554,1,0,3:0:0:0:
462,103,272206,6,0,P|418:86|373:76,1,72,0|0,1:0|3:0,0:0:0:0:
302,60,272532,1,0,0:0:0:0:
309,153,272695,1,0,3:0:0:0:
138,218,272858,6,0,P|190:213|225:188,1,72,0|0,3:0|0:0,0:0:0:0:
156,125,273184,1,0,0:0:0:0:
156,125,273347,1,0,0:0:0:0:
138,308,273999,5,0,3:0:0:0:
138,308,274163,1,2,3:2:0:0:
402,214,274815,5,2,1:2:0:0:
431,326,274978,1,0,3:0:0:0:
421,222,275304,5,0,1:0:0:0:
450,334,275467,1,2,3:2:0:0:
256,192,275487,12,0,277423,1:0:0:0:
88,192,277913,5,0,3:0:0:0:
88,192,278076,1,0,3:0:0:0:
120,290,278402,1,0,3:0:0:0:
120,290,278565,1,0,3:0:0:0:
204,351,278891,1,0,3:0:0:0:
204,351,279054,1,0,3:0:0:0:
307,351,279380,1,0,3:0:0:0:
391,290,279706,1,0,3:0:0:0:
391,290,279869,1,0,3:0:0:0:
424,192,280195,1,0,3:0:0:0:
424,192,280358,1,0,3:0:0:0:
256,72,280684,5,4,0:0:0:0:
256,192,287206,12,4,291119,0:0:0:0:
152,282,291445,6,0,L|131:240,3,45
353,223,292260,1,0,3:0:0:0:
353,223,292423,2,0,L|317:260,1,45,0|0,3:0|0:0,0:0:0:0:
349,338,292749,2,0,L|385:301,1,45
420,88,293239,2,0,L|468:62,2,45,0|0|0,0:0|0:0|0:0,0:0:0:0:
247,86,293891,5,0,0:0:0:0:
247,86,294054,2,0,L|233:29,3,45
143,221,294869,1,0,3:0:0:0:
143,221,295032,6,0,L|129:164,3,45,0|0|0|0,3:0|0:0|0:0|0:0,0:0:0:0:
72,50,295847,2,0,P|50:53|28:62,2,45
248,127,296499,1,0,0:0:0:0:
248,127,296663,6,0,L|262:70,3,45
372,235,297478,1,0,3:0:0:0:
372,235,297641,6,0,L|386:178,3,45,0|0|0|0,3:0|0:0|0:0|0:0,0:0:0:0:
258,178,298293,6,0,P|234:171|209:171,1,45,0|0,0:0|3:0,0:0:0:0:
149,258,298619,2,0,P|172:264|198:265,1,45,0|0,0:0|3:0,0:0:0:0:
310,313,298945,5,2,0:0:0:0:
339,228,299108,1,0,0:0:0:0:
398,294,299271,1,2,0:0:0:0:
310,312,299434,1,2,0:0:0:0:
201,251,299597,5,2,0:0:0:0:
176,145,299760,1,0,0:0:0:0:
97,219,299923,1,2,0:0:0:0:
201,251,300086,1,2,0:0:0:0:
328,184,300249,5,2,3:2:0:0:
352,60,300413,1,0,0:0:0:0:
447,144,300576,1,2,0:0:0:0:
328,184,300739,1,2,0:0:0:0:
208,147,300902,5,8,0:0:0:0:
176,23,301065,1,8,0:0:0:0:
54,54,301228,1,0,0:0:0:0:
84,177,301391,1,8,0:0:0:0:
208,147,301554,1,4,0:0:0:0:
414,324,303184,6,0,L|428:212,1,90,0|0,3:0|1:0,0:0:0:0:
425,234,304163,1,0,3:0:0:0:
179,260,305467,5,0,3:0:0:0:
273,279,305630,2,0,P|232:332|149:348,1,135,0|0,3:0|1:0,0:0:0:0:
84,240,306282,2,0,P|124:186|207:170,1,135,0|0,3:0|3:0,0:0:0:0:
78,67,308402,6,0,L|70:156,1,90,0|0,3:0|1:0,0:0:0:0:
69,156,309380,1,0,3:0:0:0:
439,176,310684,5,0,3:0:0:0:
399,256,310847,2,0,L|262:237,1,135,0|0,3:0|1:0,0:0:0:0:
249,321,311499,2,0,L|147:306,1,90,0|0,3:0|3:0,0:0:0:0:
159,307,311989,1,4,0:0:0:0:
101,65,312804,5,0,3:0:0:0:
101,65,312967,2,0,L|95:162,1,90,0|0,0:0|3:0,0:0:0:0:
178,133,313945,1,0,1:0:0:0:
178,133,314108,2,0,L|172:277,1,135,0|0,3:0|3:0,0:0:0:0:
406,292,315413,5,0,3:0:0:0:
406,292,315576,2,0,L|314:310,1,90
317,309,316065,1,0,3:0:0:0:
260,237,316554,1,0,1:0:0:0:
260,237,316717,2,0,L|90:269,1,135,0|0,3:0|3:0,0:0:0:0:
400,59,318021,5,0,3:0:0:0:
400,59,318184,2,0,L|392:159,1,90,0|0,0:0|3:0,0:0:0:0:
334,279,319163,1,0,1:0:0:0:
320,182,319326,1,0,1:0:0:0:
320,182,319407,1,0,0:0:0:0:
320,182,319489,2,0,L|219:193,1,90,0|4,0:0|3:2,0:0:0:0:
141,274,320467,5,0,3:0:0:0:
233,331,321119,5,0,3:0:0:0:
338,306,321445,1,0,3:0:0:0:
395,214,321771,5,0,1:0:0:0:
370,109,321934,1,0,1:0:0:0:
278,52,322097,1,0,1:0:0:0:
278,52,322423,5,4,0:2:0:0:
128,79,322586,1,0,0:0:0:0:
128,79,322668,1,0,0:0:0:0:
128,79,322749,1,2,0:2:0:0:
284,71,322913,2,0,P|287:160|264:269,1,180
184,222,323402,1,2,0:2:0:0:
104,264,323565,1,0,0:0:0:0:
60,53,323728,6,0,P|53:125|102:109,1,135
132,101,324054,2,0,L|252:116,1,90,2|0,0:2|0:0,0:0:0:0:
297,260,324380,1,0,0:0:0:0:
183,238,324543,1,0,0:0:0:0:
284,278,324706,2,0,P|273:330|270:401,1,90,2|0,0:2|0:0,0:0:0:0:
152,320,325032,5,0,0:0:0:0:
94,253,325195,1,0,0:0:0:0:
98,128,325358,1,2,0:2:0:0:
195,44,325521,1,0,0:0:0:0:
317,44,325684,1,0,0:0:0:0:
414,128,325847,1,0,0:0:0:0:
418,253,326010,1,2,0:2:0:0:
360,320,326173,1,0,0:0:0:0:
464,352,326336,5,0,0:0:0:0:
330,322,326499,1,0,0:0:0:0:
304,312,326581,1,0,0:0:0:0:
283,294,326663,2,0,P|244:266|173:255,1,90,2|0,0:2|0:0,0:0:0:0:
176,257,326907,1,0,0:0:0:0:
151,269,326989,1,8,0:0:0:0:
203,342,327152,1,0,0:0:0:0:
67,191,327315,1,8,0:0:0:0:
67,191,327641,6,0,L|186:156,1,90
178,156,327885,1,0,0:0:0:0:
203,148,327967,2,0,L|99:158,1,90,2|0,0:2|0:0,0:0:0:0:
373,78,328293,1,0,0:0:0:0:
268,53,328456,1,0,0:0:0:0:
378,94,328619,2,0,L|361:204,1,90,2|0,0:2|0:0,0:0:0:0:
383,267,328945,6,0,L|275:287,1,90
99,285,329271,2,0,L|188:269,1,90,2|0,0:2|0:0,0:0:0:0:
455,213,329597,2,0,P|466:262|466:309,1,90
294,260,329923,2,0,L|383:267,1,90,2|0,0:2|0:0,0:0:0:0:
432,359,330249,5,0,0:0:0:0:
344,352,330413,1,0,0:0:0:0:
240,344,330576,1,2,0:2:0:0:
112,328,330739,1,0,0:0:0:0:
120,336,331065,5,0,0:0:0:0:
248,352,331228,1,2,0:2:0:0:
352,360,331391,1,0,0:0:0:0:
440,368,331554,1,0,0:0:0:0:
412,243,331717,5,0,0:0:0:0:
409,255,331798,1,0,0:0:0:0:
410,268,331880,1,2,0:2:0:0:
475,150,332043,1,0,0:0:0:0:
484,170,332124,1,0,0:0:0:0:
488,192,332206,1,8,0:0:0:0:
376,110,332369,1,8,0:0:0:0:
261,217,332532,1,2,0:2:0:0:
114,239,332695,1,8,0:0:0:0:
51,337,332858,6,0,B|37:261|37:261|-8:267|-8:267|50:197|50:197|-34:96|45:13|126:28,1,450,4|0,1:2|0:0,0:0:0:0:
141,129,334815,2,0,L|295:156,1,135,0|0,0:0|3:2,0:0:0:0:
273,152,335467,1,0,3:2:0:0:
512,312,336771,5,0,0:0:0:0:
424,328,337423,1,0,0:0:0:0:
328,344,337913,1,0,0:0:0:0:
328,344,338076,6,0,L|312:312,15,22.5,0|0|0|0|0|0|0|0|0|0|0|0|0|0|0|0,1:0|0:0|0:0|0:0|0:0|0:0|0:0|0:0|0:0|0:0|0:0|0:0|0:0|0:0|0:0|0:0,0:0:0:0:
304,296,338728,2,0,L|288:264,15,22.5,0|0|0|0|0|0|0|0|0|0|0|0|0|0|0|0,1:0|0:0|0:0|0:0|0:0|0:0|0:0|0:0|0:0|0:0|0:0|0:0|0:0|0:0|0:0|0:0,0:0:0:0:
280,248,339380,6,0,L|264:216,2,22.5,0|0|0,1:0|0:0|0:0,0:0:0:0:
256,200,339543,6,0,L|240:168,11,22.5,0|0|0|0|0|0|0|0|0|0|0|0,1:0|0:0|0:0|0:0|0:0|0:0|0:0|0:0|0:0|0:0|0:0|0:0,0:0:0:0:
232,160,340032,2,0,L|216:128,11,22.5,0|0|0|0|0|0|0|0|0|0|0|0,1:0|0:0|0:0|0:0|0:0|0:0|0:0|0:0|0:0|0:0|0:0|0:0,0:0:0:0:
208,112,340521,6,0,L|192:80,2,22.5,0|0|0,1:0|0:0|0:0,0:0:0:0:
184,64,340684,6,0,L|168:32,7,22.5,0|0|0|0|0|0|0|0,1:0|0:0|0:0|0:0|0:0|0:0|0:0|0:0,0:0:0:0:
136,80,341010,2,0,L|120:48,7,22.5,0|0|0|0|0|0|0|0,1:0|0:0|0:0|0:0|0:0|0:0|0:0|0:0,0:0:0:0:
88,96,341336,2,0,L|72:64,7,22.5,0|0|0|0|0|0|0|0,1:0|0:0|0:0|0:0|0:0|0:0|0:0|0:0,0:0:0:0:
40,112,341663,2,0,L|24:80,7,22.5,0|0|0|0|0|0|0|0,1:0|0:0|0:0|0:0|0:0|0:0|0:0|0:0,0:0:0:0:
40,184,341989,6,0,L|104:192,1,45,8|0,0:0|0:0,0:0:0:0:
181,276,342152,2,0,L|137:271,1,45,8|0,0:0|0:0,0:0:0:0:
274,177,342315,2,0,L|338:185,1,45,8|0,0:0|0:0,0:0:0:0:
379,329,342478,2,0,L|335:324,1,45,8|0,0:0|0:0,0:0:0:0:
512,240,342641,5,2,1:2:0:0:
512,240,342804,1,2,1:2:0:0:
512,240,342967,1,2,1:2:0:0:
512,240,343293,6,0,L|424:232,1,72,4|0,0:2|0:0,0:0:0:0:
310,177,343619,1,2,0:2:0:0:
401,147,343782,2,0,P|413:98|398:56,1,72
338,27,344108,1,0,0:0:0:0:
338,27,344190,1,0,0:0:0:0:
338,27,344271,1,2,0:2:0:0:
94,56,344597,6,0,L|88:133,1,72
86,225,344923,2,0,P|123:207|169:206,1,72,2|0,0:2|0:0,0:0:0:0:
319,206,345249,1,0,0:0:0:0:
296,297,345413,1,0,0:0:0:0:
216,346,345576,2,0,P|182:344|149:322,1,72,2|0,0:2|0:0,0:0:0:0:
307,308,345902,6,0,L|472:346,1,144,0|2,0:0|0:2,0:0:0:0:
254,214,346391,2,0,L|419:252,1,144
198,132,346880,1,2,0:2:0:0:
198,132,347206,5,0,0:0:0:0:
107,199,347369,1,0,0:0:0:0:
113,223,347451,1,0,0:0:0:0:
120,246,347532,1,2,0:2:0:0:
212,298,347695,1,0,0:0:0:0:
206,322,347777,1,0,0:0:0:0:
199,345,347858,1,8,0:0:0:0:
358,254,348021,1,0,0:0:0:0:
447,347,348184,1,8,0:0:0:0:
447,347,348510,6,0,L|455:257,1,72
438,73,348836,1,2,0:2:0:0:
384,175,348999,2,0,B|329:182|296:161,1,72
256,83,349326,1,0,0:0:0:0:
256,83,349407,1,0,0:0:0:0:
256,83,349489,1,2,0:2:0:0:
72,175,349815,6,0,P|71:236|90:311,1,108
88,328,350141,2,0,L|169:336,1,72,2|0,0:2|0:0,0:0:0:0:
10,350,350467,1,0,0:0:0:0:
189,358,350630,1,0,0:0:0:0:
10,350,350793,1,2,0:2:0:0:
11,107,351119,5,0,0:0:0:0:
102,86,351282,1,0,0:0:0:0:
185,127,351445,1,2,0:2:0:0:
233,207,351608,2,0,P|302:230|327:221,1,72
294,131,351934,1,0,0:0:0:0:
245,301,352097,1,2,0:2:0:0:
417,272,352260,1,0,0:0:0:0:
417,272,352342,1,0,0:0:0:0:
417,272,352423,6,0,L|434:144,1,108
441,119,352749,2,0,P|485:117|541:127,1,72,2|0,0:2|0:0,0:0:0:0:
512,120,352994,1,0,0:0:0:0:
512,120,353076,1,8,0:0:0:0:
397,50,353239,1,0,0:0:0:0:
306,146,353402,1,8,0:0:0:0:
163,141,353565,1,0,0:0:0:0:
72,249,353728,6,0,L|44:160,1,72,4|0,0:2|0:0,0:0:0:0:
179,271,354054,1,2,0:2:0:0:
104,347,354217,2,0,L|22:372,1,72
212,362,354543,1,0,0:0:0:0:
236,370,354624,1,0,0:0:0:0:
260,378,354706,1,2,0:2:0:0:
442,302,355032,6,0,P|483:306|529:324,1,72
372,372,355358,2,0,P|331:368|285:350,1,72,2|0,0:2|0:0,0:0:0:0:
244,284,355684,1,0,0:0:0:0:
184,356,355847,1,0,0:0:0:0:
91,339,356010,2,0,P|75:301|75:250,1,72,2|0,0:2|0:0,0:0:0:0:
32,47,356336,6,0,L|-2:194,1,144,0|2,0:0|0:2,0:0:0:0:
97,118,356826,2,0,L|63:265,1,144
40,356,357315,1,2,0:2:0:0:
40,356,357641,5,0,0:0:0:0:
132,310,357804,1,0,0:0:0:0:
158,298,357885,1,0,0:0:0:0:
185,289,357967,1,2,0:2:0:0:
287,348,358130,1,0,0:0:0:0:
315,351,358211,1,0,0:0:0:0:
343,352,358293,1,8,0:0:0:0:
460,298,358456,1,0,0:0:0:0:
460,298,358619,1,8,0:0:0:0:
468,88,358945,6,0,L|449:191,1,72
394,298,359271,1,2,0:2:0:0:
359,187,359434,2,0,P|316:182|254:184,1,72
187,233,359760,1,0,0:0:0:0:
187,233,359842,1,0,0:0:0:0:
187,233,359923,1,0,0:0:0:0:
40,52,360249,6,0,P|111:85|156:68,1,108
181,64,360576,2,0,L|257:39,1,72,2|0,0:2|0:0,0:0:0:0:
362,16,360902,1,0,0:0:0:0:
349,182,361065,1,0,0:0:0:0:
362,16,361228,1,2,0:2:0:0:
471,217,361554,5,4,0:2:0:0:
414,291,361717,1,0,0:0:0:0:
323,315,361880,1,2,0:2:0:0:
233,288,362043,1,0,0:0:0:0:
86,208,362369,1,0,0:0:0:0:
127,292,362532,1,2,0:2:0:0:
190,95,362858,6,0,L|53:77,1,108
218,176,363184,2,0,P|263:166|303:143,1,72,2|0,0:2|0:0,0:0:0:0:
308,136,363429,1,0,0:0:0:0:
327,114,363510,1,0,0:0:0:0:
412,203,363673,1,0,0:0:0:0:
412,203,363836,1,2,0:2:0:0:
412,203,363999,1,0,0:0:0:0:
398,309,364163,5,4,3:2:0:0:
256,192,364183,12,0,367423,0:0:0:0:
256,192,367444,12,0,368076,0:0:0:0:
256,192,368096,12,0,368728,0:0:0:0:
256,192,368748,12,0,369380,0:0:0:0:
256,192,369400,12,0,372641,0:0:0:0:
256,192,372661,12,0,373293,0:0:0:0:
256,192,373313,12,0,373945,0:0:0:0:
256,192,373966,12,4,374597,0:2:0:0:
256,192,374618,12,0,377858,0:0:0:0:
256,192,377879,12,0,378510,0:0:0:0:
256,192,378531,12,0,379163,0:0:0:0:
256,192,379183,12,0,379815,0:0:0:0:
256,192,379835,12,0,382423,0:0:0:0:
112,256,383728,5,0,0:0:0:0:
208,216,384054,5,2,0:0:0:0:
304,176,384380,5,0,0:0:0:0:
392,136,384706,5,2,0:0:0:0:
400,256,385684,5,0,0:0:0:0:
304,216,385847,1,2,0:0:0:0:
208,176,386010,1,0,0:0:0:0:
120,136,386173,1,2,0:0:0:0:
328,104,387260,5,2,0:0:0:0:
328,104,387315,1,2,0:0:0:0:
472,64,387641,1,2,0:0:0:0:
448,184,389108,5,2,0:0:0:0:
404,266,389271,1,2,0:0:0:0:
318,303,389434,1,0,0:0:0:0:
224,298,389597,1,0,0:0:0:0:
144,248,389760,1,2,0:0:0:0:
144,248,390086,1,0,0:0:0:0:
32,237,390249,5,2,0:0:0:0:
147,365,390494,1,2,0:0:0:0:
320,364,390739,1,0,0:0:0:0:
320,364,390902,1,2,0:0:0:0:
465,282,392532,6,0,P|428:315|390:335,1,72,0|0,0:0|0:0,0:0:0:0:
322,346,392858,5,2,0:0:0:0:
237,335,393021,1,0,0:0:0:0:
161,292,393184,1,0,0:0:0:0:
114,219,393347,1,0,0:0:0:0:
125,133,393510,5,2,0:0:0:0:
180,66,393673,1,0,0:0:0:0:
266,60,393836,1,0,0:0:0:0:
332,114,393999,1,0,0:0:0:0:
329,200,394163,5,2,0:0:0:0:
378,270,394326,1,0,0:0:0:0:
462,252,394489,1,0,0:0:0:0:
466,165,394652,1,0,0:0:0:0:
374,121,394815,5,2,0:0:0:0:
307,176,394978,1,2,0:0:0:0:
235,128,395141,1,0,0:0:0:0:
257,44,395304,1,0,0:0:0:0:
345,39,395467,1,2,0:0:0:0:
91,100,395956,5,0,0:0:0:0:
43,195,396119,1,2,0:0:0:0:
99,355,396364,1,2,0:0:0:0:
50,211,396608,1,2,0:0:0:0:
313,292,397097,5,2,0:0:0:0:
439,215,397423,1,2,0:0:0:0:
511,310,397668,1,2,0:0:0:0:
112,256,398728,5,0,0:0:0:0:
208,216,398891,1,2,0:0:0:0:
304,176,399054,1,0,0:0:0:0:
392,136,399217,1,2,0:0:0:0:
392,136,399597,6,0,L|416:255,1,96,2|2,0:0|0:0,0:0:0:0:
304,176,400032,2,0,L|285:81,1,96,2|2,0:0|0:0,0:0:0:0:
208,216,400467,2,0,L|226:310,2,96,2|2|2,0:0|0:0|0:0,0:0:0:0:
112,256,401119,2,0,L|93:161,1,96,2|2,0:0|0:0,0:0:0:0:
474,189,402315,5,2,0:0:0:0:
390,267,402641,1,2,0:0:0:0:
274,250,402967,1,2,0:0:0:0:
274,250,403293,5,2,0:0:0:0:
206,228,403456,1,2,0:0:0:0:
206,156,403619,1,0,0:0:0:0:
274,133,403782,1,2,0:0:0:0:
317,192,403945,5,0,0:0:0:0:
279,98,404108,1,0,0:0:0:0:
356,33,404271,1,2,0:0:0:0:
441,87,404434,1,2,0:0:0:0:
417,184,404597,5,0,0:0:0:0:
438,297,404760,1,0,0:0:0:0:
338,352,404923,1,2,0:0:0:0:
253,274,405086,1,0,0:0:0:0:
302,169,405249,6,0,L|326:88,1,72,2|0,0:0|0:0,0:0:0:0:
207,92,405576,2,0,L|171:7,1,72,2|2,0:0|0:0,0:0:0:0:
