osu file format v14

[General]
AudioFilename: audio.mp3
AudioLeadIn: 0
PreviewTime: 52858
Countdown: 0
SampleSet: Soft
StackLeniency: 0.4
Mode: 2
LetterboxInBreaks: 0
WidescreenStoryboard: 0

[Editor]
DistanceSpacing: 1
BeatDivisor: 4
GridSize: 32
TimelineZoom: 1.8

[Metadata]
Title:My Soul, Your Beats! (TV Size)
TitleUnicode:My Soul, Your Beats! (TV Size)
Artist:Lia
ArtistUnicode:Lia
Creator:Secre
Version:Salad
Source:Angel Beats!
Tags:chickenbible Petal Matha エンジェルビーツ anime op opening japanese tenshi Key J-pop Jpop pop 麻枝准 Maeda Jun オープニングテーマ Kanade Tachibana 立華 かなで 音無 結弦 Yuzuru Otonashi Yuri Nakamura 仲村 ゆり
BeatmapID:3226731
BeatmapSetID:1579507

[Difficulty]
HPDrainRate:4
CircleSize:3.4
OverallDifficulty:6.4
ApproachRate:6.4
SliderMultiplier:1.5
SliderTickRate:1

[Events]
//Background and Video events
0,0,"holo en white haired girl WHEN shork doesnt count.jpg",0,0
//Break Periods
//Storyboard Layer 0 (Background)
//Storyboard Layer 1 (Fail)
//Storyboard Layer 2 (Pass)
//Storyboard Layer 3 (Foreground)
//Storyboard Layer 4 (Overlay)
//Storyboard Sound Samples

[TimingPoints]
-935,413.793103448276,4,2,1,45,1,0
513,-100,4,2,20,45,0,0
720,-100,4,2,21,45,0,0
927,-100,4,2,1,45,0,0
1133,-100,4,2,22,45,0,0
1340,-100,4,2,1,45,0,0
1547,-100,4,2,23,45,0,0
1754,-100,4,2,30,45,0,0
1961,-100,4,2,24,45,0,0
2168,-100,4,2,1,45,0,0
3823,-100,4,2,20,45,0,0
4030,-100,4,2,21,45,0,0
4237,-100,4,2,1,45,0,0
4444,-100,4,2,22,45,0,0
4651,-100,4,2,1,45,0,0
4858,-100,4,2,23,45,0,0
5065,-100,4,2,30,45,0,0
5271,-100,4,2,24,45,0,0
5478,-100,4,2,1,45,0,0
7133,-100,4,2,20,45,0,0
7340,-100,4,2,21,45,0,0
7547,-100,4,2,1,45,0,0
7754,-100,4,2,22,45,0,0
7961,-100,4,2,1,45,0,0
8168,-100,4,2,21,45,0,0
8375,-100,4,2,1,45,0,0
8582,-100,4,2,25,45,0,0
8789,-100,4,2,1,45,0,0
8996,-100,4,2,26,45,0,0
9202,-100,4,2,1,45,0,0
10444,-100,4,2,20,45,0,0
10651,-100,4,2,21,45,0,0
10858,-100,4,2,1,45,0,0
11065,-100,4,2,22,45,0,0
11271,-100,4,2,1,45,0,0
11478,-100,4,2,24,45,0,0
11685,-100,4,2,1,45,0,0
11892,-100,4,2,23,45,0,0
12099,-100,4,2,1,45,0,0
13961,-100,4,2,1,45,0,0
14789,-100,4,2,1,45,0,0
15616,-100,4,2,20,55,0,0
17892,-100,4,2,21,55,0,0
18306,-100,4,2,1,55,0,0
18513,-100,4,2,22,55,0,0
18720,-100,4,2,21,55,0,0
19133,-100,4,2,25,55,0,0
19340,-100,4,2,27,55,0,0
19547,-100,4,2,1,55,0,0
19754,-100,4,2,23,45,0,0
19858,-100,4,2,31,45,0,0
19961,-100,4,2,30,45,0,0
20065,-100,4,2,32,45,0,0
20168,-100,4,2,33,45,0,0
20271,-100,4,2,34,45,0,0
20582,-100,4,2,28,55,0,0
20789,-100,4,2,24,55,0,0
20996,-100,4,2,20,55,0,0
21202,-100,4,2,23,55,0,0
21616,-100,4,2,21,55,0,0
21823,-100,4,2,24,55,0,0
22133,-100,4,2,1,55,0,0
22237,-100,4,2,22,55,0,0
22444,-100,4,2,21,55,0,0
22651,-100,4,2,20,55,0,0
22858,-100,4,2,29,55,0,0
23065,-100,4,2,24,55,0,0
23271,-100,4,2,21,55,0,0
23685,-100,4,2,1,55,0,0
23892,-100,4,2,25,55,0,0
24099,-100,4,2,24,55,0,0
24306,-100,4,2,29,55,0,0
24513,-100,4,2,22,55,0,0
24927,-100,4,2,29,55,0,0
25133,-100,4,2,26,55,0,0
25340,-100,4,2,20,55,0,0
25754,-100,4,2,25,55,0,0
25961,-100,4,2,21,55,0,0
26168,-100,4,2,1,55,0,0
26375,-100,4,2,20,55,0,0
26582,-100,4,2,22,55,0,0
26892,-100,4,2,1,55,0,0
26996,-100,4,2,23,55,0,0
27099,-100,4,2,1,55,0,0
27202,-100,4,2,23,55,0,0
27616,-100,4,2,29,55,0,0
28030,-100,4,2,22,55,0,0
28237,-100,4,2,1,55,0,0
28444,-100,4,2,21,55,0,0
28754,-100,4,2,1,55,0,0
28858,-100,4,2,23,55,0,0
29065,-100,4,2,1,55,0,0
29271,-100,4,2,20,55,0,0
29478,-100,4,2,23,55,0,0
29892,-100,4,2,21,55,0,0
30306,-100,4,2,1,55,0,0
30513,-100,4,2,29,55,0,0
30927,-100,4,2,24,55,0,0
31133,-100,4,2,21,55,0,0
31340,-100,4,2,24,55,0,0
31547,-100,4,2,21,55,0,0
31961,-100,4,2,1,55,0,0
32168,-100,4,2,26,55,0,0
32375,-100,4,2,20,55,0,0
32789,-100,4,2,25,55,0,0
32996,-100,4,2,21,55,0,0
33202,-100,4,2,1,55,0,0
33409,-100,4,2,20,55,0,0
33616,-100,4,2,22,55,0,0
33720,-100,4,2,1,55,0,0
33823,-100,4,2,28,55,0,0
34030,-100,4,2,24,55,0,0
34237,-100,4,2,29,55,0,0
34444,-100,4,2,22,55,0,0
34651,-100,4,2,20,55,0,0
34858,-100,4,2,29,55,0,0
35065,-100,4,2,21,55,0,0
35478,-100,4,2,22,55,0,0
35685,-100,4,2,21,55,0,0
35892,-100,4,2,20,55,0,0
36099,-100,4,2,29,55,0,0
36513,-100,4,2,1,55,0,0
36720,-100,4,2,20,55,0,0
36927,-100,4,2,23,55,0,0
37030,-100,4,2,1,55,0,0
37133,-100,4,2,28,55,0,0
37340,-100,4,2,21,50,0,0
37547,-100,4,2,24,50,0,0
37754,-100,4,2,22,50,0,0
38168,-100,4,2,29,50,0,0
38375,-100,4,2,22,50,0,0
38582,-100,4,2,31,50,0,0
38789,-100,4,2,24,50,0,0
38996,-100,4,2,21,50,0,0
39409,-100,4,2,1,55,0,0
39616,-100,4,2,25,50,0,0
40237,-100,4,2,23,50,0,0
40754,-100,4,2,1,55,0,0
40858,-100,4,2,26,50,0,0
41065,-100,4,2,20,50,0,0
41271,-100,4,2,22,50,0,0
41478,-100,4,2,25,50,0,0
41685,-100,4,2,21,50,0,0
41996,-100,4,2,1,55,0,0
42099,-100,4,2,20,50,0,0
42306,-100,4,2,22,50,0,0
42720,-100,4,2,21,50,0,0
43133,-100,4,2,1,55,0,0
43340,-100,4,2,23,50,0,0
43547,-100,4,2,1,55,0,0
43754,-100,4,2,29,50,0,0
43961,-100,4,2,21,50,0,0
44168,-100,4,2,24,50,0,0
44375,-100,4,2,1,55,0,0
44582,-100,4,2,21,50,0,0
44789,-100,4,2,1,55,0,0
44996,-100,4,2,20,50,0,0
45202,-100,4,2,31,50,0,0
45409,-100,4,2,24,50,0,0
45616,-100,4,2,21,50,0,0
46030,-100,4,2,1,55,0,0
46237,-100,4,2,25,50,0,0
46444,-100,4,2,1,55,0,0
46651,-100,4,2,20,50,0,0
46858,-100,4,2,1,55,0,0
47065,-100,4,2,25,50,0,0
47271,-100,4,2,20,50,0,0
47685,-100,4,2,25,50,0,0
48099,-100,4,2,35,50,0,0
48306,-100,4,2,20,50,0,0
48513,-100,4,2,1,55,0,0
48720,-100,4,2,22,50,0,0
49754,-100,4,2,1,55,0,0
49961,-100,4,2,22,50,0,0
50271,-100,4,2,1,55,0,0
50375,-100,4,2,21,50,0,0
50582,-100,4,2,22,50,0,0
50996,-100,4,2,23,50,0,0
51409,-100,4,2,21,50,0,0
51616,-100,4,2,20,50,0,0
51823,-100,4,2,1,55,0,0
52030,-100,4,2,20,55,0,0
52858,-100,4,2,36,60,0,0
52961,-100,4,2,1,60,0,0
53065,-100,4,2,27,60,0,0
53168,-100,4,2,1,60,0,0
53271,-100,4,2,37,60,0,0
53375,-100,4,2,1,60,0,0
53478,-100,4,2,38,60,0,0
53582,-100,4,2,1,60,0,0
53685,-86.9565217391304,4,2,2,70,0,1
53892,-86.9565217391304,4,2,20,70,0,1
54306,-86.9565217391304,4,2,21,70,0,1
54720,-86.9565217391304,4,2,1,70,0,1
54927,-86.9565217391304,4,2,39,70,0,1
55133,-86.9565217391304,4,2,26,70,0,1
55547,-86.9565217391304,4,2,1,70,0,1
55754,-86.9565217391304,4,2,39,70,0,1
55961,-86.9565217391304,4,2,26,70,0,1
56375,-86.9565217391304,4,2,1,70,0,1
56996,-86.9565217391304,4,2,39,70,0,1
57202,-86.9565217391304,4,2,20,70,0,1
57616,-86.9565217391304,4,2,21,70,0,1
58030,-86.9565217391304,4,2,1,70,0,1
58237,-86.9565217391304,4,2,39,70,0,1
58444,-86.9565217391304,4,2,26,70,0,1
58858,-86.9565217391304,4,2,1,70,0,1
59065,-86.9565217391304,4,2,39,70,0,1
59271,-86.9565217391304,4,2,26,70,0,1
59685,-86.9565217391304,4,2,1,70,0,1
59892,-86.9565217391304,4,2,40,70,0,1
60099,-86.9565217391304,4,2,26,70,0,1
61754,-86.9565217391304,4,2,1,70,0,1
62996,-86.9565217391304,4,2,39,70,0,1
63202,-86.9565217391304,4,2,20,70,0,1
63409,-86.9565217391304,4,2,21,70,0,1
63616,-86.9565217391304,4,2,20,70,0,1
63823,-86.9565217391304,4,2,39,70,0,1
64237,-86.9565217391304,4,2,1,70,0,1
64651,-86.9565217391304,4,2,39,70,0,1
64858,-86.9565217391304,4,2,20,70,0,1
65065,-86.9565217391304,4,2,21,70,0,1
65271,-86.9565217391304,4,2,20,70,0,1
65685,-86.9565217391304,4,2,39,70,0,1
66099,-86.9565217391304,4,2,26,70,0,1
66306,-86.9565217391304,4,2,1,70,0,1
66513,-86.9565217391304,4,2,20,70,0,1
66720,-86.9565217391304,4,2,1,70,0,1
66927,-86.9565217391304,4,2,2,70,0,1
67237,-86.9565217391304,4,2,1,70,0,1
67340,-86.9565217391304,4,2,20,70,0,1
67547,-86.9565217391304,4,2,21,70,0,1
67961,-86.9565217391304,4,2,20,70,0,1
68168,-86.9565217391304,4,2,39,70,0,1
68375,-86.9565217391304,4,2,26,70,0,1
68789,-86.9565217391304,4,2,1,70,0,1
68996,-86.9565217391304,4,2,39,70,0,1
69202,-86.9565217391304,4,2,26,70,0,1
69616,-86.9565217391304,4,2,1,70,0,1
70237,-86.9565217391304,4,2,39,70,0,1
70444,-86.9565217391304,4,2,20,70,0,1
70858,-86.9565217391304,4,2,21,70,0,1
71271,-86.9565217391304,4,2,1,70,0,1
71478,-86.9565217391304,4,2,39,70,0,1
71685,-86.9565217391304,4,2,26,70,0,1
72099,-86.9565217391304,4,2,1,70,0,1
72306,-86.9565217391304,4,2,39,70,0,1
72513,-86.9565217391304,4,2,26,70,0,1
72927,-86.9565217391304,4,2,1,70,0,1
73133,-86.9565217391304,4,2,40,70,0,1
73340,-86.9565217391304,4,2,26,70,0,1
73444,-86.9565217391304,4,2,1,70,0,1
74996,-86.9565217391304,4,2,26,70,0,1
75202,-86.9565217391304,4,2,36,70,0,1
75409,-86.9565217391304,4,2,26,70,0,1
76237,-86.9565217391304,4,2,1,70,0,1
76444,-86.9565217391304,4,2,20,70,0,1
76651,-86.9565217391304,4,2,26,70,0,1
77685,-86.9565217391304,4,2,27,70,0,1
77892,-86.9565217391304,4,2,26,70,0,1
78306,-86.9565217391304,4,2,38,70,0,1
78513,-100,4,2,20,60,0,0
78720,-100,4,2,1,60,0,0
78927,-100,4,2,21,60,0,0
79133,-100,4,2,1,60,0,0
79340,-100,4,2,29,60,0,0
79547,-100,4,2,1,60,0,0
79754,-100,4,2,23,60,0,0
80375,-100,4,2,1,60,0,0
81616,-100,4,2,39,60,0,0
81823,-100,4,2,20,60,0,0
82030,-100,4,2,1,60,0,0
82237,-100,4,2,21,60,0,0
82444,-100,4,2,1,60,0,0
82651,-100,4,2,29,60,0,0
82961,-100,4,2,1,60,0,0
83065,-100,4,2,23,60,0,0
83271,-100,4,2,1,60,0,0
84927,-100,4,2,39,60,0,0
85133,-100,4,2,20,60,0,0
85340,-100,4,2,1,60,0,0
85547,-100,4,2,21,60,0,0
85754,-100,4,2,1,60,0,0
85961,-100,4,2,23,60,0,0
86271,-100,4,2,1,60,0,0
86375,-100,4,2,29,60,0,0

[Colours]
Combo1 : 230,169,128
Combo2 : 174,163,224
Combo3 : 124,160,216
Combo4 : 186,129,213

[HitObjects]
279,250,513,5,2,0:0:0:0:
201,234,720,2,0,L|201:63,1,150,2|2,0:0|0:0,0:0:0:0:
353,68,1547,1,2,0:0:0:0:
46,100,1961,5,2,0:0:0:0:
256,192,2375,12,0,3409,0:0:0:0:
231,232,3823,5,2,0:0:0:0:
311,234,4030,2,0,L|311:63,1,150,2|2,0:0|0:0,0:0:0:0:
159,68,4857,1,2,0:0:0:0:
466,100,5271,5,2,0:0:0:0:
256,192,5685,12,0,6719,0:0:0:0:
279,178,7133,5,2,0:0:0:0:
365,175,7340,2,0,L|364:76,1,75,2|0,0:0|0:0,0:0:0:0:
282,104,7754,2,0,L|181:105,1,75,2|0,0:0|0:0,0:0:0:0:
282,104,8168,2,0,L|281:21,1,75,2|0,0:0|0:0,0:0:0:0:
192,25,8582,1,2,0:0:0:0:
496,103,8996,5,2,0:0:0:0:
256,192,9409,12,0,10030,0:0:0:0:
335,181,10444,5,2,0:0:0:0:
412,172,10651,1,2,0:0:0:0:
492,148,10857,1,0,0:0:0:0:
492,77,11064,1,2,0:0:0:0:
411,53,11271,1,0,0:0:0:0:
330,60,11478,1,2,0:0:0:0:
16,126,11892,5,2,0:0:0:0:
256,192,12306,12,0,13547,0:0:0:0:
147,240,13961,6,0,L|143:56,1,150,0|0,3:0|3:0,0:0:0:0:
297,178,14789,2,0,L|298:17,1,150,0|0,3:0|3:0,0:0:0:0:
31,88,15616,6,0,L|163:89,1,75,2|2,3:2|0:0,0:0:0:0:
192,93,16030,2,0,L|194:187,1,75,2|2,3:2|0:0,0:0:0:0:
109,201,16444,2,0,L|109:115,1,75,2|2,3:2|0:0,0:0:0:0:
183,124,16858,2,0,L|100:126,1,75,2|2,3:2|0:0,0:0:0:0:
290,235,17271,6,0,L|475:237,1,150,2|0,3:2|3:0,0:0:0:0:
360,167,17892,2,0,L|261:165,1,75,2|2,0:0|3:2,0:0:0:0:
426,93,18513,6,0,L|430:-4,1,75,2|2,3:2|0:0,0:0:0:0:
271,77,19133,2,0,L|183:79,1,75,2|2,0:0|3:2,0:0:0:0:
353,218,19754,1,10,0:0:0:0:
397,215,19857,1,10,0:0:0:0:
432,188,19960,1,10,0:0:0:0:
444,145,20064,1,10,0:0:0:0:
431,103,20167,1,10,0:0:0:0:
395,77,20271,1,10,0:0:0:0:
351,75,20374,1,8,0:0:0:0:
166,112,20582,5,2,3:2:0:0:
315,130,20996,2,0,L|316:31,1,75,2|2,3:2|0:0,0:0:0:0:
166,326,21616,2,0,L|165:234,1,75,2|2,0:0|3:2,0:0:0:0:
327,192,22237,6,0,L|330:20,1,150,2|2,3:2|3:2,0:0:0:0:
250,42,22858,2,0,L|160:42,2,75,2|2|2,0:0|3:2|0:0,0:0:0:0:
339,41,23478,1,0,0:0:0:0:
339,78,23581,1,0,0:0:0:0:
339,116,23684,1,0,0:0:0:0:
156,194,23892,5,2,3:2:0:0:
312,168,24306,2,0,L|316:342,1,150,2|0,3:2|3:0,0:0:0:0:
178,286,25133,6,0,L|264:283,1,75,2|2,3:2|0:0,0:0:0:0:
397,256,25754,2,0,L|404:145,1,75,2|2,0:0|3:2,0:0:0:0:
99,251,26375,1,2,3:2:0:0:
63,248,26478,1,0,0:0:0:0:
44,217,26581,1,2,0:0:0:0:
58,184,26685,1,0,0:0:0:0:
94,178,26788,1,0,3:0:0:0:
285,158,26996,6,0,L|369:157,1,75,2|2,0:0|3:2,0:0:0:0:
221,107,27616,1,2,3:2:0:0:
372,127,28030,2,0,L|383:-32,1,150,2|2,3:2|3:2,0:0:0:0:
88,126,28858,5,2,3:2:0:0:
235,111,29271,2,0,L|340:113,1,75,2|2,3:2|0:0,0:0:0:0:
167,202,29892,2,0,L|58:201,1,75,2|2,0:0|3:2,0:0:0:0:
226,137,30513,6,0,L|390:138,1,150,2|2,3:2|3:2,0:0:0:0:
296,71,31133,1,2,0:0:0:0:
212,83,31340,2,0,L|211:-24,1,75,2|2,3:2|0:0,0:0:0:0:
426,137,32168,6,0,L|330:135,1,75,2|2,3:2|0:0,0:0:0:0:
207,182,32789,2,0,L|313:184,1,75,2|2,0:0|3:2,0:0:0:0:
361,121,33202,1,0,0:0:0:0:
276,90,33409,2,0,L|179:89,1,75,2|2,3:2|0:0,0:0:0:0:
389,181,33823,6,0,L|488:183,2,75,2|2|2,3:2|0:0|3:2,0:0:0:0:
302,252,34444,2,0,P|254:229|310:172,1,150,2|2,0:0|0:0,0:0:0:0:
390,155,35065,2,0,L|391:48,1,75,2|2,3:2|0:0,0:0:0:0:
200,71,35478,6,0,L|113:72,2,75,2|2|2,3:2|0:0|3:2,0:0:0:0:
290,73,36099,2,0,P|336:92|271:147,1,150,2|0,0:0|0:0,0:0:0:0:
208,207,36720,2,0,L|114:207,1,75,2|2,3:2|0:0,0:0:0:0:
210,122,37133,5,2,3:2:0:0:
287,116,37340,2,0,L|382:116,1,75,2|2,0:0|3:2,0:0:0:0:
287,116,37754,2,0,P|236:144|287:195,1,150,2|2,0:0|0:0,0:0:0:0:
363,193,38375,1,2,3:2:0:0:
280,152,38582,6,0,L|284:65,1,75,2|2,0:0|3:2,0:0:0:0:
364,56,38996,1,2,0:0:0:0:
439,54,39202,1,0,3:0:0:0:
284,230,39616,2,0,L|109:228,1,150,2|0,3:2|3:0,0:0:0:0:
213,164,40237,1,2,0:0:0:0:
292,138,40444,6,0,L|292:305,1,150,2|2,3:2|3:2,0:0:0:0:
210,285,41065,1,2,0:0:0:0:
357,153,41478,2,0,L|456:150,1,75,2|2,0:0|3:2,0:0:0:0:
274,91,42099,6,0,L|170:91,1,75,2|2,3:2|0:0,0:0:0:0:
356,65,42720,2,0,L|354:251,1,150,2|0,0:0|0:0,0:0:0:0:
273,243,43340,2,0,L|172:245,1,75,2|0,3:2|0:0,0:0:0:0:
349,148,43961,6,0,L|441:148,1,75,2|2,0:0|3:2,0:0:0:0:
271,92,44582,2,0,L|102:91,1,150,2|2,3:2|3:2,0:0:0:0:
206,159,45202,1,2,0:0:0:0:
294,134,45409,6,0,L|296:35,1,75,2|2,3:2|0:0,0:0:0:0:
70,77,46237,1,2,3:2:0:0:
220,143,46651,2,0,L|118:140,1,75,2|0,3:2|0:0,0:0:0:0:
328,230,47065,6,0,L|419:231,1,75,2|2,3:2|0:0,0:0:0:0:
274,217,47685,2,0,P|226:197|276:138,1,150,2|2,0:0|0:0,0:0:0:0:
350,139,48306,2,0,L|349:42,1,75,2|0,3:2|0:0,0:0:0:0:
165,72,48720,6,0,L|16:73,1,150,2|0,3:2|3:0,0:0:0:0:
197,213,49547,2,0,L|353:213,1,150,0|2,3:0|3:2,0:0:0:0:
14,183,50375,6,0,L|15:100,1,75,2|2,3:2|0:0,0:0:0:0:
167,114,50996,2,0,L|4:114,1,150,2|2,0:0|0:0,0:0:0:0:
96,184,51616,1,2,3:2:0:0:
403,110,52030,6,0,L|406:290,1,150,2|0,3:2|3:0,0:0:0:0:
257,220,52858,2,0,L|150:220,1,75,2|2,3:2|0:0,0:0:0:0:
257,220,53271,2,0,L|343:222,1,75,2|2,3:2|0:0,0:0:0:0:
134,141,53685,6,0,L|29:144,2,86.2500016450882,14|2|10,3:2|0:0|0:0,0:0:0:0:
226,105,54306,2,0,P|276:124|201:192,1,172.500003290176,2|0,0:0|0:0,0:0:0:0:
143,206,54927,1,10,0:0:0:0:
332,222,55133,6,0,L|331:26,1,172.500003290176,2|0,0:0|0:0,0:0:0:0:
243,39,55754,1,10,0:0:0:0:
430,196,55961,2,0,P|486:177|415:120,1,172.500003290176,2|0,0:0|0:0,0:0:0:0:
352,111,56582,1,8,0:0:0:0:
32,221,56996,6,0,L|226:223,1,172.500003290176,2|10,3:2|0:0,0:0:0:0:
123,295,57616,2,0,P|72:263|150:206,1,172.500003290176,2|0,0:0|0:0,0:0:0:0:
213,181,58237,1,10,0:0:0:0:
404,210,58444,6,0,L|404:27,1,172.500003290176,2|0,0:0|0:0,0:0:0:0:
319,31,59065,1,10,0:0:0:0:
129,172,59271,2,0,L|129:-6,1,172.500003290176,2|0,0:0|0:0,0:0:0:0:
216,7,59892,1,10,0:0:0:0:
306,10,60099,1,2,0:0:0:0:
117,193,60306,6,0,L|112:80,1,86.2500016450882,4|0,3:2|0:0,0:0:0:0:
202,69,60720,1,8,0:0:0:0:
293,116,60927,2,0,L|291:14,1,86.2500016450882,0|0,0:0|3:0,0:0:0:0:
202,69,61340,2,0,L|195:-40,1,86.2500016450882,0|8,0:0|0:0,0:0:0:0:
387,42,61754,6,0,L|486:42,2,86.2500016450882,0|0|0,0:0|3:0|0:0,0:0:0:0:
308,201,62375,2,0,L|308:96,1,86.2500016450882,8|2,0:0|0:0,0:0:0:0:
395,88,62789,1,0,3:0:0:0:
209,134,62996,2,0,L|111:134,2,86.2500016450882,2|10|2,0:0|0:0|0:0,0:0:0:0:
296,130,63616,5,2,3:2:0:0:
111,242,63823,2,0,P|63:224|131:158,1,172.500003290176,2|0,0:0|0:0,0:0:0:0:
206,139,64444,1,0,3:0:0:0:
394,157,64651,2,0,L|495:156,2,86.2500016450882,2|10|2,0:0|0:0|0:0,0:0:0:0:
207,149,65271,6,0,L|12:144,1,172.500003290176,2|10,3:2|0:0,0:0:0:0:
351,226,66099,2,0,L|351:35,1,172.500003290176,6|14,3:2|0:0,0:0:0:0:
259,37,66720,1,0,0:0:0:0:
76,182,66927,6,0,L|78:83,1,86.2500016450882,14|0,3:2|0:0,0:0:0:0:
165,58,67340,1,10,0:0:0:0:
255,56,67547,2,0,L|444:57,1,172.500003290176,2|2,0:0|0:0,0:0:0:0:
339,114,68168,1,10,0:0:0:0:
155,196,68375,6,0,P|103:179|172:109,1,172.500003290176,2|0,0:0|0:0,0:0:0:0:
236,87,68996,1,10,0:0:0:0:
422,205,69202,2,0,P|479:182|408:124,1,172.500003290176,2|0,0:0|0:0,0:0:0:0:
341,114,69823,2,0,L|445:115,1,86.2500016450882,8|0,0:0|0:0,0:0:0:0:
241,206,70237,6,0,L|151:206,2,86.2500016450882,2|2|10,3:2|0:0|0:0,0:0:0:0:
331,218,70858,2,0,P|389:182|320:131,1,172.500003290176,2|0,0:0|0:0,0:0:0:0:
243,123,71478,1,10,0:0:0:0:
57,174,71685,6,0,L|60:-7,1,172.500003290176,2|0,0:0|0:0,0:0:0:0:
156,19,72306,1,10,0:0:0:0:
346,147,72513,2,0,P|391:127|314:60,1,172.500003290176,2|0,0:0|0:0,0:0:0:0:
251,50,73133,1,10,0:0:0:0:
341,46,73340,1,2,0:0:0:0:
161,159,73547,6,0,L|159:38,1,86.2500016450882,4|0,3:2|0:0,0:0:0:0:
251,50,73961,2,0,L|345:50,1,86.2500016450882,8|0,0:0|0:0,0:0:0:0:
251,50,74375,2,0,L|132:49,2,86.2500016450882,0|2|8,3:0|0:0|0:0,0:0:0:0:
341,50,74996,1,2,0:0:0:0:
157,162,75202,6,0,L|157:62,1,86.2500016450882,2|2,3:2|0:0,0:0:0:0:
341,50,75616,2,0,P|431:75|341:143,1,258.750004935265,10|2,0:0|0:0,0:0:0:0:
256,142,76444,1,10,0:0:0:0:
344,137,76651,1,2,0:0:0:0:
156,191,76858,6,0,L|154:78,1,86.2500016450882,0|0,3:0|0:0,0:0:0:0:
242,82,77271,2,0,L|242:-27,1,86.2500016450882,8|0,0:0|0:0,0:0:0:0:
149,24,77685,2,0,L|40:26,2,86.2500016450882,2|2|10,3:2|0:0|0:0,0:0:0:0:
238,20,78306,1,2,0:0:0:0:
402,138,78513,6,0,L|401:52,1,75,6|0,3:2|0:0,0:0:0:0:
210,70,78927,2,0,L|119:73,1,75,14|0,0:0|0:0,0:0:0:0:
214,137,79340,2,0,L|306:134,1,75,2|0,3:2|0:0,0:0:0:0:
100,257,79754,6,0,P|62:243|110:168,1,150,10|0,0:0|3:0,0:0:0:0:
177,155,80375,1,2,0:0:0:0:
264,149,80582,2,0,L|265:50,1,75,8|0,0:0|0:0,0:0:0:0:
178,62,80996,2,0,L|174:-33,1,75,0|2,3:0|0:0,0:0:0:0:
255,9,81409,1,8,0:0:0:0:
177,62,81616,1,2,0:0:0:0:
340,98,81823,6,0,L|340:12,1,75,6|0,3:2|0:0,0:0:0:0:
150,212,82237,2,0,L|149:120,1,75,14|0,0:0|0:0,0:0:0:0:
233,111,82651,2,0,L|325:111,1,75,2|0,3:2|0:0,0:0:0:0:
118,278,83065,6,0,P|77:253|140:194,1,150,10|0,0:0|3:0,0:0:0:0:
203,182,83685,1,0,0:0:0:0:
291,186,83892,2,0,L|291:90,1,75,8|0,0:0|0:0,0:0:0:0:
203,99,84306,2,0,L|203:-6,1,75,0|2,3:0|0:0,0:0:0:0:
290,25,84720,2,0,L|393:25,1,75,8|2,0:0|0:0,0:0:0:0:
186,242,85133,6,0,L|186:147,1,75,6|0,3:2|0:0,0:0:0:0:
370,123,85547,2,0,L|473:123,1,75,14|0,0:0|0:0,0:0:0:0:
368,188,85961,2,0,L|276:189,1,75,2|0,3:2|0:0,0:0:0:0:
480,212,86375,2,0,L|480:103,1,75,14|0,3:2|0:0,0:0:0:0:
394,116,86789,6,0,L|290:111,1,75,0|0,3:0|0:0,0:0:0:0:
410,55,87202,2,0,L|413:-27,1,75,8|0,0:0|0:0,0:0:0:0:
320,22,87616,2,0,L|416:22,2,75,0|0|8,3:0|0:0|0:0,0:0:0:0:
130,142,88237,5,0,0:0:0:0:
