osu file format v14

[General]
AudioFilename: audio.mp3
AudioLeadIn: 0
PreviewTime: 52858
Countdown: 0
SampleSet: Soft
StackLeniency: 0.4
Mode: 2
LetterboxInBreaks: 0
WidescreenStoryboard: 0

[Editor]
DistanceSpacing: 1
BeatDivisor: 4
GridSize: 32
TimelineZoom: 1.8

[Metadata]
Title:My Soul, Your Beats! (TV Size)
TitleUnicode:My Soul, Your Beats! (TV Size)
Artist:Lia
ArtistUnicode:Lia
Creator:Secre
Version:Goodbye
Source:Angel Beats!
Tags:chickenbible Petal Matha エンジェルビーツ anime op opening japanese tenshi Key J-pop Jpop pop 麻枝准 Maeda Jun オープニングテーマ Kanade Tachibana 立華 かなで 音無 結弦 Yuzuru Otonashi Yuri Nakamura 仲村 ゆり
BeatmapID:3225132
BeatmapSetID:1579507

[Difficulty]
HPDrainRate:5
CircleSize:3.8
OverallDifficulty:7.4
ApproachRate:7.4
SliderMultiplier:1.6
SliderTickRate:2

[Events]
//Background and Video events
0,0,"holo en white haired girl WHEN shork doesnt count.jpg",0,0
//Break Periods
//Storyboard Layer 0 (Background)
//Storyboard Layer 1 (Fail)
//Storyboard Layer 2 (Pass)
//Storyboard Layer 3 (Foreground)
//Storyboard Layer 4 (Overlay)
//Storyboard Sound Samples

[TimingPoints]
-935,413.793103448276,4,2,1,45,1,0
513,-100,4,2,20,45,0,0
720,-100,4,2,21,45,0,0
927,-100,4,2,1,45,0,0
1133,-100,4,2,22,45,0,0
1340,-100,4,2,1,45,0,0
1547,-100,4,2,23,45,0,0
1754,-100,4,2,30,45,0,0
1961,-100,4,2,24,45,0,0
2168,-100,4,2,1,45,0,0
3823,-100,4,2,20,45,0,0
4030,-100,4,2,21,45,0,0
4237,-100,4,2,1,45,0,0
4444,-100,4,2,22,45,0,0
4651,-100,4,2,1,45,0,0
4858,-100,4,2,23,45,0,0
5065,-100,4,2,30,45,0,0
5271,-100,4,2,24,45,0,0
5478,-100,4,2,1,45,0,0
7133,-100,4,2,20,45,0,0
7340,-100,4,2,21,45,0,0
7547,-100,4,2,1,45,0,0
7754,-100,4,2,22,45,0,0
7961,-100,4,2,1,45,0,0
8168,-100,4,2,21,45,0,0
8375,-100,4,2,1,45,0,0
8582,-100,4,2,25,45,0,0
8789,-100,4,2,1,45,0,0
8996,-100,4,2,26,45,0,0
9202,-100,4,2,1,45,0,0
10444,-100,4,2,20,45,0,0
10651,-100,4,2,21,45,0,0
10858,-100,4,2,1,45,0,0
11065,-100,4,2,22,45,0,0
11271,-100,4,2,1,45,0,0
11478,-100,4,2,24,45,0,0
11685,-100,4,2,1,45,0,0
11892,-100,4,2,23,45,0,0
12099,-100,4,2,1,45,0,0
13961,-100,4,2,1,45,0,0
14789,-100,4,2,1,45,0,0
15616,-100,4,2,20,55,0,0
17892,-100,4,2,21,55,0,0
18306,-100,4,2,1,55,0,0
18513,-100,4,2,22,55,0,0
18720,-100,4,2,21,55,0,0
19133,-100,4,2,25,55,0,0
19340,-100,4,2,27,55,0,0
19547,-100,4,2,1,55,0,0
19754,-100,4,2,23,45,0,0
19858,-100,4,2,31,45,0,0
19961,-100,4,2,30,45,0,0
20065,-100,4,2,32,45,0,0
20168,-100,4,2,33,45,0,0
20271,-100,4,2,34,45,0,0
20582,-100,4,2,28,55,0,0
20789,-100,4,2,24,55,0,0
20996,-100,4,2,20,55,0,0
21202,-100,4,2,23,55,0,0
21616,-100,4,2,21,55,0,0
21823,-100,4,2,24,55,0,0
22133,-100,4,2,1,55,0,0
22237,-100,4,2,22,55,0,0
22444,-100,4,2,21,55,0,0
22651,-100,4,2,20,55,0,0
22858,-100,4,2,29,55,0,0
23065,-100,4,2,24,55,0,0
23271,-100,4,2,21,55,0,0
23685,-100,4,2,1,55,0,0
23892,-100,4,2,25,55,0,0
24099,-100,4,2,24,55,0,0
24306,-100,4,2,29,55,0,0
24513,-100,4,2,22,55,0,0
24927,-100,4,2,29,55,0,0
25133,-100,4,2,26,55,0,0
25340,-100,4,2,20,55,0,0
25754,-100,4,2,25,55,0,0
25961,-100,4,2,21,55,0,0
26168,-100,4,2,1,55,0,0
26375,-100,4,2,20,55,0,0
26582,-100,4,2,22,55,0,0
26892,-100,4,2,1,55,0,0
26996,-100,4,2,23,55,0,0
27099,-100,4,2,1,55,0,0
27202,-100,4,2,23,55,0,0
27616,-100,4,2,29,55,0,0
28030,-100,4,2,22,55,0,0
28237,-100,4,2,1,55,0,0
28444,-100,4,2,21,55,0,0
28754,-100,4,2,1,55,0,0
28858,-100,4,2,23,55,0,0
29065,-100,4,2,1,55,0,0
29271,-100,4,2,20,55,0,0
29478,-100,4,2,23,55,0,0
29892,-100,4,2,21,55,0,0
30306,-100,4,2,1,55,0,0
30513,-100,4,2,29,55,0,0
30927,-100,4,2,24,55,0,0
31133,-100,4,2,21,55,0,0
31340,-100,4,2,24,55,0,0
31547,-100,4,2,21,55,0,0
31961,-100,4,2,1,55,0,0
32168,-100,4,2,26,55,0,0
32375,-100,4,2,20,55,0,0
32789,-100,4,2,25,55,0,0
32996,-100,4,2,21,55,0,0
33202,-100,4,2,1,55,0,0
33409,-100,4,2,20,55,0,0
33616,-100,4,2,22,55,0,0
33720,-100,4,2,1,55,0,0
33823,-100,4,2,28,55,0,0
34030,-100,4,2,24,55,0,0
34237,-100,4,2,29,55,0,0
34444,-100,4,2,22,55,0,0
34651,-100,4,2,20,55,0,0
34858,-100,4,2,29,55,0,0
35065,-100,4,2,21,55,0,0
35478,-100,4,2,22,55,0,0
35685,-100,4,2,21,55,0,0
35892,-100,4,2,20,55,0,0
36099,-100,4,2,29,55,0,0
36513,-100,4,2,1,55,0,0
36720,-100,4,2,20,55,0,0
36927,-100,4,2,23,55,0,0
37030,-100,4,2,1,55,0,0
37133,-100,4,2,28,55,0,0
37340,-100,4,2,21,50,0,0
37547,-100,4,2,24,50,0,0
37754,-100,4,2,22,50,0,0
38168,-100,4,2,29,50,0,0
38375,-100,4,2,22,50,0,0
38582,-100,4,2,31,50,0,0
38789,-100,4,2,24,50,0,0
38996,-100,4,2,21,50,0,0
39409,-100,4,2,1,55,0,0
39616,-100,4,2,25,50,0,0
40237,-100,4,2,23,50,0,0
40754,-100,4,2,1,55,0,0
40858,-100,4,2,26,50,0,0
41065,-100,4,2,20,50,0,0
41271,-100,4,2,22,50,0,0
41478,-100,4,2,25,50,0,0
41685,-100,4,2,21,50,0,0
41996,-100,4,2,1,55,0,0
42099,-100,4,2,20,50,0,0
42306,-100,4,2,22,50,0,0
42720,-100,4,2,21,50,0,0
43133,-100,4,2,1,55,0,0
43340,-100,4,2,23,50,0,0
43547,-100,4,2,1,55,0,0
43754,-100,4,2,29,50,0,0
43961,-100,4,2,21,50,0,0
44168,-100,4,2,24,50,0,0
44375,-100,4,2,1,55,0,0
44582,-100,4,2,21,50,0,0
44789,-100,4,2,1,55,0,0
44996,-100,4,2,20,50,0,0
45202,-100,4,2,31,50,0,0
45409,-100,4,2,24,50,0,0
45616,-100,4,2,21,50,0,0
46030,-100,4,2,1,55,0,0
46237,-100,4,2,25,50,0,0
46444,-100,4,2,1,55,0,0
46651,-100,4,2,20,50,0,0
46858,-100,4,2,1,55,0,0
47065,-100,4,2,25,50,0,0
47271,-100,4,2,20,50,0,0
47685,-100,4,2,25,50,0,0
48099,-100,4,2,35,50,0,0
48306,-100,4,2,20,50,0,0
48513,-100,4,2,1,55,0,0
48720,-100,4,2,22,50,0,0
49754,-100,4,2,1,55,0,0
49961,-100,4,2,22,50,0,0
50271,-100,4,2,1,55,0,0
50375,-100,4,2,21,50,0,0
50582,-100,4,2,22,50,0,0
50996,-100,4,2,23,50,0,0
51409,-100,4,2,21,50,0,0
51616,-100,4,2,20,50,0,0
51823,-100,4,2,1,55,0,0
52030,-100,4,2,20,55,0,0
52858,-100,4,2,36,60,0,0
52961,-100,4,2,1,60,0,0
53065,-100,4,2,27,60,0,0
53168,-100,4,2,1,60,0,0
53271,-100,4,2,37,60,0,0
53375,-100,4,2,1,60,0,0
53478,-100,4,2,38,60,0,0
53582,-100,4,2,1,60,0,0
53685,-76.9230769230769,4,2,2,70,0,1
53892,-76.9230769230769,4,2,20,70,0,1
54306,-76.9230769230769,4,2,21,70,0,1
54720,-76.9230769230769,4,2,1,70,0,1
54927,-76.9230769230769,4,2,39,70,0,1
55133,-76.9230769230769,4,2,26,70,0,1
55547,-76.9230769230769,4,2,1,70,0,1
55754,-76.9230769230769,4,2,39,70,0,1
55961,-76.9230769230769,4,2,26,70,0,1
56375,-76.9230769230769,4,2,1,70,0,1
56996,-76.9230769230769,4,2,39,70,0,1
57202,-76.9230769230769,4,2,20,70,0,1
57616,-76.9230769230769,4,2,21,70,0,1
58030,-76.9230769230769,4,2,1,70,0,1
58237,-76.9230769230769,4,2,39,70,0,1
58444,-76.9230769230769,4,2,26,70,0,1
58858,-76.9230769230769,4,2,1,70,0,1
59065,-76.9230769230769,4,2,39,70,0,1
59271,-76.9230769230769,4,2,26,70,0,1
59685,-76.9230769230769,4,2,1,70,0,1
59892,-76.9230769230769,4,2,40,70,0,1
60099,-76.9230769230769,4,2,26,70,0,1
61754,-76.9230769230769,4,2,1,70,0,1
62996,-76.9230769230769,4,2,39,70,0,1
63202,-76.9230769230769,4,2,20,70,0,1
63409,-76.9230769230769,4,2,21,70,0,1
63616,-76.9230769230769,4,2,20,70,0,1
63823,-76.9230769230769,4,2,39,70,0,1
64237,-76.9230769230769,4,2,1,70,0,1
64651,-76.9230769230769,4,2,39,70,0,1
64858,-76.9230769230769,4,2,20,70,0,1
65065,-76.9230769230769,4,2,21,70,0,1
65271,-76.9230769230769,4,2,20,70,0,1
65685,-76.9230769230769,4,2,39,70,0,1
66099,-76.9230769230769,4,2,26,70,0,1
66306,-76.9230769230769,4,2,1,70,0,1
66513,-76.9230769230769,4,2,20,70,0,1
66720,-76.9230769230769,4,2,1,70,0,1
66927,-76.9230769230769,4,2,2,70,0,1
67237,-76.9230769230769,4,2,1,70,0,1
67340,-76.9230769230769,4,2,20,70,0,1
67547,-76.9230769230769,4,2,21,70,0,1
67961,-76.9230769230769,4,2,20,70,0,1
68168,-76.9230769230769,4,2,39,70,0,1
68375,-76.9230769230769,4,2,26,70,0,1
68789,-76.9230769230769,4,2,1,70,0,1
68996,-76.9230769230769,4,2,39,70,0,1
69202,-76.9230769230769,4,2,26,70,0,1
69616,-76.9230769230769,4,2,1,70,0,1
70237,-76.9230769230769,4,2,39,70,0,1
70444,-76.9230769230769,4,2,20,70,0,1
70858,-76.9230769230769,4,2,21,70,0,1
71271,-76.9230769230769,4,2,1,70,0,1
71478,-76.9230769230769,4,2,39,70,0,1
71685,-76.9230769230769,4,2,26,70,0,1
72099,-76.9230769230769,4,2,1,70,0,1
72306,-76.9230769230769,4,2,39,70,0,1
72513,-76.9230769230769,4,2,26,70,0,1
72927,-76.9230769230769,4,2,1,70,0,1
73133,-76.9230769230769,4,2,40,70,0,1
73340,-76.9230769230769,4,2,26,70,0,1
73444,-76.9230769230769,4,2,1,70,0,1
74996,-76.9230769230769,4,2,26,70,0,1
75202,-76.9230769230769,4,2,36,70,0,1
75409,-76.9230769230769,4,2,26,70,0,1
76237,-76.9230769230769,4,2,1,70,0,1
76444,-76.9230769230769,4,2,20,70,0,1
76651,-76.9230769230769,4,2,26,70,0,1
77685,-76.9230769230769,4,2,27,70,0,1
77892,-76.9230769230769,4,2,26,70,0,1
78306,-76.9230769230769,4,2,38,70,0,1
78513,-100,4,2,20,60,0,0
78720,-100,4,2,1,60,0,0
78927,-100,4,2,21,60,0,0
79133,-100,4,2,1,60,0,0
79340,-100,4,2,29,60,0,0
79547,-100,4,2,1,60,0,0
79754,-100,4,2,23,60,0,0
80375,-100,4,2,1,60,0,0
81616,-100,4,2,39,60,0,0
81823,-100,4,2,20,60,0,0
82030,-100,4,2,1,60,0,0
82237,-100,4,2,21,60,0,0
82444,-100,4,2,1,60,0,0
82651,-100,4,2,29,60,0,0
82961,-100,4,2,1,60,0,0
83065,-100,4,2,23,60,0,0
83271,-100,4,2,1,60,0,0
84927,-100,4,2,39,60,0,0
85133,-100,4,2,20,60,0,0
85340,-100,4,2,1,60,0,0
85547,-100,4,2,21,60,0,0
85754,-100,4,2,1,60,0,0
85961,-100,4,2,23,60,0,0
86271,-100,4,2,1,60,0,0
86375,-100,4,2,29,60,0,0

[Colours]
Combo1 : 230,169,128
Combo2 : 174,163,224
Combo3 : 124,160,216
Combo4 : 186,129,213

[HitObjects]
356,168,513,5,2,0:0:0:0:
180,181,720,2,0,L|174:68,1,80,2|0,0:0|0:0,0:0:0:0:
278,90,1133,2,0,L|283:-2,1,80,2|0,0:0|0:0,0:0:0:0:
104,144,1547,2,0,L|100:31,1,80,2|2,0:0|0:0,0:0:0:0:
283,26,1961,5,2,0:0:0:0:
256,192,2168,12,0,3409,0:0:0:0:
142,166,3823,5,2,0:0:0:0:
318,177,4030,2,0,L|324:64,1,80,2|0,0:0|0:0,0:0:0:0:
231,89,4444,2,0,L|226:-3,1,80,2|0,0:0|0:0,0:0:0:0:
403,143,4858,2,0,L|407:30,1,80,2|2,0:0|0:0,0:0:0:0:
229,26,5271,5,2,0:0:0:0:
256,192,5478,12,0,6719,0:0:0:0:
311,146,7133,5,2,0:0:0:0:
134,158,7340,2,0,P|126:96|150:68,1,80,2|0,0:0|0:0,0:0:0:0:
310,60,7754,2,0,L|422:59,1,80,2|0,0:0|0:0,0:0:0:0:
216,47,8168,2,0,L|206:162,1,80,2|0,0:0|0:0,0:0:0:0:
385,178,8582,1,2,0:0:0:0:
66,180,8996,5,2,0:0:0:0:
256,192,9202,12,0,10030,0:0:0:0:
148,151,10444,5,2,0:0:0:0:
322,77,10651,2,0,L|327:194,1,80,2|0,0:0|0:0,0:0:0:0:
148,151,11065,2,0,L|53:152,1,80,2|0,0:0|0:0,0:0:0:0:
249,237,11478,2,0,L|350:239,1,80,2|0,0:0|0:0,0:0:0:0:
57,148,11892,5,2,0:0:0:0:
256,192,12099,12,0,13547,0:0:0:0:
167,253,13961,6,0,L|164:141,1,80,0|2,3:0|0:0,0:0:0:0:
260,147,14375,2,0,L|263:60,1,80,0|2,3:0|0:0,0:0:0:0:
435,148,14789,2,0,L|439:52,1,80,0|2,3:0|0:0,0:0:0:0:
260,147,15202,2,0,L|260:49,1,80,0|2,3:0|0:0,0:0:0:0:
79,169,15616,6,0,L|188:170,3,80,2|2|2|2,3:2|0:0|3:2|0:0,0:0:0:0:
345,173,16444,2,0,L|247:174,3,80,2|2|2|2,3:2|0:0|3:2|0:0,0:0:0:0:
85,102,17271,6,0,L|6:103,2,80,2|0|0,3:2|0:0|3:0,0:0:0:0:
271,100,17892,2,0,L|387:102,1,80,2|2,0:0|3:2,0:0:0:0:
190,175,18513,2,0,L|95:177,1,80,2|2,3:2|0:0,0:0:0:0:
261,99,19133,5,2,0:0:0:0:
97,101,19340,2,0,L|94:16,1,80,2|0,3:2|0:0,0:0:0:0:
239,161,19754,1,10,0:0:0:0:
294,157,19858,1,10,0:0:0:0:
239,161,19961,1,10,0:0:0:0:
239,161,20065,1,10,0:0:0:0:
294,157,20168,1,10,0:0:0:0:
348,156,20271,1,10,0:0:0:0:
294,157,20375,1,8,0:0:0:0:
139,222,20582,6,0,L|134:118,1,80,2|2,3:2|0:0,0:0:0:0:
289,100,20996,1,2,3:2:0:0:
129,117,21202,2,0,P|82:91|153:31,1,160,2|2,0:0|0:0,0:0:0:0:
314,167,21823,2,0,L|418:168,1,80,2|0,3:2|0:0,0:0:0:0:
211,236,22237,6,0,L|107:241,2,80,2|2|2,3:2|0:0|3:2,0:0:0:0:
395,184,22858,2,0,L|289:185,2,80,2|2|2,0:0|3:2|0:0,0:0:0:0:
216,112,23478,2,0,L|156:110,2,40
386,172,23892,6,0,L|385:70,1,80,2|2,3:2|0:0,0:0:0:0:
304,76,24306,1,2,3:2:0:0:
138,197,24513,2,0,P|91:182|152:123,1,160,2|2,0:0|0:0,0:0:0:0:
306,126,25133,2,0,L|408:124,1,80,2|2,3:2|0:0,0:0:0:0:
239,215,25754,6,0,L|143:218,1,80,2|2,0:0|3:2,0:0:0:0:
312,133,26375,1,2,3:2:0:0:
368,132,26478,1,0,0:0:0:0:
312,133,26582,1,2,0:0:0:0:
256,136,26685,1,0,0:0:0:0:
312,133,26789,1,0,3:0:0:0:
386,131,26996,1,2,0:0:0:0:
205,233,27202,6,0,P|162:220|220:149,1,160,2|2,3:2|3:2,0:0:0:0:
501,167,28030,2,0,L|320:164,2,160,2|2|2,3:2|3:2|3:2,0:0:0:0:
196,177,29271,6,0,L|95:178,2,80,2|2|0,3:2|0:0|3:0,0:0:0:0:
248,124,29789,1,0,0:0:0:0:
301,115,29892,1,2,0:0:0:0:
221,75,30099,1,2,3:2:0:0:
170,75,30202,1,0,0:0:0:0:
221,75,30306,1,0,0:0:0:0:
404,208,30513,6,0,L|406:105,1,80,2|0,3:2|0:0,0:0:0:0:
324,107,30927,1,2,3:2:0:0:
139,220,31133,2,0,L|137:112,1,80,2|2,0:0|3:2,0:0:0:0:
308,110,31547,1,2,0:0:0:0:
388,119,31754,2,0,L|394:9,1,80,0|0,3:0|0:0,0:0:0:0:
208,56,32168,6,0,L|93:55,1,80,2|2,3:2|0:0,0:0:0:0:
269,142,32789,2,0,L|378:140,1,80,2|2,0:0|3:2,0:0:0:0:
301,90,33099,1,0,0:0:0:0:
254,87,33202,1,0,0:0:0:0:
160,77,33409,1,2,3:2:0:0:
107,78,33513,1,0,0:0:0:0:
160,77,33616,1,2,0:0:0:0:
428,227,33823,6,0,L|507:228,2,80,2|2|2,3:2|0:0|3:2,0:0:0:0:
243,269,34444,2,0,P|197:248|258:183,1,160,2|2,0:0|0:0,0:0:0:0:
411,170,35065,2,0,L|301:171,1,80,2|2,3:2|0:0,0:0:0:0:
159,157,35478,6,0,L|277:156,2,80,2|2|2,3:2|0:0|3:2,0:0:0:0:
103,127,35996,1,0,0:0:0:0:
55,124,36099,1,2,0:0:0:0:
103,127,36202,1,0,0:0:0:0:
151,104,36306,1,0,0:0:0:0:
199,103,36409,1,0,0:0:0:0:
151,104,36513,1,0,0:0:0:0:
322,200,36720,6,0,L|434:196,2,80,2|2|2,3:2|0:0|3:2,0:0:0:0:
140,189,37340,2,0,L|135:83,1,80,2|2,0:0|3:2,0:0:0:0:
234,71,37754,2,0,L|321:70,1,80,2|0,0:0|3:0,0:0:0:0:
141,9,38168,2,0,L|245:8,1,80,2|2,0:0|3:2,0:0:0:0:
401,153,38582,6,0,L|481:154,2,80,2|2|2,0:0|3:2|0:0,0:0:0:0:
229,153,39202,2,0,L|126:152,1,80,0|0,3:0|0:0,0:0:0:0:
334,228,39616,2,0,P|386:201|309:152,1,160,2|0,3:2|3:0,0:0:0:0:
249,136,40237,1,2,0:0:0:0:
410,154,40444,6,0,L|411:49,1,80,2|0,3:2|0:0,0:0:0:0:
227,58,40858,2,0,L|128:60,1,80,2|2,3:2|0:0,0:0:0:0:
324,134,41271,1,2,3:2:0:0:
358,119,41374,1,0,0:0:0:0:
360,81,41477,1,2,0:0:0:0:
326,64,41581,1,0,0:0:0:0:
278,68,41685,2,0,L|162:68,1,80,2|0,3:2|0:0,0:0:0:0:
375,30,42099,6,0,L|492:29,2,80,2|2|0,3:2|0:0|3:0,0:0:0:0:
192,226,42720,2,0,L|368:221,1,160,2|0,0:0|0:0,0:0:0:0:
164,136,43340,2,0,L|154:39,1,80,2|0,3:2|0:0,0:0:0:0:
251,26,43754,5,2,3:2:0:0:
432,45,43961,2,0,L|435:137,1,80,2|2,0:0|3:2,0:0:0:0:
348,151,44375,1,0,0:0:0:0:
168,100,44582,2,0,L|65:101,1,80,2|0,3:2|0:0,0:0:0:0:
263,176,44996,2,0,L|265:68,1,80,2|2,3:2|0:0,0:0:0:0:
81,119,45409,6,0,L|73:10,1,80,2|2,3:2|0:0,0:0:0:0:
171,20,45823,1,0,0:0:0:0:
488,63,46237,2,0,L|493:172,1,80,2|0,3:2|0:0,0:0:0:0:
323,207,46651,1,2,3:2:0:0:
371,166,46754,1,0,0:0:0:0:
420,145,46858,1,0,0:0:0:0:
137,138,47065,6,0,L|35:135,2,80,2|2|0,3:2|0:0|3:0,0:0:0:0:
317,216,47685,2,0,P|365:201|296:147,1,160,2|2,0:0|0:0,0:0:0:0:
140,147,48306,2,0,L|132:34,1,80,2|0,3:2|0:0,0:0:0:0:
422,141,48720,6,0,L|422:47,1,80,2|0,3:2|0:0,0:0:0:0:
318,56,49133,2,0,L|232:60,1,80,0|0,3:0|0:0,0:0:0:0:
406,52,49547,1,0,3:0:0:0:
497,81,49753,1,2,0:0:0:0:
406,52,49961,1,2,3:2:0:0:
497,81,50167,1,0,0:0:0:0:
221,170,50375,6,0,L|122:172,2,80,2|2|0,3:2|0:0|3:0,0:0:0:0:
401,302,50996,2,0,P|449:279|375:226,1,160,2|2,0:0|0:0,0:0:0:0:
219,144,51616,2,0,L|115:141,1,80,2|0,3:2|0:0,0:0:0:0:
435,157,52030,6,0,L|437:59,1,80,2|0,3:2|0:0,0:0:0:0:
351,64,52444,2,0,L|444:63,1,80,0|2,3:0|0:0,0:0:0:0:
162,85,52858,2,0,L|66:86,1,80,2|2,3:2|0:0,0:0:0:0:
356,184,53271,2,0,L|466:178,1,80,2|2,3:2|0:0,0:0:0:0:
158,175,53685,6,0,L|40:133,2,103.999995239258,14|2|10,3:2|0:0|0:0,0:0:0:0:
339,262,54306,2,0,P|408:237|326:178,1,207.999990478516,2|0,0:0|0:0,0:0:0:0:
251,177,54927,1,10,0:0:0:0:
60,126,55133,6,0,L|287:126,1,207.999990478516,2|0,0:0|0:0,0:0:0:0:
171,49,55754,1,10,0:0:0:0:
350,65,55961,2,0,P|413:85|324:158,1,207.999990478516,2|0,0:0|0:0,0:0:0:0:
260,212,56582,2,0,L|374:172,1,103.999995239258,8|0,0:0|0:0,0:0:0:0:
88,170,56996,6,0,L|88:52,1,103.999995239258,2|2,3:2|0:0,0:0:0:0:
196,30,57409,1,10,0:0:0:0:
378,85,57616,2,0,L|160:89,1,207.999990478516,2|0,0:0|0:0,0:0:0:0:
277,144,58237,1,10,0:0:0:0:
100,200,58444,6,0,P|42:183|122:105,1,207.999990478516,2|0,0:0|0:0,0:0:0:0:
205,85,59065,1,10,0:0:0:0:
381,208,59271,2,0,L|152:209,1,207.999990478516,2|0,0:0|0:0,0:0:0:0:
279,144,59892,1,10,0:0:0:0:
385,143,60099,1,2,0:0:0:0:
102,213,60306,6,0,L|98:99,1,103.999995239258,4|0,3:2|0:0,0:0:0:0:
191,82,60720,1,8,0:0:0:0:
99,110,60927,2,0,L|95:-12,1,103.999995239258,0|0,0:0|3:0,0:0:0:0:
192,185,61340,2,0,L|190:72,1,103.999995239258,0|8,0:0|0:0,0:0:0:0:
12,205,61754,1,0,0:0:0:0:
115,205,61960,5,0,3:0:0:0:
219,205,62167,1,0,0:0:0:0:
119,150,62375,2,0,L|115:25,1,103.999995239258,8|2,0:0|0:0,0:0:0:0:
223,30,62789,1,0,3:0:0:0:
405,160,62996,2,0,L|411:47,1,103.999995239258,2|10,0:0|0:0,0:0:0:0:
321,43,63409,1,2,0:0:0:0:
143,127,63616,5,2,3:2:0:0:
321,43,63823,2,0,P|386:65|315:143,1,207.999990478516,2|0,0:0|0:0,0:0:0:0:
234,147,64444,1,0,3:0:0:0:
415,154,64651,2,0,L|316:213,2,103.999995239258,2|10|2,0:0|0:0|0:0,0:0:0:0:
243,225,65271,6,0,L|125:181,1,103.999995239258,2|0,3:2|0:0,0:0:0:0:
322,123,65685,2,0,L|430:76,1,103.999995239258,10|0,0:0|0:0,0:0:0:0:
128,186,66099,2,0,L|122:71,1,103.999995239258,6|0,3:2|0:0,0:0:0:0:
300,72,66513,2,0,L|401:15,1,103.999995239258,14|0,0:0|0:0,0:0:0:0:
121,257,66927,6,0,P|68:235|147:148,1,207.999990478516,14|10,3:2|0:0,0:0:0:0:
309,159,67547,2,0,L|71:159,1,207.999990478516,2|2,0:0|0:0,0:0:0:0:
209,99,68168,1,10,0:0:0:0:
30,160,68375,6,0,L|282:163,1,207.999990478516,2|0,0:0|0:0,0:0:0:0:
136,89,68996,1,10,0:0:0:0:
324,251,69202,2,0,P|387:227|313:148,1,207.999990478516,2|0,0:0|0:0,0:0:0:0:
221,165,69823,2,0,L|344:139,1,103.999995239258,8|0,0:0|0:0,0:0:0:0:
141,216,70237,6,0,L|35:143,2,103.999995239258,2|2|10,3:2|0:0|0:0,0:0:0:0:
321,255,70858,2,0,L|72:252,1,207.999990478516,2|0,0:0|0:0,0:0:0:0:
212,179,71478,1,10,0:0:0:0:
40,231,71685,6,0,L|270:234,1,207.999990478516,2|0,0:0|0:0,0:0:0:0:
144,171,72306,1,10,0:0:0:0:
317,191,72513,2,0,P|379:164|285:100,1,207.999990478516,2|0,0:0|0:0,0:0:0:0:
144,171,73133,1,10,0:0:0:0:
313,80,73340,1,2,0:0:0:0:
145,67,73547,6,0,L|143:187,1,103.999995239258,4|0,3:2|0:0,0:0:0:0:
310,142,73961,2,0,L|408:83,1,103.999995239258,8|0,0:0|0:0,0:0:0:0:
218,158,74375,1,0,3:0:0:0:
391,157,74582,2,0,L|400:43,1,103.999995239258,2|8,0:0|0:0,0:0:0:0:
218,158,74996,1,2,0:0:0:0:
391,157,75202,6,0,L|486:105,1,103.999995239258,2|2,3:2|0:0,0:0:0:0:
196,276,75616,2,0,P|122:256|225:111,1,311.999985717774,10|2,0:0|0:0,0:0:0:0:
366,141,76444,1,10,0:0:0:0:
196,101,76651,1,2,0:0:0:0:
303,109,76858,6,0,L|307:0,1,103.999995239258,0|0,3:0|0:0,0:0:0:0:
206,128,77271,2,0,L|205:25,1,103.999995239258,8|0,0:0|0:0,0:0:0:0:
382,100,77685,2,0,L|491:144,2,103.999995239258,2|2|10,3:2|0:0|0:0,0:0:0:0:
207,182,78306,1,2,0:0:0:0:
338,169,78513,6,0,L|342:55,1,80,6|0,3:2|0:0,0:0:0:0:
48,148,78927,2,0,L|240:146,1,160,14|2,0:0|3:2,0:0:0:0:
115,83,79547,1,0,0:0:0:0:
310,253,79754,6,0,P|376:232|290:128,1,240,10|2,0:0|0:0,0:0:0:0:
235,141,80582,2,0,L|230:38,1,80,8|0,0:0|0:0,0:0:0:0:
333,96,80996,2,0,L|339:0,1,80,0|2,3:0|0:0,0:0:0:0:
241,16,81409,1,8,0:0:0:0:
337,16,81616,1,2,0:0:0:0:
64,185,81823,6,0,L|58:78,1,80,6|0,3:2|0:0,0:0:0:0:
336,86,82237,2,0,L|423:86,1,80,14|0,0:0|0:0,0:0:0:0:
223,162,82651,2,0,L|114:160,1,80,2|0,3:2|0:0,0:0:0:0:
365,241,83065,6,0,P|439:206|337:128,1,240,10|0,0:0|0:0,0:0:0:0:
271,155,83892,2,0,L|264:43,1,80,8|0,0:0|0:0,0:0:0:0:
163,90,84306,2,0,L|154:-19,1,80,0|2,3:0|0:0,0:0:0:0:
254,6,84720,1,8,0:0:0:0:
156,8,84927,1,2,0:0:0:0:
431,160,85133,6,0,L|436:65,1,80,6|0,3:2|0:0,0:0:0:0:
156,117,85547,2,0,L|41:112,1,80,14|0,0:0|0:0,0:0:0:0:
255,201,85961,2,0,L|360:199,1,80,2|0,3:2|0:0,0:0:0:0:
60,244,86375,2,0,L|56:140,1,80,14|0,3:2|0:0,0:0:0:0:
136,164,86789,6,0,L|27:163,1,80,0|0,3:0|0:0,0:0:0:0:
233,158,87202,2,0,L|234:56,1,80,8|0,0:0|0:0,0:0:0:0:
136,86,87616,2,0,L|233:85,2,80,0|0|8,3:0|0:0|0:0,0:0:0:0:
409,218,88237,5,0,0:0:0:0:
