osu file format v14

[General]
AudioFilename: audio.mp3
AudioLeadIn: 0
PreviewTime: 109979
Countdown: 1
SampleSet: Soft
StackLeniency: 0.2
Mode: 0
LetterboxInBreaks: 0
WidescreenStoryboard: 1

[Editor]
Bookmarks: 23071,37727,67040,96353,111010
DistanceSpacing: 1.2
BeatDivisor: 4
GridSize: 32
TimelineZoom: 1

[Metadata]
Title:Light Colors
TitleUnicode:光的色彩
Artist:Lia
ArtistUnicode:Lia
Creator:sinn
Version:Prism
Source:智代アフター-イッツアワンダフルライフ
Tags:clannad tomoyo after opening op short ver KEY Shinji Orito Kazuya Takase
BeatmapID:1987131
BeatmapSetID:847760

[Difficulty]
HPDrainRate:5
CircleSize:7
OverallDifficulty:9
ApproachRate:6
SliderMultiplier:1.86
SliderTickRate:1

[Events]
//Background and Video events
0,0,"stretched-1920-1080-536505.jpg",0,0
//Break Periods
//Storyboard Layer 0 (Background)
//Storyboard Layer 1 (Fail)
//Storyboard Layer 2 (Pass)
//Storyboard Layer 3 (Foreground)
//Storyboard Sound Samples

[TimingPoints]
8415,458.015267175572,4,2,0,61,1,0
23071,-100,4,2,0,61,0,1
23185,-100,4,2,0,61,0,0
37727,-100,4,2,0,61,0,1
37842,-100,4,2,0,61,0,0
67040,-100,4,2,0,61,0,1
67155,-100,4,2,0,61,0,0
96353,-100,4,2,0,61,0,1
96468,-100,4,2,0,61,0,0
111010,-100,4,2,0,61,0,1
111124,-100,4,2,0,61,0,0
124750,-100,4,2,0,61,0,1
125552,-100,4,2,0,61,0,0
125666,-100,4,2,0,61,0,1
125781,-100,4,2,0,61,0,0
140323,-100,4,2,0,61,0,1
140437,-100,4,2,0,61,0,0
160819,-100,4,2,0,11,0,0

[HitObjects]
352,64,8414,6,0,B|448:64|448:64|448:128,2,139.5,4|2|2,0:0|0:0|0:0,0:0:0:0:
256,64,9331,1,2,0:0:0:0:
256,64,9445,1,2,0:0:0:0:
256,192,9674,1,2,0:0:0:0:
256,192,9789,1,8,0:0:0:0:
256,128,10018,1,2,0:0:0:0:
160,64,10247,6,0,B|64:64|64:64|64:128,2,139.5,4|2|2,0:0|0:0|0:0,0:0:0:0:
256,64,11164,1,2,0:0:0:0:
256,64,11278,1,2,0:0:0:0:
256,192,11507,1,2,0:0:0:0:
256,192,11622,1,8,0:0:0:0:
256,128,11851,1,2,0:0:0:0:
352,192,12079,6,0,B|384:224|384:224|384:320,2,139.5,4|2|2,0:0|0:0|0:0,0:0:0:0:
256,288,12995,1,0,0:0:0:0:
160,192,13224,1,2,0:0:0:0:
256,192,13453,1,8,0:0:0:0:
160,288,13682,1,2,0:0:0:0:
160,192,13911,6,0,B|128:224|128:224|128:320,2,139.5,4|2|2,0:0|0:0|0:0,0:0:0:0:
256,288,14827,1,0,0:0:0:0:
352,192,15056,1,2,0:0:0:0:
256,192,15285,1,8,0:0:0:0:
352,288,15514,1,2,0:0:0:0:
480,192,15743,6,0,B|480:96|480:96|448:64,2,139.5,4|2|2,0:0|0:0|0:0,0:0:0:0:
384,128,16659,1,2,0:0:0:0:
320,192,16888,1,2,0:0:0:0:
256,128,17117,1,8,0:0:0:0:
192,192,17346,1,2,0:0:0:0:
32,192,17575,6,0,B|32:96|32:96|64:64,2,139.5,4|2|2,0:0|0:0|0:0,0:0:0:0:
128,128,18491,1,2,0:0:0:0:
192,192,18720,1,2,0:0:0:0:
256,128,18949,1,8,0:0:0:0:
320,192,19178,1,2,0:0:0:0:
256,256,19407,5,4,0:0:0:0:
256,192,19521,12,0,21010,0:0:0:0:
320,128,21239,5,4,0:0:0:0:
288,96,21353,1,0,0:0:0:0:
256,128,21468,1,2,0:0:0:0:
224,96,21582,1,0,0:0:0:0:
192,128,21697,5,8,0:0:0:0:
224,160,21811,1,0,0:0:0:0:
192,192,21926,1,2,0:0:0:0:
224,224,22040,1,0,0:0:0:0:
192,256,22155,5,0,0:0:0:0:
224,288,22269,1,0,0:0:0:0:
256,256,22384,1,2,0:0:0:0:
288,288,22498,1,2,0:0:0:0:
320,256,22613,5,8,0:0:0:0:
352,224,22727,1,0,0:0:0:0:
320,192,22842,1,2,0:0:0:0:
352,160,22956,1,0,0:0:0:0:
320,128,23071,5,4,0:0:0:0:
256,320,23414,1,2,0:0:0:0:
256,320,23529,1,8,0:0:0:0:
160,320,23758,1,2,0:0:0:0:
160,224,23987,2,0,L|256:224,1,93,2|0,0:0|0:0,0:0:0:0:
352,224,24445,2,0,L|256:224,1,93,8|0,0:0|0:0,0:0:0:0:
192,128,24903,5,4,0:0:0:0:
256,320,25246,1,2,0:0:0:0:
256,320,25361,1,8,0:0:0:0:
352,320,25590,1,2,0:0:0:0:
352,224,25819,2,0,L|256:224,1,93,2|0,0:0|0:0,0:0:0:0:
160,224,26277,2,0,L|256:224,1,93,8|0,0:0|0:0,0:0:0:0:
256,128,26735,5,4,0:0:0:0:
256,320,27079,1,2,0:0:0:0:
256,320,27194,1,8,0:0:0:0:
256,224,27422,1,2,0:0:0:0:
352,320,27651,2,0,L|448:320,1,93,2|0,0:0|0:0,0:0:0:0:
160,320,28109,2,0,L|64:320,1,93,8|0,0:0|0:0,0:0:0:0:
256,192,28567,5,4,0:0:0:0:
352,192,28796,1,2,0:0:0:0:
352,192,28911,1,2,0:0:0:0:
352,96,29140,1,2,0:0:0:0:
352,96,29254,1,2,0:0:0:0:
256,96,29483,5,4,0:0:0:0:
512,96,29712,1,4,0:0:0:0:
512,288,29941,1,12,0:0:0:0:
256,288,30170,1,4,0:0:0:0:
256,192,30399,5,4,0:0:0:0:
96,192,30628,1,2,0:0:0:0:
96,192,30743,1,2,0:0:0:0:
96,96,30972,1,2,0:0:0:0:
96,96,31086,1,2,0:0:0:0:
192,96,31315,5,2,0:0:0:0:
192,160,31544,1,0,0:0:0:0:
192,224,31773,1,8,0:0:0:0:
192,288,32002,1,0,0:0:0:0:
256,192,32231,5,4,0:0:0:0:
416,192,32460,1,2,0:0:0:0:
416,192,32575,1,2,0:0:0:0:
416,96,32804,1,2,0:0:0:0:
416,96,32918,1,2,0:0:0:0:
320,96,33147,5,2,0:0:0:0:
320,160,33376,1,0,0:0:0:0:
320,224,33605,1,8,0:0:0:0:
320,288,33834,1,0,0:0:0:0:
256,192,34063,5,4,0:0:0:0:
256,352,34292,1,2,0:0:0:0:
256,352,34407,1,2,0:0:0:0:
352,352,34636,1,2,0:0:0:0:
352,352,34750,1,2,0:0:0:0:
352,256,34979,5,2,0:0:0:0:
288,256,35208,1,0,0:0:0:0:
224,256,35437,1,8,0:0:0:0:
160,256,35666,1,0,0:0:0:0:
256,192,35895,5,4,0:0:0:0:
256,32,36124,1,2,0:0:0:0:
256,32,36239,1,2,0:0:0:0:
160,32,36468,1,2,0:0:0:0:
160,32,36582,1,2,0:0:0:0:
32,128,36811,5,6,0:0:0:0:
480,128,37040,1,4,0:0:0:0:
192,128,37269,1,12,0:0:0:0:
320,128,37498,5,6,0:0:0:0:
256,224,37613,1,6,0:0:0:0:
192,128,37727,1,4,0:0:0:0:
256,320,38414,5,2,0:0:0:0:
320,256,38644,2,0,L|416:256,2,93,2|0|8,0:0|0:0|0:0,0:0:0:0:
256,192,39331,1,0,0:0:0:0:
192,256,39560,2,0,L|96:256,1,93,2|0,0:0|0:0,0:0:0:0:
0,256,40018,1,8,0:0:0:0:
0,160,40247,2,0,L|0:64,1,93,2|0,0:0|0:0,0:0:0:0:
0,0,40705,1,2,0:0:0:0:
96,0,40934,5,14,0:0:0:0:
256,192,41163,1,0,0:0:0:0:
448,0,41392,1,4,0:0:0:0:
256,192,41850,1,8,0:0:0:0:
448,384,42308,2,0,B|480:384|480:384|480:256,2,139.5,2|2|0,0:0|0:0|0:0,0:0:0:0:
384,288,43224,6,0,B|256:288|256:288|256:352|256:352|64:352|64:352|64:288|64:288|192:288,1,558,4|8,0:0|0:0,0:0:0:0:
256,192,44827,1,0,0:0:0:0:
256,32,45056,5,4,0:0:0:0:
32,192,45743,1,2,0:0:0:0:
96,256,45972,2,0,L|96:352,2,93,2|0|8,0:0|0:0|0:0,0:0:0:0:
160,192,46659,1,0,0:0:0:0:
224,256,46888,2,0,L|320:256,1,93,2|0,0:0|0:0,0:0:0:0:
416,256,47346,1,8,0:0:0:0:
416,160,47575,2,0,B|416:96|416:96|352:96|352:96|352:160,1,186,2|0,0:0|0:0,0:0:0:0:
256,160,48262,2,0,L|256:64,1,93,8|0,0:0|0:0,0:0:0:0:
128,64,48720,6,2,B|32:64|32:64|32:352|32:352|480:352|480:352|480:64|480:64|384:64,1,1209
256,96,51926,1,10,0:0:0:0:
256,288,52155,1,0,0:0:0:0:
256,192,52384,5,4,0:0:0:0:
128,192,52727,1,2,0:0:0:0:
128,96,53071,1,0,0:0:0:0:
256,192,53300,5,4,0:0:0:0:
384,192,53643,1,2,0:0:0:0:
384,288,53987,1,4,0:0:0:0:
256,192,54216,6,0,L|256:0,2,186,4|8|2,0:0|0:0|0:0,0:0:0:0:
320,256,55361,1,2,0:0:0:0:
192,256,55590,1,8,0:0:0:0:
256,352,55819,1,2,0:0:0:0:
256,192,56048,5,4,0:0:0:0:
128,192,56391,1,2,0:0:0:0:
128,288,56735,1,0,0:0:0:0:
256,192,56964,5,4,0:0:0:0:
384,192,57307,1,2,0:0:0:0:
384,96,57651,1,4,0:0:0:0:
256,192,57880,6,0,L|256:384,2,186,4|8|2,0:0|0:0|0:0,0:0:0:0:
320,128,59025,1,2,0:0:0:0:
192,128,59254,1,8,0:0:0:0:
256,32,59483,1,2,0:0:0:0:
256,192,59712,6,0,B|480:192|480:192|480:256|480:256|384:256,2,372,4|2|2,0:0|0:0|0:0,0:0:0:0:
192,256,61773,2,0,L|32:256,2,139.5,0|2|8,0:0|0:0|0:0,0:0:0:0:
192,160,62804,1,2,0:0:0:0:
96,160,63147,1,2,0:0:0:0:
96,64,63376,6,0,B|256:64|256:64|256:160|256:160|384:160|384:160,2,372,4|2|4,0:0|0:0|0:0,0:0:0:0:
64,64,65323,1,0,0:0:0:0:
96,96,65437,1,2,0:0:0:0:
64,128,65552,1,0,0:0:0:0:
32,160,65666,1,8,0:0:0:0:
64,192,65781,1,0,0:0:0:0:
96,224,65895,1,2,0:0:0:0:
64,256,66010,1,0,0:0:0:0:
64,320,66124,5,4,0:0:0:0:
128,320,66239,1,0,0:0:0:0:
192,320,66353,1,2,0:0:0:0:
224,256,66468,1,0,0:0:0:0:
160,256,66582,1,8,0:0:0:0:
192,192,66697,1,2,0:0:0:0:
256,192,66811,1,2,0:0:0:0:
224,128,66926,1,2,0:0:0:0:
256,192,67040,5,4,0:0:0:0:
160,32,67727,1,0,0:0:0:0:
96,96,67956,2,0,L|0:96,2,93,2|0|8,0:0|0:0|0:0,0:0:0:0:
160,160,68644,1,0,0:0:0:0:
224,96,68873,2,0,L|320:96,1,93,2|0,0:0|0:0,0:0:0:0:
384,160,69331,1,8,0:0:0:0:
320,224,69560,2,0,L|320:320,1,93,2|0,0:0|0:0,0:0:0:0:
256,384,70018,1,0,0:0:0:0:
192,320,70247,1,8,0:0:0:0:
128,384,70476,1,0,0:0:0:0:
64,320,70705,6,0,B|64:256|64:256|0:256|0:256|0:160|0:160|96:160,1,279,4|0,0:0|0:0,0:0:0:0:
128,192,71621,2,0,B|192:192|192:192|192:128|192:128|192:96|192:96,2,139.5,2|2|0,0:0|0:0|0:0,0:0:0:0:
128,128,72537,2,0,B|128:32|128:32|224:32|224:32|256:32|256:32|256:192,1,372,2|2,0:0|0:0,0:0:0:0:
288,256,73682,2,0,B|352:256|352:256|352:128,1,186,2|0,0:0|0:0,0:0:0:0:
352,64,74369,5,4,0:0:0:0:
192,192,75056,2,0,L|192:288,2,93,2|0|0,0:0|0:0|0:0,0:0:0:0:
256,128,75743,1,8,0:0:0:0:
320,192,75972,1,2,0:0:0:0:
384,128,76201,2,0,B|512:128|512:128|512:224,1,186,2|8,0:0|0:0,0:0:0:0:
448,256,76888,2,0,B|320:256|320:256|320:192,1,186,2|0,0:0|0:0,0:0:0:0:
256,96,77575,2,0,L|256:192,1,93,8|0,0:0|0:0,0:0:0:0:
256,320,78033,6,0,B|128:320|128:320|128:256|128:256|0:256|0:256|0:320,2,372,4|2|2,0:0|0:0|0:0,0:0:0:0:
320,224,80094,2,0,L|224:224,1,93,2|8,0:0|0:0,0:0:0:0:
224,128,80552,1,0,0:0:0:0:
320,128,80781,2,0,L|416:128,1,93,2|0,0:0|0:0,0:0:0:0:
512,128,81239,1,10,0:0:0:0:
512,352,81468,1,2,0:0:0:0:
256,352,81697,5,4,0:0:0:0:
256,192,82040,1,2,0:0:0:0:
128,288,82384,1,0,0:0:0:0:
256,352,82613,5,4,0:0:0:0:
256,192,82956,1,2,0:0:0:0:
384,288,83300,1,4,0:0:0:0:
256,192,83529,6,0,L|64:192,2,186,4|8|0,0:0|0:0|0:0,0:0:0:0:
352,192,84674,1,2,0:0:0:0:
352,288,84903,1,8,0:0:0:0:
256,288,85132,1,2,0:0:0:0:
256,32,85361,5,4,0:0:0:0:
256,192,85704,1,2,0:0:0:0:
384,96,86048,1,0,0:0:0:0:
256,32,86277,5,4,0:0:0:0:
256,192,86620,1,2,0:0:0:0:
128,96,86964,1,4,0:0:0:0:
256,192,87193,6,0,L|448:192,2,186,4|8|0,0:0|0:0|0:0,0:0:0:0:
160,192,88338,1,2,0:0:0:0:
160,96,88567,1,8,0:0:0:0:
256,96,88796,1,2,0:0:0:0:
256,192,89025,6,0,L|256:384,1,186,4|8,0:0|0:0,0:0:0:0:
448,192,89941,2,0,B|448:128|448:128|320:128,1,186,2|8,0:0|0:0,0:0:0:0:
256,160,90628,2,0,B|128:160|128:160|96:192|96:192,1,186,2|0,0:0|0:0,0:0:0:0:
160,256,91315,2,0,L|256:256,1,93,8|0,0:0|0:0,0:0:0:0:
352,256,91773,5,2,0:0:0:0:
256,64,92002,1,2,0:0:0:0:
160,256,92231,1,10,0:0:0:0:
256,160,92460,1,2,0:0:0:0:
256,320,92689,6,0,B|256:384|256:384|128:384,2,186,4|8|0,0:0|0:0|0:0,0:0:0:0:
192,320,93834,2,0,L|96:320,1,93,2|8,0:0|0:0,0:0:0:0:
32,320,94292,1,2,0:0:0:0:
32,192,94521,5,4,0:0:0:0:
64,224,94636,1,0,0:0:0:0:
96,192,94750,1,2,0:0:0:0:
128,224,94865,1,0,0:0:0:0:
160,192,94979,5,12,0:0:0:0:
160,128,95094,1,0,0:0:0:0:
224,128,95208,1,0,0:0:0:0:
224,192,95323,1,0,0:0:0:0:
288,192,95437,5,4,0:0:0:0:
352,192,95552,1,0,0:0:0:0:
352,128,95666,1,2,0:0:0:0:
352,64,95781,1,0,0:0:0:0:
288,64,95895,5,12,0:0:0:0:
256,32,96010,1,2,0:0:0:0:
224,64,96124,1,2,0:0:0:0:
256,96,96239,1,2,0:0:0:0:
256,192,96353,5,4,0:0:0:0:
256,32,96697,1,2,0:0:0:0:
160,64,97040,2,0,L|64:64,1,93,2|0,0:0|0:0,0:0:0:0:
0,64,97498,1,8,0:3:0:0:
160,64,97727,5,8,0:0:0:0:
0,64,97842,1,2,0:0:0:0:
160,64,98185,5,4,0:0:0:0:
256,192,98529,1,2,0:0:0:0:
352,64,98873,1,2,0:0:0:0:
256,96,99102,5,2,0:0:0:0:
352,256,99445,1,2,0:0:0:0:
160,256,99789,1,0,0:0:0:0:
256,192,100018,6,0,L|256:384,1,186,4|8,0:0|0:0,0:0:0:0:
384,256,100934,2,0,B|480:256|480:256|480:192,2,139.5,2|2|0,0:0|0:0|0:0,0:0:0:0:
320,160,101850,2,0,L|416:160,1,93,2|0,0:0|0:0,0:0:0:0:
416,64,102308,1,8,0:0:0:0:
416,64,102422,1,0,0:0:0:0:
256,64,102651,1,0,0:0:0:0:
256,64,102766,5,6,0:0:0:0:
256,384,102995,1,2,0:0:0:0:
64,192,103224,1,10,0:0:0:0:
448,192,103453,1,2,0:0:0:0:
256,192,103682,6,0,L|256:0,2,186,4|8|2,0:0|0:0|0:0,0:0:0:0:
256,288,104827,1,2,0:0:0:0:
352,288,105056,1,8,0:0:0:0:
160,288,105285,1,2,0:0:0:0:
256,192,105514,6,0,L|448:192,1,186,4|8,0:0|0:0,0:0:0:0:
448,96,106201,1,2,0:0:0:0:
320,96,106430,1,2,0:0:0:0:
320,96,106544,1,2,0:0:0:0:
192,96,106773,1,2,0:0:0:0:
192,96,106888,1,10,0:0:0:0:
64,128,107117,1,0,0:0:0:0:
128,224,107346,5,4,0:0:0:0:
256,224,107575,1,0,0:0:0:0:
384,224,107804,1,10,0:0:0:0:
384,224,107918,1,2,0:0:0:0:
256,352,108147,1,2,0:0:0:0:
256,352,108262,1,2,0:0:0:0:
256,64,108491,1,2,0:0:0:0:
384,160,108720,5,12,0:0:0:0:
256,160,108949,1,2,0:0:0:0:
192,160,109063,1,2,0:0:0:0:
128,160,109178,5,4,0:0:0:0:
384,160,109407,1,2,0:0:0:0:
256,352,109636,1,8,0:0:0:0:
256,64,109865,1,0,0:0:0:0:
320,320,110094,5,4,0:0:0:0:
256,192,110323,1,2,0:0:0:0:
192,320,110552,5,8,0:0:0:0:
224,256,110666,1,2,0:0:0:0:
256,192,110781,1,2,0:0:0:0:
224,128,110895,1,2,0:0:0:0:
192,64,111010,5,4,0:0:0:0:
320,320,111353,1,2,0:0:0:0:
256,192,111697,1,2,0:0:0:0:
192,256,111926,2,0,L|96:256,1,93,8|0,0:0|0:0,0:0:0:0:
64,256,112269,2,0,L|64:160,1,93,2|0,0:0|0:0,0:0:0:0:
64,128,112613,1,2,0:0:0:0:
192,256,112842,5,2,0:0:0:0:
192,32,113300,1,8,0:0:0:0:
384,128,113758,2,0,L|384:224,1,93,4|0,0:0|0:0,0:0:0:0:
416,256,114102,2,0,L|416:352,1,93,2|0,0:0|0:0,0:0:0:0:
448,384,114445,1,2,0:0:0:0:
384,224,114674,5,4,0:0:0:0:
288,320,114903,1,2,0:0:0:0:
256,320,115018,1,2,0:0:0:0:
160,256,115247,1,2,0:0:0:0:
128,256,115361,1,2,0:0:0:0:
32,192,115590,6,0,B|32:128|32:128|64:128,1,93,4|0,0:0|0:0,0:0:0:0:
128,192,116048,2,0,B|192:192|192:192|192:160,1,93,8|0,0:0|0:0,0:0:0:0:
192,64,116506,2,0,L|96:64,1,93,2|0,0:0|0:0,0:0:0:0:
288,64,116964,1,8,0:0:0:0:
288,160,117193,1,2,0:0:0:0:
448,64,117422,5,4,0:0:0:0:
64,128,117651,1,6,0:0:0:0:
96,384,117880,1,4,0:0:0:0:
480,320,118109,1,6,0:0:0:0:
256,192,118338,5,4,0:0:0:0:
480,0,118681,1,2,0:0:0:0:
384,96,119025,1,0,0:0:0:0:
480,192,119254,2,0,L|480:288,1,93,8|0,0:0|0:0,0:0:0:0:
480,320,119598,2,0,L|384:320,1,93,2|0,0:0|0:0,0:0:0:0:
352,288,119941,1,2,0:0:0:0:
256,352,120170,5,2,0:0:0:0:
96,192,120628,1,8,0:0:0:0:
192,192,120857,1,0,0:0:0:0:
192,96,121086,1,2,0:0:0:0:
288,96,121315,5,0,0:0:0:0:
448,96,121544,1,8,0:0:0:0:
448,256,121773,1,0,0:0:0:0:
288,256,122002,6,0,B|96:256|96:256|96:352,2,279,4|2|2,0:0|0:0|0:0,0:0:0:0:
288,352,123605,1,2,0:0:0:0:
192,352,123834,1,8,0:0:0:0:
192,192,124063,1,2,0:0:0:0:
160,192,124178,1,2,0:0:0:0:
64,192,124407,1,2,0:0:0:0:
32,192,124521,1,2,0:0:0:0:
0,0,124750,5,4,0:0:0:0:
512,0,124979,1,4,0:0:0:0:
512,384,125208,1,12,0:0:0:0:
0,384,125437,1,4,0:0:0:0:
256,192,125666,5,4,0:0:0:0:
384,0,126010,1,2,0:0:0:0:
320,96,126353,1,0,0:0:0:0:
448,192,126582,2,0,L|448:288,1,93,8|0,0:0|0:0,0:0:0:0:
416,320,126926,2,0,L|320:320,1,93,2|0,0:0|0:0,0:0:0:0:
288,352,127269,1,2,0:0:0:0:
128,256,127498,5,2,0:0:0:0:
128,32,127956,1,8,0:0:0:0:
320,96,128414,2,0,L|320:192,1,93,4|0,0:0|0:0,0:0:0:0:
288,224,128758,2,0,L|288:320,1,93,2|0,0:0|0:0,0:0:0:0:
256,352,129102,1,2,0:0:0:0:
320,96,129331,5,4,0:0:0:0:
416,192,129560,1,2,0:0:0:0:
416,224,129674,1,2,0:0:0:0:
352,288,129903,1,2,0:0:0:0:
352,320,130018,1,2,0:0:0:0:
256,384,130247,6,0,L|160:384,1,93,4|0,0:0|0:0,0:0:0:0:
128,320,130705,2,0,B|192:320|192:320|192:288,1,93,8|0,0:0|0:0,0:0:0:0:
128,256,131163,2,0,B|32:256|32:256|32:352,1,186,2|8,0:0|0:0,0:0:0:0:
96,384,131850,1,2,0:0:0:0:
192,288,132079,6,0,L|192:192,1,93,4|0,0:0|0:0,0:0:0:0:
160,160,132422,2,0,L|160:64,1,93,2|0,0:0|0:0,0:0:0:0:
192,32,132766,1,2,0:0:0:0:
288,128,132995,6,0,B|416:128|416:128|448:64,2,186,4|8|2,0:0|0:0|0:0,0:0:0:0:
256,32,134140,1,2,0:0:0:0:
192,96,134369,2,0,L|96:96,1,93,8|0,0:0|0:0,0:0:0:0:
32,96,134827,2,0,B|32:160|32:160|64:160,1,93,4|0,0:0|0:0,0:0:0:0:
96,160,135170,2,0,B|128:160|128:160|128:224,1,93,2|0,0:0|0:0,0:0:0:0:
128,256,135514,1,2,0:0:0:0:
32,320,135743,2,0,L|128:320,1,93,2|0,0:0|0:0,0:0:0:0:
224,320,136201,2,0,L|224:224,1,93,8|0,0:0|0:0,0:0:0:0:
288,128,136659,6,0,B|288:192|288:192|384:192|384:192|384:32|384:32|224:32|224:32|224:128|224:128|128:128,1,651,4|0,0:0|0:0,0:0:0:0:
64,32,138491,2,0,L|160:32,1,93,2|0,0:0|0:0,0:0:0:0:
288,32,138949,2,0,L|384:32,1,93,8|0,0:0|0:0,0:0:0:0:
448,128,139407,5,4,0:0:0:0:
384,96,139521,1,2,0:0:0:0:
320,128,139636,1,2,0:0:0:0:
0,128,139865,5,12,0:0:0:0:
64,96,139980,1,2,0:0:0:0:
128,128,140094,1,2,0:0:0:0:
192,96,140208,1,2,0:0:0:0:
256,192,140323,5,4,0:0:0:0:
256,32,140666,1,2,0:0:0:0:
256,32,140780,1,8,0:0:0:0:
192,96,141010,1,2,0:0:0:0:
128,32,141239,2,0,L|32:32,1,93,2|0,0:0|0:0,0:0:0:0:
32,128,141697,2,0,L|128:128,1,93,8|0,0:0|0:0,0:0:0:0:
256,192,142155,5,4,0:0:0:0:
256,32,142498,1,2,0:0:0:0:
256,32,142612,1,8,0:0:0:0:
320,96,142842,1,2,0:0:0:0:
384,32,143071,2,0,L|480:32,1,93,2|0,0:0|0:0,0:0:0:0:
480,128,143529,2,0,L|384:128,1,93,8|0,0:0|0:0,0:0:0:0:
256,192,143987,5,4,0:0:0:0:
160,128,144216,1,2,0:0:0:0:
160,160,144331,1,2,0:0:0:0:
128,224,144560,1,2,0:0:0:0:
128,256,144674,1,2,0:0:0:0:
128,320,144903,1,2,0:0:0:0:
224,320,145132,1,2,0:0:0:0:
320,320,145361,1,8,0:0:0:0:
416,320,145590,1,2,0:0:0:0:
256,192,145819,5,4,0:0:0:0:
352,256,146048,1,2,0:0:0:0:
352,224,146163,1,2,0:0:0:0:
384,160,146392,1,2,0:0:0:0:
384,128,146506,1,2,0:0:0:0:
384,64,146735,5,2,0:0:0:0:
352,32,146850,1,0,0:0:0:0:
320,64,146964,1,2,0:0:0:0:
288,32,147079,1,0,0:0:0:0:
256,64,147193,1,8,0:0:0:0:
288,96,147308,1,0,0:0:0:0:
256,128,147422,1,2,0:0:0:0:
288,160,147537,1,0,0:0:0:0:
256,192,147651,5,4,0:0:0:0:
192,128,147880,1,2,0:0:0:0:
160,128,147995,1,2,0:0:0:0:
96,160,148224,1,2,0:0:0:0:
64,160,148338,1,2,0:0:0:0:
0,96,148567,1,2,0:0:0:0:
0,0,148796,1,2,0:0:0:0:
96,0,149025,1,10,0:0:0:0:
96,96,149254,1,2,0:0:0:0:
256,192,149483,5,4,0:0:0:0:
320,128,149712,1,2,0:0:0:0:
352,128,149827,1,2,0:0:0:0:
416,160,150056,1,2,0:0:0:0:
448,160,150170,1,2,0:0:0:0:
512,96,150399,1,2,0:0:0:0:
512,0,150628,1,2,0:0:0:0:
416,0,150857,1,10,0:0:0:0:
416,96,151086,1,2,0:0:0:0:
256,192,151315,5,4,0:0:0:0:
224,160,151430,1,0,0:0:0:0:
192,128,151544,1,2,0:0:0:0:
160,160,151659,1,0,0:0:0:0:
128,192,151773,1,8,0:0:0:0:
160,224,151888,1,0,0:0:0:0:
192,192,152002,1,2,0:0:0:0:
224,224,152117,1,0,0:0:0:0:
256,192,152231,5,8,2:3:0:0:
288,160,152346,1,0,0:0:0:0:
320,128,152460,1,2,0:0:0:0:
352,160,152575,1,0,0:0:0:0:
384,192,152689,1,8,0:0:0:0:
352,224,152804,1,0,0:0:0:0:
320,192,152918,1,2,0:0:0:0:
288,224,153033,1,0,0:0:0:0:
256,192,153147,6,0,L|256:352,2,139.5,4|2|0,0:0|0:0|0:0,0:0:0:0:
256,0,154063,1,2,0:0:0:0:
256,64,154292,1,0,0:0:0:0:
256,128,154521,1,8,0:0:0:0:
256,160,154635,1,2,0:0:0:0:
256,192,154750,2,0,L|256:352,1,139.5,2|0,0:0|0:0,0:0:0:0:
256,384,155208,5,4,0:0:0:0:
256,192,155323,12,0,160934,0:0:0:0:
