osu file format v14

[General]
AudioFilename: audio.mp3
AudioLeadIn: 0
PreviewTime: 109979
Countdown: 1
SampleSet: Soft
StackLeniency: 0.2
Mode: 0
LetterboxInBreaks: 0
WidescreenStoryboard: 1

[Editor]
Bookmarks: 23071,37727,67040,96353,111010
DistanceSpacing: 1.2
BeatDivisor: 4
GridSize: 32
TimelineZoom: 1

[Metadata]
Title:Light Colors
TitleUnicode:光的色彩
Artist:Lia
ArtistUnicode:Lia
Creator:sinn
Version:Insane
Source:智代アフター-イッツアワンダフルライフ
Tags:clannad tomoyo after opening op short ver KEY Shinji Orito Kazuya Takase
BeatmapID:1773130
BeatmapSetID:847760

[Difficulty]
HPDrainRate:5
CircleSize:5
OverallDifficulty:7
ApproachRate:8
SliderMultiplier:1.86
SliderTickRate:1

[Events]
//Background and Video events
0,0,"stretched-1920-1080-536505.jpg",0,0
//Break Periods
//Storyboard Layer 0 (Background)
//Storyboard Layer 1 (Fail)
//Storyboard Layer 2 (Pass)
//Storyboard Layer 3 (Foreground)
//Storyboard Sound Samples

[TimingPoints]
8415,458.015267175572,4,2,0,61,1,0
23071,-100,4,2,0,61,0,1
23185,-100,4,2,0,61,0,0
37727,-100,4,2,0,61,0,1
37842,-100,4,2,0,61,0,0
67040,-100,4,2,0,61,0,1
67155,-100,4,2,0,61,0,0
96353,-100,4,2,0,61,0,1
96468,-100,4,2,0,61,0,0
111010,-100,4,2,0,61,0,1
111124,-100,4,2,0,61,0,0
124750,-100,4,2,0,61,0,1
125552,-100,4,2,0,61,0,0
125666,-100,4,2,0,61,0,1
125781,-100,4,2,0,61,0,0
140323,-100,4,2,0,61,0,1
140437,-100,4,2,0,61,0,0
160819,-100,4,2,0,11,0,0

[HitObjects]
128,288,8414,6,0,B|128:384|128:384|192:384,2,139.5,4|2|2,0:0|0:0|0:0,0:0:0:0:
128,192,9331,1,2,0:0:0:0:
128,192,9445,1,2,0:0:0:0:
256,192,9674,1,2,0:0:0:0:
256,192,9789,1,8,0:0:0:0:
192,192,10018,1,2,0:0:0:0:
128,96,10247,6,0,B|128:0|128:0|192:0,2,139.5,4|2|2,0:0|0:0|0:0,0:0:0:0:
128,192,11164,1,2,0:0:0:0:
128,192,11278,1,2,0:0:0:0:
256,192,11507,1,2,0:0:0:0:
256,192,11622,1,8,0:0:0:0:
192,192,11851,1,2,0:0:0:0:
256,288,12079,6,0,B|288:320|288:320|384:320,2,139.5,4|2|2,0:0|0:0|0:0,0:0:0:0:
352,192,12995,1,0,0:0:0:0:
256,96,13224,1,2,0:0:0:0:
256,192,13453,1,8,0:0:0:0:
352,96,13682,1,2,0:0:0:0:
256,96,13911,6,0,B|288:64|288:64|384:64,2,139.5,4|2|2,0:0|0:0|0:0,0:0:0:0:
352,192,14827,1,0,0:0:0:0:
256,288,15056,1,2,0:0:0:0:
256,192,15285,1,8,0:0:0:0:
352,288,15514,1,2,0:0:0:0:
256,384,15743,6,0,B|160:384|160:384|128:352,2,139.5,4|2|2,0:0|0:0|0:0,0:0:0:0:
192,320,16659,1,2,0:0:0:0:
256,256,16888,1,2,0:0:0:0:
192,192,17117,1,8,0:0:0:0:
256,128,17346,1,2,0:0:0:0:
256,0,17575,6,0,B|160:0|160:0|128:32,2,139.5,4|2|2,0:0|0:0|0:0,0:0:0:0:
192,64,18491,1,2,0:0:0:0:
256,128,18720,1,2,0:0:0:0:
192,192,18949,1,8,0:0:0:0:
256,256,19178,1,2,0:0:0:0:
320,192,19407,5,4,0:0:0:0:
256,192,19521,12,0,21010,0:0:0:0:
192,256,21239,5,4,0:0:0:0:
192,224,21353,1,0,0:0:0:0:
192,192,21468,1,2,0:0:0:0:
192,160,21582,1,0,0:0:0:0:
192,128,21697,5,8,0:0:0:0:
224,128,21811,1,0,0:0:0:0:
256,128,21926,1,2,0:0:0:0:
288,128,22040,1,0,0:0:0:0:
320,128,22155,5,0,0:0:0:0:
320,160,22269,1,0,0:0:0:0:
320,192,22384,1,2,0:0:0:0:
320,224,22498,1,2,0:0:0:0:
320,256,22613,5,8,0:0:0:0:
288,256,22727,1,0,0:0:0:0:
256,256,22842,1,2,0:0:0:0:
224,256,22956,1,0,0:0:0:0:
192,256,23071,5,4,0:0:0:0:
384,192,23414,1,2,0:0:0:0:
384,192,23529,1,8,0:0:0:0:
384,96,23758,1,2,0:0:0:0:
288,96,23987,2,0,L|288:192,1,93,2|0,0:0|0:0,0:0:0:0:
288,288,24445,2,0,L|288:192,1,93,8|0,0:0|0:0,0:0:0:0:
192,128,24903,5,4,0:0:0:0:
384,192,25246,1,2,0:0:0:0:
384,192,25361,1,8,0:0:0:0:
384,288,25590,1,2,0:0:0:0:
288,288,25819,2,0,L|288:192,1,93,2|0,0:0|0:0,0:0:0:0:
288,96,26277,2,0,L|288:192,1,93,8|0,0:0|0:0,0:0:0:0:
192,192,26735,5,4,0:0:0:0:
384,192,27079,1,2,0:0:0:0:
384,192,27194,1,8,0:0:0:0:
288,192,27422,1,2,0:0:0:0:
384,288,27651,2,0,L|384:384,1,93,2|0,0:0|0:0,0:0:0:0:
384,96,28109,2,0,L|384:0,1,93,8|0,0:0|0:0,0:0:0:0:
256,192,28567,5,4,0:0:0:0:
256,288,28796,1,2,0:0:0:0:
256,288,28911,1,2,0:0:0:0:
160,288,29140,1,2,0:0:0:0:
160,288,29254,1,2,0:0:0:0:
160,192,29483,5,4,0:0:0:0:
160,384,29712,1,4,0:0:0:0:
352,384,29941,1,12,0:0:0:0:
352,192,30170,1,4,0:0:0:0:
256,192,30399,5,4,0:0:0:0:
256,32,30628,1,2,0:0:0:0:
256,32,30743,1,2,0:0:0:0:
160,32,30972,1,2,0:0:0:0:
160,32,31086,1,2,0:0:0:0:
160,128,31315,5,2,0:0:0:0:
224,128,31544,1,0,0:0:0:0:
288,128,31773,1,8,0:0:0:0:
352,128,32002,1,0,0:0:0:0:
256,192,32231,5,4,0:0:0:0:
256,352,32460,1,2,0:0:0:0:
256,352,32575,1,2,0:0:0:0:
160,352,32804,1,2,0:0:0:0:
160,352,32918,1,2,0:0:0:0:
160,256,33147,5,2,0:0:0:0:
224,256,33376,1,0,0:0:0:0:
288,256,33605,1,8,0:0:0:0:
352,256,33834,1,0,0:0:0:0:
256,192,34063,5,4,0:0:0:0:
416,192,34292,1,2,0:0:0:0:
416,192,34407,1,2,0:0:0:0:
416,288,34636,1,2,0:0:0:0:
416,288,34750,1,2,0:0:0:0:
320,288,34979,5,2,0:0:0:0:
320,224,35208,1,0,0:0:0:0:
320,160,35437,1,8,0:0:0:0:
320,96,35666,1,0,0:0:0:0:
256,192,35895,5,4,0:0:0:0:
96,192,36124,1,2,0:0:0:0:
96,192,36239,1,2,0:0:0:0:
96,96,36468,1,2,0:0:0:0:
96,96,36582,1,2,0:0:0:0:
192,32,36811,5,6,0:0:0:0:
192,352,37040,1,4,0:0:0:0:
192,128,37269,1,12,0:0:0:0:
192,256,37498,5,6,0:0:0:0:
192,224,37613,1,6,0:0:0:0:
192,192,37727,1,4,0:0:0:0:
384,192,38414,5,2,0:0:0:0:
320,256,38644,2,0,L|320:352,2,93,2|0|8,0:0|0:0|0:0,0:0:0:0:
256,192,39331,1,0,0:0:0:0:
320,128,39560,2,0,L|320:32,1,93,2|0,0:0|0:0,0:0:0:0:
320,0,40018,1,8,0:0:0:0:
224,0,40247,2,0,L|128:0,1,93,2|0,0:0|0:0,0:0:0:0:
64,0,40705,1,2,0:0:0:0:
64,64,40934,5,14,0:0:0:0:
256,192,41163,1,0,0:0:0:0:
64,352,41392,1,4,0:0:0:0:
256,192,41850,1,8,0:0:0:0:
448,352,42308,2,0,B|448:384|448:384|320:384,2,139.5,2|2|0,0:0|0:0|0:0,0:0:0:0:
352,320,43224,6,0,B|352:192|352:192|416:192|416:192|416:0|416:0|352:0|352:0|352:128,1,558,4|8,0:0|0:0,0:0:0:0:
256,192,44827,1,0,0:0:0:0:
96,192,45056,5,4,0:0:0:0:
256,0,45743,1,2,0:0:0:0:
320,32,45972,2,0,L|416:32,2,93,2|0|8,0:0|0:0|0:0,0:0:0:0:
256,96,46659,1,0,0:0:0:0:
320,160,46888,2,0,L|320:256,1,93,2|0,0:0|0:0,0:0:0:0:
320,352,47346,1,8,0:0:0:0:
224,352,47575,2,0,B|160:352|160:352|160:288|160:288|224:288,1,186,2|0,0:0|0:0,0:0:0:0:
224,192,48262,2,0,L|128:192,1,93,8|0,0:0|0:0,0:0:0:0:
128,64,48720,6,2,B|224:64|224:64|256:32|256:32|288:64|288:64|448:64|448:64|480:32|480:32|512:32|512:32|512:192|512:192|448:192|448:192|384:256|384:256|384:384|384:384|256:384|256:384|160:384|160:384|160:224,1,1209
160,192,51926,1,10,0:0:0:0:
352,192,52155,1,0,0:0:0:0:
256,192,52384,5,4,0:0:0:0:
256,64,52727,1,2,0:0:0:0:
160,64,53071,1,0,0:0:0:0:
256,192,53300,5,4,0:0:0:0:
256,320,53643,1,2,0:0:0:0:
352,320,53987,1,4,0:0:0:0:
256,192,54216,6,0,L|64:192,2,186,4|8|2,0:0|0:0|0:0,0:0:0:0:
320,256,55361,1,2,0:0:0:0:
320,128,55590,1,8,0:0:0:0:
416,192,55819,1,2,0:0:0:0:
256,192,56048,5,4,0:0:0:0:
256,64,56391,1,2,0:0:0:0:
352,64,56735,1,0,0:0:0:0:
256,192,56964,5,4,0:0:0:0:
256,320,57307,1,2,0:0:0:0:
160,320,57651,1,4,0:0:0:0:
256,192,57880,6,0,L|448:192,2,186,4|8|2,0:0|0:0|0:0,0:0:0:0:
192,256,59025,1,2,0:0:0:0:
192,128,59254,1,8,0:0:0:0:
96,192,59483,1,2,0:0:0:0:
256,192,59712,6,0,B|256:352|256:352|480:352,2,372,4|2|2,0:0|0:0|0:0,0:0:0:0:
320,128,61773,2,0,L|320:-32,2,139.5,0|2|8,0:0|0:0|0:0,0:0:0:0:
224,128,62804,1,2,0:0:0:0:
224,32,63147,1,2,0:0:0:0:
128,32,63376,6,0,B|128:192|128:192|224:192|224:192|224:320|224:320,2,372,4|2|4,0:0|0:0|0:0,0:0:0:0:
128,0,65323,1,0,0:0:0:0:
160,0,65437,1,2,0:0:0:0:
192,0,65552,1,0,0:0:0:0:
224,0,65666,1,8,0:0:0:0:
256,0,65781,1,0,0:0:0:0:
288,0,65895,1,2,0:0:0:0:
320,0,66010,1,0,0:0:0:0:
384,0,66124,5,4,0:0:0:0:
384,32,66239,1,0,0:0:0:0:
384,64,66353,1,2,0:0:0:0:
352,64,66468,1,0,0:0:0:0:
320,64,66582,1,8,0:0:0:0:
320,96,66697,1,2,0:0:0:0:
320,128,66811,1,2,0:0:0:0:
320,160,66926,1,2,0:0:0:0:
256,192,67040,5,4,0:0:0:0:
96,96,67727,1,0,0:0:0:0:
160,96,67956,2,0,L|160:0,2,93,2|0|8,0:0|0:0|0:0,0:0:0:0:
224,96,68644,1,0,0:0:0:0:
160,160,68873,2,0,L|160:256,1,93,2|0,0:0|0:0,0:0:0:0:
224,320,69331,1,8,0:0:0:0:
288,256,69560,2,0,L|384:256,1,93,2|0,0:0|0:0,0:0:0:0:
448,192,70018,1,0,0:0:0:0:
384,128,70247,1,8,0:0:0:0:
448,64,70476,1,0,0:0:0:0:
384,64,70705,6,0,B|320:64|320:64|320:1|320:1|224:0|224:0|224:96,1,279,4|0,0:0|0:0,0:0:0:0:
224,128,71621,2,0,B|224:192|224:192|160:192|160:192|128:192|128:192,2,139.5,2|2|0,0:0|0:0|0:0,0:0:0:0:
160,64,72537,2,0,B|64:64|64:64|64:160|64:160|64:192|64:192|224:192,1,372,2|2,0:0|0:0,0:0:0:0:
320,224,73682,2,0,B|320:288|320:288|192:288,1,186,2|0,0:0|0:0,0:0:0:0:
128,288,74369,5,4,0:0:0:0:
256,128,75056,2,0,L|352:128,2,93,2|0|0,0:0|0:0|0:0,0:0:0:0:
192,192,75743,1,8,0:0:0:0:
256,256,75972,1,2,0:0:0:0:
192,256,76201,2,0,B|192:384|192:384|288:384,1,186,2|8,0:0|0:0,0:0:0:0:
320,384,76888,2,0,B|320:256|320:256|256:256,1,186,2|0,0:0|0:0,0:0:0:0:
160,192,77575,2,0,L|256:192,1,93,8|0,0:0|0:0,0:0:0:0:
352,192,78033,6,0,B|512:192|512:192|512:64|512:64|416:64,2,372,4|2|0,0:0|0:0|0:0,0:0:0:0:
256,192,80094,2,0,L|256:96,1,93,2|8,0:0|0:0,0:0:0:0:
192,160,80552,1,0,0:0:0:0:
192,256,80781,2,0,L|192:352,1,93,2|0,0:0|0:0,0:0:0:0:
256,352,81239,1,10,0:0:0:0:
416,352,81468,1,2,0:0:0:0:
416,192,81697,5,4,0:0:0:0:
256,192,82040,1,2,0:0:0:0:
352,64,82384,1,0,0:0:0:0:
416,192,82613,5,4,0:0:0:0:
256,192,82956,1,2,0:0:0:0:
352,320,83300,1,4,0:0:0:0:
256,192,83529,6,0,L|256:0,2,186,4|8|0,0:0|0:0|0:0,0:0:0:0:
256,288,84674,1,2,0:0:0:0:
352,288,84903,1,8,0:0:0:0:
352,192,85132,1,2,0:0:0:0:
96,192,85361,5,4,0:0:0:0:
256,192,85704,1,2,0:0:0:0:
160,320,86048,1,0,0:0:0:0:
96,192,86277,5,4,0:0:0:0:
256,192,86620,1,2,0:0:0:0:
160,64,86964,1,4,0:0:0:0:
256,192,87193,6,0,L|256:384,2,186,4|8|0,0:0|0:0|0:0,0:0:0:0:
256,96,88338,1,2,0:0:0:0:
160,96,88567,1,8,0:0:0:0:
160,192,88796,1,2,0:0:0:0:
256,192,89025,6,0,L|448:192,1,186,4|8,0:0|0:0,0:0:0:0:
256,384,89941,2,0,B|192:384|192:384|192:256,1,186,2|8,0:0|0:0,0:0:0:0:
224,192,90628,2,0,B|224:64|224:64|256:32|256:32,1,186,2|0,0:0|0:0,0:0:0:0:
320,96,91315,2,0,L|320:192,1,93,8|0,0:0|0:0,0:0:0:0:
320,288,91773,5,2,0:0:0:0:
128,192,92002,1,2,0:0:0:0:
320,96,92231,1,10,0:0:0:0:
224,192,92460,1,2,0:0:0:0:
384,192,92689,6,0,B|448:192|448:192|448:64,2,186,4|8|0,0:0|0:0|0:0,0:0:0:0:
384,128,93834,2,0,L|384:32,1,93,2|8,0:0|0:0,0:0:0:0:
384,0,94292,1,2,0:0:0:0:
256,0,94521,5,4,0:0:0:0:
288,0,94636,1,0,0:0:0:0:
256,32,94750,1,2,0:0:0:0:
288,64,94865,1,0,0:0:0:0:
256,96,94979,5,12,0:0:0:0:
224,128,95094,1,0,0:0:0:0:
192,160,95208,1,0,0:0:0:0:
224,192,95323,1,0,0:0:0:0:
256,224,95437,5,4,0:0:0:0:
224,256,95552,1,0,0:0:0:0:
192,288,95666,1,2,0:0:0:0:
160,320,95781,1,0,0:0:0:0:
128,352,95895,5,12,0:0:0:0:
128,320,96010,1,2,0:0:0:0:
128,288,96124,1,2,0:0:0:0:
128,256,96239,1,2,0:0:0:0:
192,192,96353,5,4,0:0:0:0:
96,192,96697,1,2,0:0:0:0:
128,96,97040,2,0,L|128:0,1,93,2|0,0:0|0:0,0:0:0:0:
192,0,97498,1,8,3:0:0:0:
256,0,97727,5,8,0:0:0:0:
256,0,97842,1,2,0:0:0:0:
128,96,98185,5,4,0:0:0:0:
256,192,98529,1,2,0:0:0:0:
128,288,98873,1,2,0:0:0:0:
160,192,99102,5,2,0:0:0:0:
320,288,99445,1,2,0:0:0:0:
320,96,99789,1,0,0:0:0:0:
256,192,100018,6,0,L|448:192,1,186,4|8,0:0|0:0,0:0:0:0:
320,288,100934,2,0,B|320:384|320:384|256:384,2,139.5,2|2|0,0:0|0:0|0:0,0:0:0:0:
224,256,101850,2,0,L|224:352,1,93,2|0,0:0|0:0,0:0:0:0:
128,352,102308,1,8,0:0:0:0:
128,352,102422,1,0,0:0:0:0:
128,192,102651,1,0,0:0:0:0:
128,192,102766,5,6,0:0:0:0:
384,192,102995,1,2,0:0:0:0:
256,64,103224,1,10,0:0:0:0:
256,320,103453,1,2,0:0:0:0:
256,192,103682,6,0,L|64:192,2,186,4|8|2,0:0|0:0|0:0,0:0:0:0:
352,192,104827,1,2,0:0:0:0:
352,288,105056,1,8,0:0:0:0:
352,96,105285,1,2,0:0:0:0:
256,192,105514,6,0,L|256:384,1,186,4|8,0:0|0:0,0:0:0:0:
160,384,106201,1,2,0:0:0:0:
160,256,106430,1,2,0:0:0:0:
160,256,106544,1,2,0:0:0:0:
160,128,106773,1,2,0:0:0:0:
160,128,106888,1,10,0:0:0:0:
192,0,107117,1,0,0:0:0:0:
288,64,107346,5,4,0:0:0:0:
288,192,107575,1,0,0:0:0:0:
288,320,107804,1,10,0:0:0:0:
288,320,107918,1,2,0:0:0:0:
416,192,108147,1,2,0:0:0:0:
416,192,108262,1,2,0:0:0:0:
128,192,108491,1,2,0:0:0:0:
224,320,108720,5,12,0:0:0:0:
224,160,108949,1,2,0:0:0:0:
224,128,109063,1,2,0:0:0:0:
224,96,109178,5,4,0:0:0:0:
224,320,109407,1,2,0:0:0:0:
416,192,109636,1,8,0:0:0:0:
256,192,109865,1,0,0:0:0:0:
384,256,110094,5,4,0:0:0:0:
256,192,110323,1,2,0:0:0:0:
320,128,110552,5,8,0:0:0:0:
288,160,110666,1,2,0:0:0:0:
256,192,110781,1,2,0:0:0:0:
224,160,110895,1,2,0:0:0:0:
192,128,111010,5,4,0:0:0:0:
384,256,111353,1,2,0:0:0:0:
256,192,111697,1,2,0:0:0:0:
320,128,111926,2,0,L|320:32,1,93,8|0,0:0|0:0,0:0:0:0:
320,0,112269,2,0,L|224:0,1,93,2|0,0:0|0:0,0:0:0:0:
192,0,112613,1,2,0:0:0:0:
320,128,112842,5,2,0:0:0:0:
96,128,113300,1,8,0:0:0:0:
192,320,113758,2,0,L|288:320,1,93,4|0,0:0|0:0,0:0:0:0:
320,352,114102,2,0,L|416:352,1,93,2|0,0:0|0:0,0:0:0:0:
448,384,114445,1,2,0:0:0:0:
288,320,114674,5,4,0:0:0:0:
384,192,114903,1,2,0:0:0:0:
384,192,115018,1,2,0:0:0:0:
384,32,115247,1,2,0:0:0:0:
384,32,115361,1,2,0:0:0:0:
256,0,115590,6,0,B|160:0|160:0|192:0,1,93,4|0,0:0|0:0,0:0:0:0:
256,64,116048,2,0,B|256:128|256:128|224:128,1,93,8|0,0:0|0:0,0:0:0:0:
96,128,116506,2,0,L|96:32,1,93,2|0,0:0|0:0,0:0:0:0:
96,224,116964,1,8,0:0:0:0:
224,224,117193,1,2,0:0:0:0:
160,320,117422,5,4,0:0:0:0:
160,128,117651,1,6,0:0:0:0:
352,128,117880,1,4,0:0:0:0:
352,320,118109,1,6,0:0:0:0:
256,192,118338,5,4,0:0:0:0:
64,384,118681,1,2,0:0:0:0:
160,320,119025,1,0,0:0:0:0:
256,384,119254,2,0,L|352:384,1,93,8|0,0:0|0:0,0:0:0:0:
384,384,119598,2,0,L|384:288,1,93,2|0,0:0|0:0,0:0:0:0:
384,256,119941,1,2,0:0:0:0:
416,192,120170,5,2,0:0:0:0:
256,32,120628,1,8,0:0:0:0:
256,128,120857,1,0,0:0:0:0:
160,128,121086,1,2,0:0:0:0:
160,224,121315,5,0,0:0:0:0:
160,384,121544,1,8,0:0:0:0:
320,384,121773,1,0,0:0:0:0:
320,224,122002,6,0,B|320:32|320:32|416:32,2,279,4|2|2,0:0|0:0|0:0,0:0:0:0:
416,224,123605,1,2,0:0:0:0:
416,128,123834,1,8,0:0:0:0:
256,128,124063,1,2,0:0:0:0:
256,128,124178,1,2,0:0:0:0:
256,0,124407,1,2,0:0:0:0:
256,0,124521,1,2,0:0:0:0:
96,0,124750,5,4,0:0:0:0:
96,288,124979,1,4,0:0:0:0:
416,288,125208,1,12,0:0:0:0:
416,0,125437,1,4,0:0:0:0:
256,192,125666,5,4,0:0:0:0:
64,320,126010,1,2,0:0:0:0:
160,256,126353,1,0,0:0:0:0:
256,384,126582,2,0,L|352:384,1,93,8|0,0:0|0:0,0:0:0:0:
383,351,126926,2,0,L|383:255,1,93,2|0,0:0|0:0,0:0:0:0:
416,224,127269,1,2,0:0:0:0:
320,64,127498,5,2,0:0:0:0:
96,64,127956,1,8,0:0:0:0:
160,256,128414,2,0,L|256:256,1,93,4|0,0:0|0:0,0:0:0:0:
288,224,128758,2,0,L|384:224,1,93,2|0,0:0|0:0,0:0:0:0:
416,192,129102,1,2,0:0:0:0:
160,256,129331,5,4,0:0:0:0:
256,352,129560,1,2,0:0:0:0:
256,352,129674,1,2,0:0:0:0:
352,256,129903,1,2,0:0:0:0:
352,256,130018,1,2,0:0:0:0:
448,192,130247,6,0,L|448:96,1,93,4|0,0:0|0:0,0:0:0:0:
384,64,130705,2,0,B|384:128|384:128|352:128,1,93,8|0,0:0|0:0,0:0:0:0:
288,96,131163,2,0,B|288:0|288:0|384:0,1,186,2|8,0:0|0:0,0:0:0:0:
448,0,131850,1,2,0:0:0:0:
352,128,132079,6,0,L|256:128,1,93,4|0,0:0|0:0,0:0:0:0:
224,96,132422,2,0,L|128:96,1,93,2|0,0:0|0:0,0:0:0:0:
96,128,132766,1,2,0:0:0:0:
192,224,132995,6,0,B|192:352|192:352|128:384,2,186,4|8|2,0:0|0:0|0:0,0:0:0:0:
96,192,134140,1,2,0:0:0:0:
160,128,134369,2,0,L|160:32,1,93,8|0,0:0|0:0,0:0:0:0:
160,0,134827,2,0,B|224:-32|224:-32|224:0,1,93,4|0,0:0|0:0,0:0:0:0:
224,32,135170,2,0,B|224:64|224:64|288:64,1,93,2|0,0:0|0:0,0:0:0:0:
320,64,135514,1,2,0:0:0:0:
384,0,135743,2,0,L|384:64,1,93,2|0,0:0|0:0,0:0:0:0:
384,160,136201,2,0,L|288:160,1,93,8|0,0:0|0:0,0:0:0:0:
192,224,136659,6,0,B|256:224|256:224|256:320|256:320|96:320|96:320|96:160|96:160|192:160|192:160|192:64,1,651,4|0,0:0|0:0,0:0:0:0:
96,0,138491,2,0,L|96:96,1,93,2|0,0:0|0:0,0:0:0:0:
96,224,138949,2,0,L|96:320,1,93,8|0,0:0|0:0,0:0:0:0:
192,352,139407,5,4,0:0:0:0:
192,320,139521,1,2,0:0:0:0:
192,288,139636,1,2,0:0:0:0:
192,96,139865,5,12,0:0:0:0:
192,128,139980,1,2,0:0:0:0:
192,160,140094,1,2,0:0:0:0:
192,192,140208,1,2,0:0:0:0:
256,192,140323,5,4,0:0:0:0:
96,192,140666,1,2,0:0:0:0:
96,192,140780,1,8,0:0:0:0:
160,128,141010,1,2,0:0:0:0:
96,96,141239,2,0,L|96:0,1,93,2|0,0:0|0:0,0:0:0:0:
192,0,141697,2,0,L|192:64,1,93,8|0,0:0|0:0,0:0:0:0:
256,192,142155,5,4,0:0:0:0:
96,192,142498,1,2,0:0:0:0:
96,192,142612,1,8,0:0:0:0:
160,256,142842,1,2,0:0:0:0:
96,288,143071,2,0,L|96:384,1,93,2|0,0:0|0:0,0:0:0:0:
192,384,143529,2,0,L|192:288,1,93,8|0,0:0|0:0,0:0:0:0:
256,192,143987,5,4,0:0:0:0:
256,64,144216,1,2,0:0:0:0:
256,64,144331,1,2,0:0:0:0:
320,64,144560,1,2,0:0:0:0:
320,64,144674,1,2,0:0:0:0:
384,64,144903,1,2,0:0:0:0:
384,160,145132,1,2,0:0:0:0:
384,256,145361,1,8,0:0:0:0:
384,352,145590,1,2,0:0:0:0:
256,192,145819,5,4,0:0:0:0:
256,320,146048,1,2,0:0:0:0:
256,320,146163,1,2,0:0:0:0:
192,320,146392,1,2,0:0:0:0:
192,320,146506,1,2,0:0:0:0:
128,320,146735,5,2,0:0:0:0:
128,288,146850,1,0,0:0:0:0:
128,256,146964,1,2,0:0:0:0:
128,224,147079,1,0,0:0:0:0:
128,192,147193,1,8,0:0:0:0:
160,192,147308,1,0,0:0:0:0:
192,192,147422,1,2,0:0:0:0:
224,192,147537,1,0,0:0:0:0:
256,192,147651,5,4,0:0:0:0:
256,64,147880,1,2,0:0:0:0:
256,64,147995,1,2,0:0:0:0:
256,0,148224,1,2,0:0:0:0:
256,0,148338,1,2,0:0:0:0:
192,0,148567,1,2,0:0:0:0:
128,0,148796,1,2,0:0:0:0:
128,64,149025,1,10,0:0:0:0:
192,64,149254,1,2,0:0:0:0:
256,192,149483,5,4,0:0:0:0:
256,320,149712,1,2,0:0:0:0:
256,320,149827,1,2,0:0:0:0:
256,384,150056,1,2,0:0:0:0:
256,384,150170,1,2,0:0:0:0:
192,384,150399,1,2,0:0:0:0:
128,384,150628,1,2,0:0:0:0:
128,320,150857,1,10,0:0:0:0:
192,320,151086,1,2,0:0:0:0:
256,192,151315,5,4,0:0:0:0:
224,160,151430,1,0,0:0:0:0:
192,128,151544,1,2,0:0:0:0:
224,96,151659,1,0,0:0:0:0:
256,64,151773,1,8,0:0:0:0:
288,96,151888,1,0,0:0:0:0:
320,128,152002,1,2,0:0:0:0:
288,160,152117,1,0,0:0:0:0:
256,192,152231,5,8,2:3:0:0:
288,224,152346,1,0,0:0:0:0:
320,256,152460,1,2,0:0:0:0:
288,288,152575,1,0,0:0:0:0:
256,320,152689,1,8,0:0:0:0:
224,288,152804,1,0,0:0:0:0:
192,256,152918,1,2,0:0:0:0:
224,224,153033,1,0,0:0:0:0:
256,192,153147,6,0,L|416:192,2,139.5,4|2|0,0:0|0:0|0:0,0:0:0:0:
128,192,154063,1,2,0:0:0:0:
192,192,154292,1,0,0:0:0:0:
256,192,154521,1,8,0:0:0:0:
256,192,154635,1,2,0:0:0:0:
256,192,154750,2,0,L|256:32,1,139.5,2|0,0:0|0:0,0:0:0:0:
256,0,155208,5,4,0:0:0:0:
256,192,155323,12,0,160934,0:0:0:0:
