osu file format v14

[General]
AudioFilename: audio.mp3
AudioLeadIn: 0
PreviewTime: 54568
Countdown: 0
SampleSet: Soft
StackLeniency: 0.7
Mode: 0
LetterboxInBreaks: 0
WidescreenStoryboard: 0

[Editor]
DistanceSpacing: 1.2
BeatDivisor: 4
GridSize: 8
TimelineZoom: 2.2

[Metadata]
Title:JUSTITIA (TV-version)
TitleUnicode:JUSTITIA (TV-version)
Artist:Lia
ArtistUnicode:Lia
Creator:appleeaterx
Version:Expert
Source:ウィザード・バリスターズ〜弁魔士セシル
Tags:Wizard Barristers Benmashi Cecil opening
BeatmapID:934065
BeatmapSetID:433298

[Difficulty]
HPDrainRate:7
CircleSize:4
OverallDifficulty:8
ApproachRate:9
SliderMultiplier:1.6
SliderTickRate:1

[Events]
//Background and Video events
0,0,"bg.jpg",0,0
Video,22,"video.avi"
//Break Periods
//Storyboard Layer 0 (Background)
//Storyboard Layer 1 (Fail)
//Storyboard Layer 2 (Pass)
//Storyboard Layer 3 (Foreground)
//Storyboard Sound Samples

[TimingPoints]
1057,337.078651685393,4,2,1,45,1,0
1057,-153.846153846154,4,2,1,45,0,0
1731,-153.846153846154,4,2,1,30,0,0
1815,-153.846153846154,4,2,1,45,0,0
3079,-153.846153846154,4,2,1,30,0,0
3163,-153.846153846154,4,2,1,45,0,0
4427,-153.846153846154,4,2,1,30,0,0
4512,-153.846153846154,4,2,1,45,0,0
5776,-153.846153846154,4,2,1,30,0,0
5860,-153.846153846154,4,2,1,45,0,0
6281,-153.846153846154,4,2,1,30,0,0
6365,-153.846153846154,4,2,1,45,0,0
7124,-153.846153846154,4,2,1,30,0,0
7208,-153.846153846154,4,2,1,45,0,0
8472,-153.846153846154,4,2,1,30,0,0
8556,-153.846153846154,4,2,1,45,0,0
9821,-153.846153846154,4,2,1,30,0,0
9905,-153.846153846154,4,2,1,45,0,0
10495,-153.846153846154,4,2,1,50,0,0
11169,-153.846153846154,4,2,1,55,0,0
11506,-153.846153846154,4,2,1,60,0,0
11843,-100,4,2,1,65,0,0
16899,-100,4,2,1,55,0,0
16983,-100,4,2,1,65,0,0
19933,-100,4,2,1,60,0,0
20607,-100,4,2,1,64,0,0
21113,-100,4,2,1,68,0,0
21618,-100,4,2,1,72,0,0
21955,-100,4,2,1,75,0,0
22630,-133.333333333333,4,2,1,50,0,0
27939,-133.333333333333,4,2,1,15,0,0
28023,-133.333333333333,4,2,1,50,0,0
33248,-111.111111111111,4,2,1,60,0,0
44118,-111.111111111111,4,2,1,15,0,0
44203,-133.333333333333,4,2,1,50,0,0
49090,-133.333333333333,4,2,1,35,0,0
49596,-75.187969924812,4,2,1,55,0,0
52292,-100,4,2,1,70,0,0
54989,-90.9090909090909,4,2,1,78,0,1
59118,-90.9090909090909,4,2,1,25,0,1
59203,-90.9090909090909,4,2,1,78,0,1
62995,-90.9090909090909,4,2,1,25,0,1
63079,-90.9090909090909,4,2,1,78,0,1
65439,-90.9090909090909,4,2,1,78,0,0
65776,-90.9090909090909,4,2,1,78,0,1
74624,-90.9090909090909,4,2,1,25,0,1
74708,-90.9090909090909,4,2,1,78,0,1
76225,-90.9090909090909,4,2,1,78,0,0
76562,-90.9090909090909,4,2,1,78,0,1
84652,-200,4,2,1,78,0,0
85326,-200,4,2,1,30,0,0
86000,-90.9090909090909,4,2,1,78,0,1
87012,-59.1715976331361,4,2,1,78,0,1
87349,-66.6666666666667,4,2,1,78,0,0
88613,-66.6666666666667,4,2,1,20,0,0

[Colours]
Combo1 : 128,128,255
Combo2 : 255,255,128
Combo3 : 128,255,255
Combo4 : 255,128,128
Combo5 : 128,255,128

[HitObjects]
40,168,888,5,0,0:0:0:0:
40,168,972,1,0,0:0:0:0:
40,168,1057,1,6,3:2:0:0:
40,168,1394,6,0,L|112:160,1,51.999997619629,2|0,1:2|0:0,0:0:0:0:
272,128,1731,2,0,L|220:122,1,51.999997619629,8|0,1:2|0:0,0:0:0:0:
136,80,2068,1,0,1:0:0:0:
216,32,2236,1,0,0:0:0:0:
176,208,2405,5,2,0:0:0:0:
136,80,2573,1,0,0:0:0:0:
272,112,2742,2,0,L|376:104,1,103.999995239258,0|8,1:0|1:2,0:0:0:0:
480,240,3417,1,0,1:0:0:0:
416,304,3585,1,0,0:0:0:0:
416,304,3669,1,0,0:0:0:0:
416,304,3753,6,0,L|344:296,1,51.999997619629,2|0,0:0|0:0,0:0:0:0:
207,262,4090,1,0,1:0:0:0:
295,228,4259,1,0,0:0:0:0:
246,351,4427,5,8,1:2:0:0:
170,176,4596,1,0,0:0:0:0:
295,228,4764,2,0,L|358:223,1,51.999997619629,0|0,1:0|0:0,0:0:0:0:
116,294,5101,6,0,L|-3:283,2,103.999995239258,2|0|8,0:0|1:0|1:2,0:0:0:0:
260,132,6113,2,0,L|256:76,1,51.999997619629,0|8,1:0|1:2,0:0:0:0:
133,47,6450,6,0,L|122:168,1,103.999995239258,2|0,0:0|1:0,0:0:0:0:
224,345,7124,1,8,1:2:0:0:
213,254,7292,1,0,0:0:0:0:
139,302,7461,1,0,1:0:0:0:
296,290,7630,6,0,B|335:283|335:283|359:289|359:289|408:281,1,103.999995239258,2|0,0:0|1:0,0:0:0:0:
446,145,8135,1,0,1:0:0:0:
481,227,8304,1,0,0:0:0:0:
366,193,8472,2,0,P|355:148|374:83,1,103.999995239258,8|0,1:2|1:0,0:0:0:0:
244,25,8977,1,0,0:0:0:0:
244,25,9062,1,0,0:0:0:0:
244,25,9146,6,0,P|255:70|236:135,1,103.999995239258,2|0,3:2|1:0,0:0:0:0:
152,160,9652,1,0,0:0:0:0:
32,80,9821,2,0,L|140:69,1,103.999995239258,8|0,1:2|1:0,0:0:0:0:
254,312,10495,6,0,B|170:285|185:345|95:316,1,155.999992858887,2|0,0:0|0:0,0:0:0:0:
260,203,11169,5,2,0:0:0:0:
279,204,11253,1,0,0:0:0:0:
298,209,11337,1,0,0:0:0:0:
315,217,11421,1,0,0:0:0:0:
331,232,11506,5,0,1:0:0:0:
350,257,11590,1,0,1:0:0:0:
361,288,11674,1,0,1:0:0:0:
361,320,11758,1,0,1:0:0:0:
350,351,11843,6,0,L|392:182,1,160,6|8,3:2|0:0,0:0:0:0:
446,24,12349,2,0,P|461:64|459:106,1,80,6|0,0:0|0:0,0:0:0:0:
360,79,12686,1,0,3:0:0:0:
481,201,12854,1,8,0:0:0:0:
287,150,13023,6,0,B|226:140|226:140|187:152|187:152|113:137,1,160,6|0,3:2|3:0,0:0:0:0:
238,239,13528,1,10,0:0:0:0:
64,79,13697,2,0,P|40:124|38:167,1,80,0|0,3:0|0:0,0:0:0:0:
173,46,14034,1,0,3:0:0:0:
65,240,14203,2,0,P|109:258|147:257,1,80,8|0,0:0|0:0,0:0:0:0:
283,55,14540,6,0,P|267:104|262:144,1,80,6|0,3:2|3:0,0:0:0:0:
304,326,14877,1,8,0:0:0:0:
383,250,15045,2,0,P|326:218|228:246,1,160,6|0,0:0|3:0,0:0:0:0:
445,336,15551,1,8,0:0:0:0:
445,165,15719,6,0,P|453:115|464:68,1,80,2|0,3:2|0:0,0:0:0:0:
503,4,16056,1,0,3:0:0:0:
366,87,16225,1,8,0:0:0:0:
496,245,16394,2,0,P|426:256|353:186,1,160,6|2,0:0|3:2,0:0:0:0:
289,17,16899,1,12,0:0:0:0:
289,17,17236,6,0,P|269:64|268:98,1,80,6|0,3:2|3:0,0:0:0:0:
296,256,17573,1,8,0:0:0:0:
200,172,17742,2,0,P|135:143|31:175,1,160,6|0,0:0|3:0,0:0:0:0:
296,256,18248,1,8,0:0:0:0:
402,185,18416,6,0,P|424:135|402:17,1,160,6|0,3:2|3:0,0:0:0:0:
156,30,18922,1,8,0:0:0:0:
243,89,19090,2,0,L|333:80,1,80,0|0,3:0|0:0,0:0:0:0:
156,30,19427,1,0,3:0:0:0:
92,151,19596,2,0,L|11:143,1,80,8|0,0:0|0:0,0:0:0:0:
54,319,19933,5,6,3:2:0:0:
92,327,20017,1,0,0:0:0:0:
132,324,20101,1,2,3:2:0:0:
169,309,20185,1,0,0:0:0:0:
201,285,20270,1,8,0:0:0:0:
224,252,20354,1,0,0:0:0:0:
236,214,20438,1,2,3:2:0:0:
237,175,20522,1,0,0:0:0:0:
222,137,20607,6,0,L|214:89,1,40,2|0,0:0|0:0,0:0:0:0:
326,19,20776,2,0,L|321:72,1,40,2|0,3:2|0:0,0:0:0:0:
334,189,20944,2,0,L|393:178,1,40,8|0,0:0|0:0,0:0:0:0:
507,126,21113,5,6,3:2:0:0:
501,165,21197,1,0,0:0:0:0:
496,205,21281,1,2,0:0:0:0:
491,244,21365,1,0,0:0:0:0:
482,286,21450,2,0,L|440:280,1,40,8|0,0:3|3:0,0:0:0:0:
334,189,21618,5,8,0:0:0:0:
299,225,21702,1,2,0:0:0:0:
284,272,21786,1,2,3:2:0:0:
290,321,21870,1,2,0:0:0:0:
316,363,21955,5,10,0:0:0:0:
222,137,22124,1,10,0:0:0:0:
222,137,22630,6,0,L|152:128,1,60.0000022888184,2|0,3:2|3:0,0:0:0:0:
324,76,22967,2,0,P|341:138|331:196,2,120.000004577637,2|0|0,3:2|3:0|3:0,0:0:0:0:
230,41,23809,1,0,1:0:0:0:
429,76,23978,6,0,L|493:70,1,60.0000022888184,2|0,3:2|0:0,0:0:0:0:
392,197,24315,2,0,L|328:191,1,60.0000022888184,2|0,3:2|0:0,0:0:0:0:
162,176,24652,1,0,3:0:0:0:
248,134,24821,1,0,1:0:0:0:
172,270,24989,2,0,L|112:264,1,60.0000022888184,2|0,3:2|0:0,0:0:0:0:
13,124,25326,6,0,P|59:89|131:98,1,120.000004577637,2|2,3:3|3:2,0:0:0:0:
162,176,25832,1,0,0:0:0:0:
301,62,26000,2,0,L|296:-9,1,60.0000022888184,0|0,3:0|0:0,0:0:0:0:
248,134,26337,2,0,P|285:150|315:152,1,60.0000022888184,0|0,3:0|1:0,0:0:0:0:
367,108,26590,1,2,0:0:0:0:
379,116,26674,5,2,3:2:0:0:
468,224,26843,1,0,1:0:0:0:
478,125,27011,1,2,3:2:0:0:
371,211,27180,1,0,1:0:0:0:
448,324,27349,2,0,L|511:317,1,60.0000022888184,2|0,3:2|3:0,0:0:0:0:
371,211,27686,2,0,L|267:205,1,90.0000034332277,2|0,3:2|0:0,0:0:0:0:
254,183,28023,6,0,P|251:150|257:113,1,60.0000022888184,2|0,3:0|0:0,0:0:0:0:
217,274,28360,2,0,P|161:282|102:254,2,120.000004577637,2|2|2,3:2|3:2|3:2,0:0:0:0:
70,172,29203,6,0,P|24:222|25:298,1,120.000004577637,2|0,0:0|0:0,0:0:0:0:
172,184,29708,2,0,L|167:119,1,60.0000022888184,2|0,3:2|0:0,0:0:0:0:
217,273,30045,1,2,3:2:0:0:
301,211,30214,1,0,1:0:0:0:
357,359,30382,2,0,L|364:300,1,60.0000022888184,2|0,3:2|0:0,0:0:0:0:
391,220,30635,1,0,0:0:0:0:
391,220,30719,6,0,P|444:198|502:217,1,120.000004577637,2|2,3:2|3:2,0:0:0:0:
364,300,31225,1,2,0:0:0:0:
301,211,31394,2,0,L|312:90,1,120.000004577637,0|0,3:0|3:0,0:0:0:0:
369,17,31899,1,0,1:0:0:0:
214,98,32067,5,2,3:2:0:0:
214,98,32236,1,0,0:0:0:0:
371,186,32405,1,2,3:2:0:0:
371,186,32574,1,0,0:0:0:0:
311,91,32742,5,10,0:0:0:0:
257,305,32910,1,10,0:0:0:0:
257,305,33248,6,0,P|202:280|118:300,1,143.999995605469,6|0,3:2|3:0,0:0:0:0:
26,156,33753,2,0,P|94:173|160:147,1,143.999995605469,8|0,0:0|3:0,0:0:0:0:
271,16,34259,1,0,0:0:0:0:
254,23,34343,1,0,0:0:0:0:
237,34,34427,2,0,L|245:115,1,71.9999978027344,8|0,0:0|0:0,0:0:0:0:
270,274,34764,5,2,3:2:0:0:
160,147,34933,1,2,0:0:0:0:
343,106,35101,2,0,L|335:187,1,71.9999978027344,8|2,0:0|0:0,0:0:0:0:
292,362,35439,1,0,3:0:0:0:
377,264,35607,1,0,0:0:0:0:
248,186,35776,1,8,0:0:0:0:
376,350,35944,6,0,P|445:332|522:322,1,143.999995605469,2|0,3:2|3:0,0:0:0:0:
463,178,36450,2,0,P|391:168|322:150,1,143.999995605469,8|0,0:0|3:0,0:0:0:0:
214,42,36955,1,0,0:0:0:0:
230,35,37039,1,0,0:0:0:0:
247,30,37124,2,0,L|238:108,1,71.9999978027344,8|0,0:0|0:0,0:0:0:0:
201,231,37461,5,2,3:2:0:0:
201,231,37630,1,2,0:0:0:0:
321,150,37798,1,10,0:0:0:0:
321,150,37967,1,2,3:2:0:0:
245,320,38135,1,2,3:2:0:0:
171,140,38304,1,10,0:0:0:0:
308,242,38472,1,10,0:0:0:0:
147,308,38641,6,0,P|70:294|-4:290,1,143.999995605469,2|0,3:2|3:0,0:0:0:0:
68,190,39146,2,0,P|57:142|55:111,1,71.9999978027344,8|0,0:0|0:0,0:0:0:0:
181,68,39483,2,0,P|172:122|170:160,1,71.9999978027344,2|0,3:2|0:0,0:0:0:0:
245,320,39821,1,8,0:0:0:0:
351,241,39989,6,0,P|302:212|205:227,1,143.999995605469,2|0,3:2|3:0,0:0:0:0:
343,344,40495,2,0,P|386:340|419:327,1,71.9999978027344,8|0,0:0|0:0,0:0:0:0:
493,175,40832,2,0,P|458:163|423:161,1,71.9999978027344,0|2,3:0|0:0,0:0:0:0:
351,241,41169,1,8,0:0:0:0:
297,28,41337,6,0,P|273:79|276:174,1,143.999995605469,2|0,3:2|3:0,0:0:0:0:
312,335,41843,2,0,P|280:326|215:330,1,71.9999978027344,8|0,0:0|0:0,0:0:0:0:
139,356,42096,1,0,0:0:0:0:
155,326,42180,2,0,P|154:272|135:202,2,107.999996704102,2|2|2,3:0|0:0|0:0,0:0:0:0:
71,291,42854,6,0,P|20:286|-12:288,1,71.9999978027344,2|0,3:2|0:0,0:0:0:0:
141,219,43191,1,8,0:0:0:0:
51,165,43360,1,2,0:0:0:0:
155,326,43528,2,0,P|190:326|226:321,1,71.9999978027344,8|0,0:0|0:0,0:0:0:0:
343,178,43865,2,0,P|323:235|318:314,1,107.999996704102,8|0,0:0|0:0,0:0:0:0:
327,295,44203,6,0,L|460:282,1,120.000004577637,6|0,3:2|0:0,0:0:0:0:
503,51,44764,1,0,3:0:0:0:
450,111,44877,2,0,L|353:103,1,80.0000030517579,10|0,0:0|0:0,0:0:0:0:
322,161,45214,1,0,3:0:0:0:
219,36,45551,6,0,P|174:23|123:35,1,80.0000030517579,2|0,0:0|3:0,0:0:0:0:
2,100,45888,2,0,P|41:103|79:91,1,80.0000030517579,0|0,3:0|0:0,0:0:0:0:
62,13,46225,1,8,0:0:0:0:
137,185,46450,1,0,0:0:0:0:
137,185,46562,1,0,3:0:0:0:
293,100,46899,6,0,L|416:92,1,120.000004577637,2|0,3:2|3:0,0:0:0:0:
468,291,47573,2,0,L|382:283,1,80.0000030517579,8|0,0:0|3:0,0:0:0:0:
323,237,47910,2,0,P|308:283|315:320,1,80.0000030517579,0|0,0:0|3:0,0:0:0:0:
378,361,48248,5,2,3:2:0:0:
222,293,48472,1,0,0:0:0:0:
149,258,48585,2,0,L|25:249,1,120.000004577637,0|8,3:0|0:0,0:0:0:0:
52,61,49090,5,8,0:0:0:0:
54,72,49174,1,8,0:0:0:0:
57,83,49258,1,10,0:0:0:0:
59,95,49343,1,8,0:0:0:0:
62,106,49427,1,8,0:0:0:0:
64,117,49511,1,8,0:0:0:0:
68,130,49596,6,0,L|152:118,1,70.9333304109702,6|0,3:2|0:0,0:0:0:0:
227,24,49821,2,0,L|143:36,1,70.9333304109702,6|0,0:0|0:0,0:0:0:0:
230,135,50045,2,0,L|314:123,1,70.9333304109702,6|0,0:0|0:0,0:0:0:0:
372,53,50270,6,0,P|401:117|398:146,1,70.9333304109702,6|0,3:2|0:0,0:0:0:0:
512,216,50495,2,0,P|442:209|418:192,1,70.9333304109702,6|0,0:0|0:0,0:0:0:0:
298,253,50719,2,0,P|338:195|365:183,1,70.9333304109702,6|0,0:0|0:0,0:0:0:0:
393,300,50944,6,0,L|384:380,1,70.9333304109702,6|0,3:2|0:0,0:0:0:0:
195,279,51169,2,0,L|204:199,1,70.9333304109702,6|8,0:0|0:0,0:0:0:0:
298,253,51394,2,0,L|289:333,1,70.9333304109702,6|0,0:0|0:0,0:0:0:0:
175,376,51618,6,0,P|131:359|109:330,1,70.9333304109702,6|0,3:2|0:0,0:0:0:0:
19,279,51843,2,0,P|11:232|25:198,1,70.9333304109702,6|8,0:0|0:0,0:0:0:0:
34,96,52068,2,0,P|70:66|106:61,1,70.9333304109702,6|0,0:0|0:0,0:0:0:0:
259,179,52292,6,0,P|184:193|103:127,1,160,6|8,3:2|0:0,0:0:0:0:
285,82,52798,1,0,0:0:0:0:
359,181,52967,2,0,L|349:271,1,80,0|0,3:0|3:0,0:0:0:0:
259,179,53304,1,8,0:0:0:0:
291,335,53472,6,0,P|366:349|447:283,1,160,6|8,0:0|0:0,0:0:0:0:
208,270,53978,1,8,0:0:0:0:
208,270,54062,1,8,0:0:0:0:
208,270,54146,1,0,3:0:0:0:
275,43,54315,6,2,L|283:10,6,20
302,78,54652,2,0,L|393:70,1,80,0|0,0:0|3:0,0:0:0:0:
128,72,54989,6,0,P|144:136|144:176,2,88.000002685547,6|0|8,3:2|0:0|0:0,0:0:0:0:
88,256,55495,2,0,P|160:272|248:192,1,176.000005371094,2|0,3:2|3:0,0:0:0:0:
280,24,56000,1,8,0:0:0:0:
408,120,56169,6,0,B|344:112|344:112|296:128|296:128|232:120,1,176.000005371094,6|0,3:2|0:3,0:0:0:0:
328,290,56674,2,0,L|424:282,1,88.000002685547,8|0,0:0|0:0,0:0:0:0:
240,224,57012,1,0,3:0:0:0:
176,376,57180,1,0,3:0:0:0:
127,216,57349,2,0,L|39:208,1,88.000002685547,8|0,0:0|0:0,0:0:0:0:
246,108,57686,5,2,3:2:0:0:
124,95,57854,1,0,3:0:0:0:
240,224,58023,1,8,0:0:0:0:
301,5,58191,2,0,P|349:93|333:189,1,176.000005371094,2|0,3:2|3:0,0:0:0:0:
128,216,58697,1,8,0:0:0:0:
328,272,58865,6,0,P|392:256|488:256,1,132.00000402832,6|0,3:2|0:0,0:0:0:0:
483,290,59203,1,0,3:0:0:0:
342,165,59371,1,8,0:0:0:0:
195,328,59540,6,0,P|107:344|35:264,1,176.000005371094,6|0,3:2|3:0,0:0:0:0:
128,64,60045,1,8,0:0:0:0:
148,89,60129,1,0,0:0:0:0:
159,120,60213,1,8,0:0:0:0:
158,153,60297,1,0,0:0:0:0:
147,184,60382,6,0,L|248:176,2,88.000002685547,6|0|8,3:2|3:0|0:0,0:0:0:0:
336,248,60888,2,0,P|368:168|320:88,1,176.000005371094,2|0,3:2|3:0,0:0:0:0:
224,287,61394,1,8,0:0:0:0:
216,56,61562,6,0,B|152:72|152:72|104:64|104:64|16:88,1,176.000005371094,6|0,3:2|3:0,0:0:0:0:
48,272,62068,1,8,0:0:0:0:
104,160,62236,1,0,0:0:0:0:
16,368,62405,2,0,P|72:368|112:344,1,88.000002685547,0|0,3:0|3:0,0:0:0:0:
232,136,62742,2,0,P|248:208|256:280,1,132.00000402832,8|0,0:0|0:0,0:0:0:0:
264,304,63079,6,0,P|216:288|168:296,1,88.000002685547,6|0,3:2|3:0,0:0:0:0:
367,344,63416,1,8,0:0:0:0:
128,192,63585,2,0,P|80:248|104:376,1,176.000005371094,2|0,3:2|3:0,0:0:0:0:
243,211,64090,1,8,0:0:0:0:
122,79,64259,1,0,3:0:0:0:
179,291,64427,5,2,3:2:0:0:
272,167,64596,1,10,0:0:0:0:
330,330,64764,5,8,0:0:0:0:
289,345,64848,1,8,0:0:0:0:
245,343,64932,1,2,0:0:0:0:
206,324,65017,1,8,0:0:0:0:
176,288,65101,1,10,0:0:0:0:
143,258,65185,1,0,3:0:0:0:
102,243,65269,1,0,3:0:0:0:
58,245,65353,1,0,3:0:0:0:
16,264,65439,6,0,L|24:168,1,88.000002685547,10|0,3:2|3:0,0:0:0:0:
49,56,65691,1,0,0:0:0:0:
83,83,65776,6,0,P|115:125|126:170,1,88.000002685547,6|0,3:2|0:0,0:0:0:0:
88,336,66113,1,8,0:0:0:0:
243,211,66281,2,0,L|267:19,1,176.000005371094,2|0,3:2|3:0,0:0:0:0:
143,258,66787,1,8,0:0:0:0:
344,192,66955,6,0,P|392:264|368:352,1,176.000005371094,6|0,3:2|3:0,0:0:0:0:
272,280,67461,1,8,0:0:0:0:
456,152,67630,1,0,0:0:0:0:
336,16,67798,2,0,P|328:88|328:128,1,88.000002685547,2|0,3:2|3:0,0:0:0:0:
408,272,68135,1,10,0:0:0:0:
456,152,68304,1,0,0:0:0:0:
296,224,68472,6,0,P|240:208|208:208,2,88.000002685547,6|0|8,3:2|3:0|0:0,0:0:0:0:
120,296,68978,2,0,P|96:240|136:120,1,176.000005371094,2|0,3:2|3:0,0:0:0:0:
240,312,69483,1,8,0:0:0:0:
240,104,69652,6,0,B|336:64|312:136|416:88,1,176.000005371094,6|0,3:2|3:0,0:0:0:0:
504,272,70158,1,10,0:0:0:0:
384,224,70326,2,0,P|320:208|232:296,1,176.000005371094,6|0,3:2|3:0,0:0:0:0:
8,368,70832,2,0,P|64:360|96:336,1,88.000002685547,10|8,0:0|0:3,0:0:0:0:
144,256,71085,1,0,3:0:0:0:
112,224,71169,6,0,P|96:160|80:128,2,88.000002685547,6|0|8,3:2|0:0|0:0,0:0:0:0:
8,8,71674,2,0,P|64:40|192:16,1,176.000005371094,2|0,3:2|3:0,0:0:0:0:
376,8,72180,1,8,0:0:0:0:
448,160,72349,6,0,P|362:175|284:138,1,176.000005371094,6|2,3:2|3:2,0:0:0:0:
200,296,72854,2,0,P|272:280|312:280,1,88.000002685547,8|0,0:0|0:0,0:0:0:0:
80,240,73191,1,2,0:0:0:0:
168,160,73360,1,0,3:0:0:0:
104,368,73528,2,0,P|56:360|8:344,1,88.000002685547,8|0,0:0|3:0,0:0:0:0:
8,72,73865,5,6,0:0:0:0:
168,160,74034,1,0,3:0:0:0:
8,248,74203,1,0,3:0:0:0:
112,80,74371,6,0,P|176:48|256:64,1,132.00000402832,10|0,0:0|0:0,0:0:0:0:
280,72,74708,1,0,3:0:0:0:
160,256,74877,1,8,0:0:0:0:
368,16,75045,6,0,P|400:80|376:200,1,176.000005371094,6|0,3:2|3:0,0:0:0:0:
224,168,75551,1,8,0:0:0:0:
288,296,75719,5,0,3:0:0:0:
329,281,75803,1,8,0:0:0:0:
373,278,75887,1,10,0:0:0:0:
416,283,75972,1,8,0:0:0:0:
457,268,76056,1,8,0:0:0:0:
487,236,76140,1,8,0:0:0:0:
501,195,76225,1,10,0:0:0:0:
499,151,76309,1,2,0:0:0:0:
480,112,76393,1,10,0:0:0:0:
446,84,76477,1,2,0:0:0:0:
404,72,76562,6,0,L|410:207,1,132.00000402832,6|8,3:2|0:0,0:0:0:0:
328,181,76899,2,0,L|233:165,1,88.000002685547,0|8,3:0|0:0,0:0:0:0:
32,106,77236,1,0,3:0:0:0:
219,60,77405,1,8,0:0:0:0:
219,60,77489,1,8,0:0:0:0:
219,60,77573,1,0,3:0:0:0:
160,256,77742,1,0,3:0:0:0:
110,29,77910,5,6,3:2:0:0:
56,216,78079,1,8,0:0:0:0:
56,216,78163,1,8,0:0:0:0:
56,216,78247,1,0,3:0:0:0:
241,166,78416,1,8,0:0:0:0:
184,360,78585,2,0,P|105:349|81:347,1,88.000002685547,0|0,3:0|3:0,0:0:0:0:
288,272,78922,1,2,3:2:0:0:
331,276,79006,1,0,3:2:0:0:
367,299,79090,1,0,3:2:0:0:
388,338,79174,1,0,3:2:0:0:
389,382,79259,6,0,P|402:315|425:213,1,132.00000402832,6|8,3:2|0:0,0:0:0:0:
440,152,79596,2,0,P|378:167|340:175,1,88.000002685547,8|8,0:0|0:0,0:0:0:0:
172,65,79933,5,2,3:2:0:0:
305,39,80101,1,8,0:0:0:0:
305,39,80186,1,8,0:0:0:0:
305,39,80270,1,0,3:0:0:0:
223,188,80439,1,8,0:0:0:0:
172,65,80607,6,0,P|119:50|78:53,1,88.000002685547,6|0,0:0|0:0,0:0:0:0:
100,146,80860,1,8,0:0:0:0:
79,167,80944,2,0,P|40:186|9:217,1,88.000002685547,0|8,3:0|0:0,0:0:0:0:
132,371,81281,6,0,P|132:327|146:286,1,88.000002685547,2|8,3:2|0:0,0:0:0:0:
289,266,81534,1,0,3:0:0:0:
280,294,81618,2,0,P|306:342|337:368,1,88.000002685547,0|0,3:0|0:0,0:0:0:0:
427,145,81955,5,6,3:2:0:0:
383,272,82124,1,8,0:0:0:0:
383,272,82208,1,8,0:0:0:0:
383,272,82292,1,0,3:0:0:0:
336,60,82461,1,8,0:0:0:0:
494,230,82630,5,2,3:2:0:0:
330,170,82798,1,8,0:0:0:0:
330,170,82882,1,8,0:0:0:0:
330,170,82967,1,0,3:0:0:0:
458,45,83135,1,8,0:0:0:0:
383,272,83304,5,6,3:2:0:0:
237,100,83472,1,8,0:0:0:0:
237,100,83556,1,8,0:0:0:0:
237,100,83641,1,0,3:0:0:0:
276,315,83809,2,0,P|218:299|171:297,1,88.000002685547,8|2,0:0|3:2,0:0:0:0:
60,359,84146,1,8,0:0:0:0:
24,134,84315,1,2,3:2:0:0:
64,116,84399,1,2,3:2:0:0:
107,116,84483,1,2,3:2:0:0:
148,132,84567,1,2,3:2:0:0:
180,162,84652,6,0,L|199:-7,1,160,6|2,3:2|0:3,0:0:0:0:
231,17,85832,1,0,0:0:0:0:
231,17,85916,1,0,0:0:0:0:
231,17,86000,6,0,L|219:121,1,88.000002685547,2|8,3:2|0:0,0:0:0:0:
269,374,86337,2,0,L|281:270,1,88.000002685547,8|8,0:0|0:0,0:0:0:0:
305,107,86674,1,8,0:0:0:0:
263,96,86758,1,8,0:0:0:0:
220,104,86842,1,0,3:0:0:0:
185,130,86926,1,0,3:0:0:0:
164,168,87012,6,0,L|86:158,1,67.6000012635803,8|8,0:0|0:0,0:0:0:0:
279,286,87180,6,0,L|356:276,1,67.6000012635803,8|8,0:0|0:0,0:0:0:0:
305,107,87349,5,6,3:2:0:0:
256,192,87433,12,0,88613,0:0:0:0:
