osu file format v14

[General]
AudioFilename: Lia - I miss you (DJ SHARPNEL Remix) - remix.mp3
AudioLeadIn: 0
PreviewTime: 85635
Countdown: 0
SampleSet: None
StackLeniency: 0.7
Mode: 3
LetterboxInBreaks: 0
SpecialStyle: 0
WidescreenStoryboard: 0

[Editor]
DistanceSpacing: 2
BeatDivisor: 4
GridSize: 16
TimelineZoom: 1.1

[Metadata]
Title:I miss you (DJ SHARPNEL Remix) - remix
TitleUnicode:I miss you (DJ SHARPNEL Remix) - remix
Artist:Lia
ArtistUnicode:Lia
Creator:Marirose
Version::3
Source:
Tags:
BeatmapID:1009290
BeatmapSetID:472309

[Difficulty]
HPDrainRate:8
CircleSize:4
OverallDifficulty:8
ApproachRate:5
SliderMultiplier:1.4
SliderTickRate:1

[Events]
//Background and Video events
0,0,"BG.jpg",0,0
//Break Periods
//Storyboard Layer 0 (Background)
//Storyboard Layer 1 (Fail)
//Storyboard Layer 2 (Pass)
//Storyboard Layer 3 (Foreground)
//Storyboard Sound Samples

[TimingPoints]
3439,346.820809248555,4,2,0,0,1,0

[HitObjects]
64,192,664,128,0,3439:0:0:0:0:
320,192,3439,1,0,0:0:0:0:
192,192,3439,1,0,0:0:0:0:
448,192,3439,128,0,4826:0:0:0:0:
64,192,4826,128,0,6213:0:0:0:0:
320,192,6213,128,0,8988:0:0:0:0:
192,192,8988,128,0,10375:0:0:0:0:
448,192,10375,128,0,12629:0:0:0:0:
320,192,11762,128,0,13149:0:0:0:0:
192,192,12629,1,0,0:0:0:0:
64,192,12803,1,0,0:0:0:0:
192,192,12976,1,0,0:0:0:0:
192,192,13149,1,0,0:0:0:0:
64,192,13149,1,0,0:0:0:0:
192,192,13496,128,0,14190:0:0:0:0:
448,192,13843,128,0,14537:0:0:0:0:
320,192,14190,128,0,15924:0:0:0:0:
192,192,14537,1,0,0:0:0:0:
64,192,14537,128,0,14884:0:0:0:0:
64,192,15057,128,0,15404:0:0:0:0:
64,192,15577,128,0,15924:0:0:0:0:
448,192,15924,128,0,17311:0:0:0:0:
192,192,15924,128,0,16271:0:0:0:0:
192,192,16444,128,0,16791:0:0:0:0:
192,192,16965,128,0,17311:0:0:0:0:
64,192,17311,128,0,18699:0:0:0:0:
320,192,17311,128,0,17658:0:0:0:0:
320,192,17832,128,0,18178:0:0:0:0:
320,192,18352,128,0,18699:0:0:0:0:
320,192,18872,128,0,19219:0:0:0:0:
64,192,19045,128,0,19392:0:0:0:0:
192,192,19392,128,0,19739:0:0:0:0:
320,192,19739,128,0,20086:0:0:0:0:
448,192,20086,128,0,21473:0:0:0:0:
192,192,20086,1,0,0:0:0:0:
64,192,20173,1,0,0:0:0:0:
192,192,20259,1,0,0:0:0:0:
320,192,20346,1,0,0:0:0:0:
64,192,20433,1,0,0:0:0:0:
192,192,20606,1,0,0:0:0:0:
64,192,20693,1,0,0:0:0:0:
192,192,20780,1,0,0:0:0:0:
320,192,20866,1,0,0:0:0:0:
64,192,20953,1,0,0:0:0:0:
192,192,21126,1,0,0:0:0:0:
64,192,21213,1,0,0:0:0:0:
192,192,21300,1,0,0:0:0:0:
320,192,21386,1,0,0:0:0:0:
320,192,21473,128,0,22860:0:0:0:0:
64,192,21473,1,0,0:0:0:0:
192,192,21560,1,0,0:0:0:0:
64,192,21647,1,0,0:0:0:0:
448,192,21733,1,0,0:0:0:0:
192,192,21820,1,0,0:0:0:0:
64,192,21993,1,0,0:0:0:0:
192,192,22080,1,0,0:0:0:0:
64,192,22167,1,0,0:0:0:0:
448,192,22254,1,0,0:0:0:0:
192,192,22340,1,0,0:0:0:0:
64,192,22514,1,0,0:0:0:0:
192,192,22600,1,0,0:0:0:0:
64,192,22687,1,0,0:0:0:0:
448,192,22774,1,0,0:0:0:0:
192,192,22774,1,0,0:0:0:0:
192,192,22860,128,0,24248:0:0:0:0:
64,192,22860,1,0,0:0:0:0:
320,192,22947,1,0,0:0:0:0:
64,192,23034,1,0,0:0:0:0:
448,192,23121,1,0,0:0:0:0:
320,192,23207,1,0,0:0:0:0:
64,192,23381,1,0,0:0:0:0:
320,192,23467,1,0,0:0:0:0:
64,192,23554,1,0,0:0:0:0:
448,192,23641,1,0,0:0:0:0:
320,192,23728,1,0,0:0:0:0:
64,192,23901,1,0,0:0:0:0:
320,192,23988,1,0,0:0:0:0:
64,192,24074,1,0,0:0:0:0:
448,192,24161,1,0,0:0:0:0:
320,192,24248,1,0,0:0:0:0:
192,192,24334,1,0,0:0:0:0:
448,192,24421,1,0,0:0:0:0:
64,192,24508,1,0,0:0:0:0:
192,192,24595,1,0,0:0:0:0:
320,192,24595,1,0,0:0:0:0:
448,192,24768,1,0,0:0:0:0:
320,192,24855,1,0,0:0:0:0:
64,192,24941,1,0,0:0:0:0:
192,192,24941,1,0,0:0:0:0:
320,192,25028,1,0,0:0:0:0:
192,192,25115,1,0,0:0:0:0:
320,192,25202,1,0,0:0:0:0:
192,192,25288,1,0,0:0:0:0:
448,192,25288,1,0,0:0:0:0:
64,192,25375,1,0,0:0:0:0:
192,192,25462,1,0,0:0:0:0:
64,192,25548,1,0,0:0:0:0:
448,192,25635,1,0,0:0:0:0:
192,192,25635,1,0,0:0:0:0:
320,192,25635,1,0,0:0:0:0:
64,192,25808,1,0,0:0:0:0:
448,192,25982,1,0,0:0:0:0:
192,192,25982,1,0,0:0:0:0:
64,192,26155,1,0,0:0:0:0:
320,192,26329,1,0,0:0:0:0:
192,192,26329,1,0,0:0:0:0:
64,192,26502,1,0,0:0:0:0:
448,192,26675,1,0,0:0:0:0:
192,192,26675,1,0,0:0:0:0:
64,192,26849,1,0,0:0:0:0:
320,192,27022,1,0,0:0:0:0:
192,192,27022,1,0,0:0:0:0:
64,192,27196,1,0,0:0:0:0:
448,192,27369,1,0,0:0:0:0:
192,192,27369,1,0,0:0:0:0:
64,192,27543,1,0,0:0:0:0:
320,192,27716,1,0,0:0:0:0:
192,192,27716,1,0,0:0:0:0:
64,192,27889,1,0,0:0:0:0:
192,192,28063,1,0,0:0:0:0:
448,192,28063,1,0,0:0:0:0:
64,192,28236,1,0,0:0:0:0:
320,192,28410,1,0,0:0:0:0:
192,192,28410,1,0,0:0:0:0:
64,192,28583,1,0,0:0:0:0:
192,192,28756,1,0,0:0:0:0:
448,192,28756,1,0,0:0:0:0:
64,192,28930,1,0,0:0:0:0:
320,192,29103,1,0,0:0:0:0:
192,192,29103,1,0,0:0:0:0:
64,192,29277,1,0,0:0:0:0:
192,192,29450,1,0,0:0:0:0:
448,192,29450,1,0,0:0:0:0:
64,192,29623,1,0,0:0:0:0:
320,192,29797,1,0,0:0:0:0:
192,192,29797,1,0,0:0:0:0:
64,192,29970,1,0,0:0:0:0:
448,192,30144,1,0,0:0:0:0:
192,192,30144,1,0,0:0:0:0:
64,192,30317,1,0,0:0:0:0:
320,192,30491,1,0,0:0:0:0:
192,192,30491,1,0,0:0:0:0:
64,192,30664,1,0,0:0:0:0:
192,192,30837,1,0,0:0:0:0:
448,192,30837,1,0,0:0:0:0:
320,192,31011,1,0,0:0:0:0:
192,192,31011,1,0,0:0:0:0:
64,192,31184,1,0,0:0:0:0:
192,192,31184,1,0,0:0:0:0:
448,192,31358,1,0,0:0:0:0:
320,192,31531,1,0,0:0:0:0:
64,192,31531,1,0,0:0:0:0:
448,192,31704,1,0,0:0:0:0:
192,192,31878,1,0,0:0:0:0:
64,192,31878,1,0,0:0:0:0:
448,192,32051,1,0,0:0:0:0:
320,192,32225,1,0,0:0:0:0:
64,192,32225,1,0,0:0:0:0:
448,192,32398,1,0,0:0:0:0:
192,192,32571,1,0,0:0:0:0:
64,192,32571,1,0,0:0:0:0:
448,192,32745,1,0,0:0:0:0:
320,192,32918,1,0,0:0:0:0:
64,192,32918,1,0,0:0:0:0:
448,192,33092,1,0,0:0:0:0:
192,192,33265,1,0,0:0:0:0:
64,192,33265,1,0,0:0:0:0:
448,192,33439,1,0,0:0:0:0:
64,192,33612,1,0,0:0:0:0:
320,192,33612,1,0,0:0:0:0:
448,192,33785,1,0,0:0:0:0:
192,192,33959,1,0,0:0:0:0:
64,192,33959,1,0,0:0:0:0:
448,192,34132,1,0,0:0:0:0:
64,192,34306,1,0,0:0:0:0:
320,192,34306,1,0,0:0:0:0:
448,192,34479,1,0,0:0:0:0:
192,192,34652,1,0,0:0:0:0:
64,192,34652,1,0,0:0:0:0:
448,192,34826,1,0,0:0:0:0:
64,192,34999,1,0,0:0:0:0:
320,192,34999,1,0,0:0:0:0:
448,192,35173,1,0,0:0:0:0:
192,192,35346,1,0,0:0:0:0:
64,192,35346,1,0,0:0:0:0:
448,192,35519,1,0,0:0:0:0:
320,192,35693,1,0,0:0:0:0:
64,192,35693,1,0,0:0:0:0:
448,192,35780,1,0,0:0:0:0:
192,192,35866,1,0,0:0:0:0:
320,192,35953,1,0,0:0:0:0:
448,192,36040,1,0,0:0:0:0:
64,192,36040,1,0,0:0:0:0:
320,192,36126,1,0,0:0:0:0:
192,192,36213,1,0,0:0:0:0:
64,192,36213,1,0,0:0:0:0:
320,192,36300,1,0,0:0:0:0:
192,192,36386,1,0,0:0:0:0:
448,192,36386,1,0,0:0:0:0:
64,192,36473,1,0,0:0:0:0:
320,192,36560,1,0,0:0:0:0:
192,192,36560,1,0,0:0:0:0:
64,192,36647,1,0,0:0:0:0:
448,192,36733,1,0,0:0:0:0:
320,192,36733,1,0,0:0:0:0:
192,192,36733,1,0,0:0:0:0:
192,192,36907,1,0,0:0:0:0:
448,192,37080,1,0,0:0:0:0:
320,192,37080,1,0,0:0:0:0:
192,192,37254,1,0,0:0:0:0:
320,192,37427,1,0,0:0:0:0:
64,192,37427,1,0,0:0:0:0:
192,192,37600,1,0,0:0:0:0:
448,192,37774,1,0,0:0:0:0:
320,192,37774,1,0,0:0:0:0:
192,192,37947,1,0,0:0:0:0:
320,192,38121,1,0,0:0:0:0:
64,192,38121,1,0,0:0:0:0:
448,192,38121,1,0,0:0:0:0:
192,192,38294,1,0,0:0:0:0:
448,192,38467,1,0,0:0:0:0:
320,192,38467,1,0,0:0:0:0:
192,192,38641,1,0,0:0:0:0:
64,192,38814,1,0,0:0:0:0:
320,192,38814,1,0,0:0:0:0:
192,192,38988,1,0,0:0:0:0:
448,192,39161,1,0,0:0:0:0:
320,192,39161,1,0,0:0:0:0:
192,192,39334,1,0,0:0:0:0:
320,192,39508,1,0,0:0:0:0:
448,192,39508,1,0,0:0:0:0:
64,192,39508,1,0,0:0:0:0:
320,192,39681,1,0,0:0:0:0:
64,192,39855,1,0,0:0:0:0:
192,192,39855,1,0,0:0:0:0:
320,192,40028,1,0,0:0:0:0:
448,192,40202,1,0,0:0:0:0:
192,192,40202,1,0,0:0:0:0:
320,192,40375,1,0,0:0:0:0:
192,192,40548,1,0,0:0:0:0:
64,192,40548,1,0,0:0:0:0:
320,192,40722,1,0,0:0:0:0:
448,192,40895,1,0,0:0:0:0:
192,192,40895,1,0,0:0:0:0:
64,192,40895,1,0,0:0:0:0:
320,192,41069,1,0,0:0:0:0:
192,192,41242,1,0,0:0:0:0:
64,192,41242,1,0,0:0:0:0:
320,192,41415,1,0,0:0:0:0:
448,192,41589,1,0,0:0:0:0:
192,192,41589,1,0,0:0:0:0:
320,192,41762,1,0,0:0:0:0:
192,192,41936,1,0,0:0:0:0:
64,192,41936,1,0,0:0:0:0:
320,192,42109,1,0,0:0:0:0:
192,192,42109,1,0,0:0:0:0:
448,192,42282,1,0,0:0:0:0:
320,192,42282,1,0,0:0:0:0:
64,192,42282,1,0,0:0:0:0:
192,192,42282,1,0,0:0:0:0:
448,192,42456,128,0,42629:0:0:0:0:
64,192,42629,1,0,0:0:0:0:
448,192,42803,128,0,42976:0:0:0:0:
448,192,43149,128,0,43323:0:0:0:0:
192,192,43149,1,0,0:0:0:0:
64,192,43323,1,0,0:0:0:0:
448,192,43496,128,0,43670:0:0:0:0:
192,192,43496,1,0,0:0:0:0:
192,192,43670,1,0,0:0:0:0:
448,192,43843,128,0,44017:0:0:0:0:
64,192,44017,1,0,0:0:0:0:
448,192,44190,128,0,44363:0:0:0:0:
448,192,44537,128,0,44710:0:0:0:0:
192,192,44537,1,0,0:0:0:0:
64,192,44710,1,0,0:0:0:0:
448,192,44884,128,0,45057:0:0:0:0:
192,192,44884,1,0,0:0:0:0:
64,192,45057,128,0,46444:0:0:0:0:
192,192,45057,128,0,46097:0:0:0:0:
320,192,45057,128,0,45404:0:0:0:0:
448,192,45404,128,0,45751:0:0:0:0:
320,192,45751,128,0,46444:0:0:0:0:
448,192,46097,128,0,46444:0:0:0:0:
192,192,46444,1,0,0:0:0:0:
320,192,46531,1,0,0:0:0:0:
448,192,46618,1,0,0:0:0:0:
320,192,46704,1,0,0:0:0:0:
192,192,46791,1,0,0:0:0:0:
64,192,46791,1,0,0:0:0:0:
320,192,46878,1,0,0:0:0:0:
448,192,46965,1,0,0:0:0:0:
320,192,47051,1,0,0:0:0:0:
192,192,47138,1,0,0:0:0:0:
448,192,47138,1,0,0:0:0:0:
64,192,47225,1,0,0:0:0:0:
192,192,47311,1,0,0:0:0:0:
320,192,47398,1,0,0:0:0:0:
192,192,47485,1,0,0:0:0:0:
64,192,47485,1,0,0:0:0:0:
320,192,47571,1,0,0:0:0:0:
448,192,47658,1,0,0:0:0:0:
320,192,47745,1,0,0:0:0:0:
192,192,47832,1,0,0:0:0:0:
64,192,47832,1,0,0:0:0:0:
448,192,47832,1,0,0:0:0:0:
320,192,48005,1,0,0:0:0:0:
192,192,48178,1,0,0:0:0:0:
64,192,48178,1,0,0:0:0:0:
320,192,48352,1,0,0:0:0:0:
64,192,48439,1,0,0:0:0:0:
448,192,48525,1,0,0:0:0:0:
192,192,48525,1,0,0:0:0:0:
64,192,48612,1,0,0:0:0:0:
320,192,48699,1,0,0:0:0:0:
192,192,48872,1,0,0:0:0:0:
64,192,48872,1,0,0:0:0:0:
320,192,49045,1,0,0:0:0:0:
448,192,49219,1,0,0:0:0:0:
192,192,49219,1,0,0:0:0:0:
320,192,49392,1,0,0:0:0:0:
192,192,49566,1,0,0:0:0:0:
64,192,49566,1,0,0:0:0:0:
320,192,49739,1,0,0:0:0:0:
64,192,49826,1,0,0:0:0:0:
448,192,49912,1,0,0:0:0:0:
192,192,49912,1,0,0:0:0:0:
64,192,49999,1,0,0:0:0:0:
320,192,50086,1,0,0:0:0:0:
192,192,50259,1,0,0:0:0:0:
64,192,50259,1,0,0:0:0:0:
64,192,50433,1,0,0:0:0:0:
448,192,50606,1,0,0:0:0:0:
192,192,50606,1,0,0:0:0:0:
320,192,50780,1,0,0:0:0:0:
192,192,50953,1,0,0:0:0:0:
64,192,50953,1,0,0:0:0:0:
320,192,51126,1,0,0:0:0:0:
64,192,51213,1,0,0:0:0:0:
448,192,51300,1,0,0:0:0:0:
192,192,51300,1,0,0:0:0:0:
64,192,51386,1,0,0:0:0:0:
320,192,51473,1,0,0:0:0:0:
192,192,51647,1,0,0:0:0:0:
64,192,51647,1,0,0:0:0:0:
320,192,51820,1,0,0:0:0:0:
448,192,51993,1,0,0:0:0:0:
192,192,51993,1,0,0:0:0:0:
320,192,52167,1,0,0:0:0:0:
192,192,52340,1,0,0:0:0:0:
64,192,52340,1,0,0:0:0:0:
320,192,52514,1,0,0:0:0:0:
64,192,52600,1,0,0:0:0:0:
448,192,52687,1,0,0:0:0:0:
192,192,52687,1,0,0:0:0:0:
64,192,52774,1,0,0:0:0:0:
320,192,52860,1,0,0:0:0:0:
192,192,53034,1,0,0:0:0:0:
64,192,53034,1,0,0:0:0:0:
320,192,53207,1,0,0:0:0:0:
192,192,53207,1,0,0:0:0:0:
64,192,53381,1,0,0:0:0:0:
320,192,53381,1,0,0:0:0:0:
192,192,53554,1,0,0:0:0:0:
448,192,53728,1,0,0:0:0:0:
320,192,53728,1,0,0:0:0:0:
192,192,53901,1,0,0:0:0:0:
448,192,53988,1,0,0:0:0:0:
320,192,54074,1,0,0:0:0:0:
64,192,54074,1,0,0:0:0:0:
448,192,54161,1,0,0:0:0:0:
192,192,54248,1,0,0:0:0:0:
448,192,54421,1,0,0:0:0:0:
320,192,54421,1,0,0:0:0:0:
192,192,54595,1,0,0:0:0:0:
320,192,54768,1,0,0:0:0:0:
64,192,54768,1,0,0:0:0:0:
192,192,54941,1,0,0:0:0:0:
320,192,55115,1,0,0:0:0:0:
448,192,55115,1,0,0:0:0:0:
192,192,55288,1,0,0:0:0:0:
448,192,55375,1,0,0:0:0:0:
320,192,55462,1,0,0:0:0:0:
64,192,55462,1,0,0:0:0:0:
448,192,55548,1,0,0:0:0:0:
192,192,55635,1,0,0:0:0:0:
320,192,55808,1,0,0:0:0:0:
448,192,55808,1,0,0:0:0:0:
192,192,55982,1,0,0:0:0:0:
64,192,56155,1,0,0:0:0:0:
320,192,56155,1,0,0:0:0:0:
448,192,56329,1,0,0:0:0:0:
192,192,56502,1,0,0:0:0:0:
320,192,56502,1,0,0:0:0:0:
448,192,56675,1,0,0:0:0:0:
320,192,56762,1,0,0:0:0:0:
64,192,56849,1,0,0:0:0:0:
192,192,56849,1,0,0:0:0:0:
320,192,56936,1,0,0:0:0:0:
448,192,57022,1,0,0:0:0:0:
320,192,57196,1,0,0:0:0:0:
192,192,57196,1,0,0:0:0:0:
448,192,57369,1,0,0:0:0:0:
320,192,57543,1,0,0:0:0:0:
64,192,57543,1,0,0:0:0:0:
448,192,57716,1,0,0:0:0:0:
320,192,57889,1,0,0:0:0:0:
192,192,57889,1,0,0:0:0:0:
448,192,58063,1,0,0:0:0:0:
320,192,58149,1,0,0:0:0:0:
64,192,58236,1,0,0:0:0:0:
192,192,58236,1,0,0:0:0:0:
320,192,58323,1,0,0:0:0:0:
448,192,58410,1,0,0:0:0:0:
320,192,58583,1,0,0:0:0:0:
192,192,58583,1,0,0:0:0:0:
448,192,58756,1,0,0:0:0:0:
192,192,58756,1,0,0:0:0:0:
320,192,58930,1,0,0:0:0:0:
64,192,58930,1,0,0:0:0:0:
192,192,59103,1,0,0:0:0:0:
448,192,59277,1,0,0:0:0:0:
320,192,59277,1,0,0:0:0:0:
192,192,59450,1,0,0:0:0:0:
448,192,59537,1,0,0:0:0:0:
320,192,59623,1,0,0:0:0:0:
64,192,59623,1,0,0:0:0:0:
448,192,59710,1,0,0:0:0:0:
192,192,59797,1,0,0:0:0:0:
320,192,59970,1,0,0:0:0:0:
448,192,59970,1,0,0:0:0:0:
192,192,60144,1,0,0:0:0:0:
448,192,60230,1,0,0:0:0:0:
64,192,60317,1,0,0:0:0:0:
320,192,60317,1,0,0:0:0:0:
192,192,60491,1,0,0:0:0:0:
448,192,60664,1,0,0:0:0:0:
320,192,60664,1,0,0:0:0:0:
192,192,60837,1,0,0:0:0:0:
448,192,60924,1,0,0:0:0:0:
64,192,61011,1,0,0:0:0:0:
320,192,61011,1,0,0:0:0:0:
448,192,61097,1,0,0:0:0:0:
192,192,61184,1,0,0:0:0:0:
448,192,61358,1,0,0:0:0:0:
320,192,61358,1,0,0:0:0:0:
448,192,61531,1,0,0:0:0:0:
64,192,61704,1,0,0:0:0:0:
320,192,61704,1,0,0:0:0:0:
192,192,61878,1,0,0:0:0:0:
320,192,62051,1,0,0:0:0:0:
448,192,62051,1,0,0:0:0:0:
192,192,62225,1,0,0:0:0:0:
448,192,62311,1,0,0:0:0:0:
320,192,62398,1,0,0:0:0:0:
64,192,62398,1,0,0:0:0:0:
448,192,62485,1,0,0:0:0:0:
192,192,62571,1,0,0:0:0:0:
320,192,62745,1,0,0:0:0:0:
448,192,62745,1,0,0:0:0:0:
192,192,62918,1,0,0:0:0:0:
448,192,63005,1,0,0:0:0:0:
320,192,63092,1,0,0:0:0:0:
64,192,63092,1,0,0:0:0:0:
192,192,63265,1,0,0:0:0:0:
448,192,63439,1,0,0:0:0:0:
320,192,63439,1,0,0:0:0:0:
192,192,63525,1,0,0:0:0:0:
64,192,63612,1,0,0:0:0:0:
192,192,63699,1,0,0:0:0:0:
320,192,63785,1,0,0:0:0:0:
64,192,63785,1,0,0:0:0:0:
192,192,63872,1,0,0:0:0:0:
320,192,63959,1,0,0:0:0:0:
448,192,63959,1,0,0:0:0:0:
192,192,64045,1,0,0:0:0:0:
64,192,64132,1,0,0:0:0:0:
448,192,64132,1,0,0:0:0:0:
320,192,64132,1,0,0:0:0:0:
192,192,64219,1,0,0:0:0:0:
320,192,64306,1,0,0:0:0:0:
448,192,64392,1,0,0:0:0:0:
320,192,64479,1,0,0:0:0:0:
192,192,64479,1,0,0:0:0:0:
64,192,64479,1,0,0:0:0:0:
64,192,64652,1,0,0:0:0:0:
192,192,64826,1,0,0:0:0:0:
448,192,64826,1,0,0:0:0:0:
448,192,64999,1,0,0:0:0:0:
320,192,64999,1,0,0:0:0:0:
64,192,65086,1,0,0:0:0:0:
192,192,65173,1,0,0:0:0:0:
320,192,65259,1,0,0:0:0:0:
64,192,65346,1,0,0:0:0:0:
448,192,65346,1,0,0:0:0:0:
320,192,65433,1,0,0:0:0:0:
192,192,65519,1,0,0:0:0:0:
320,192,65693,1,0,0:0:0:0:
448,192,65866,1,0,0:0:0:0:
192,192,65866,1,0,0:0:0:0:
64,192,66040,1,0,0:0:0:0:
448,192,66213,1,0,0:0:0:0:
320,192,66213,1,0,0:0:0:0:
64,192,66386,1,0,0:0:0:0:
448,192,66560,1,0,0:0:0:0:
192,192,66560,1,0,0:0:0:0:
64,192,66647,1,0,0:0:0:0:
192,192,66733,1,0,0:0:0:0:
320,192,66907,1,0,0:0:0:0:
448,192,66907,1,0,0:0:0:0:
320,192,67080,1,0,0:0:0:0:
448,192,67254,1,0,0:0:0:0:
192,192,67254,1,0,0:0:0:0:
64,192,67427,1,0,0:0:0:0:
192,192,67514,1,0,0:0:0:0:
320,192,67600,1,0,0:0:0:0:
448,192,67600,1,0,0:0:0:0:
192,192,67774,1,0,0:0:0:0:
64,192,67860,1,0,0:0:0:0:
192,192,67947,1,0,0:0:0:0:
448,192,67947,1,0,0:0:0:0:
64,192,68121,1,0,0:0:0:0:
192,192,68207,1,0,0:0:0:0:
448,192,68294,1,0,0:0:0:0:
320,192,68294,1,0,0:0:0:0:
192,192,68467,1,0,0:0:0:0:
448,192,68554,1,0,0:0:0:0:
320,192,68641,1,0,0:0:0:0:
64,192,68641,1,0,0:0:0:0:
448,192,68814,1,0,0:0:0:0:
320,192,68901,1,0,0:0:0:0:
192,192,68988,1,0,0:0:0:0:
64,192,68988,1,0,0:0:0:0:
448,192,69161,1,0,0:0:0:0:
320,192,69334,1,0,0:0:0:0:
64,192,69334,1,0,0:0:0:0:
448,192,69421,1,0,0:0:0:0:
192,192,69508,1,0,0:0:0:0:
320,192,69595,1,0,0:0:0:0:
192,192,69681,1,0,0:0:0:0:
64,192,69681,1,0,0:0:0:0:
192,192,69855,1,0,0:0:0:0:
320,192,69855,1,0,0:0:0:0:
320,192,70028,1,0,0:0:0:0:
64,192,70028,1,0,0:0:0:0:
448,192,70028,1,0,0:0:0:0:
448,192,70202,1,0,0:0:0:0:
320,192,70288,1,0,0:0:0:0:
192,192,70375,1,0,0:0:0:0:
64,192,70375,1,0,0:0:0:0:
448,192,70548,1,0,0:0:0:0:
320,192,70548,1,0,0:0:0:0:
64,192,70722,1,0,0:0:0:0:
192,192,70722,1,0,0:0:0:0:
320,192,70808,1,0,0:0:0:0:
448,192,70895,1,0,0:0:0:0:
192,192,70895,1,0,0:0:0:0:
64,192,71069,1,0,0:0:0:0:
320,192,71069,1,0,0:0:0:0:
192,192,71242,1,0,0:0:0:0:
448,192,71415,1,0,0:0:0:0:
64,192,71415,1,0,0:0:0:0:
320,192,71415,1,0,0:0:0:0:
192,192,71589,1,0,0:0:0:0:
64,192,71675,1,0,0:0:0:0:
320,192,71762,1,0,0:0:0:0:
192,192,71762,1,0,0:0:0:0:
192,192,71936,1,0,0:0:0:0:
448,192,71936,1,0,0:0:0:0:
64,192,72109,1,0,0:0:0:0:
320,192,72109,1,0,0:0:0:0:
192,192,72282,1,0,0:0:0:0:
64,192,72369,1,0,0:0:0:0:
448,192,72456,1,0,0:0:0:0:
320,192,72456,1,0,0:0:0:0:
448,192,72629,1,0,0:0:0:0:
320,192,72803,1,0,0:0:0:0:
192,192,72803,1,0,0:0:0:0:
64,192,72803,1,0,0:0:0:0:
448,192,72976,1,0,0:0:0:0:
320,192,73063,1,0,0:0:0:0:
192,192,73149,1,0,0:0:0:0:
64,192,73149,1,0,0:0:0:0:
448,192,73323,1,0,0:0:0:0:
192,192,73323,1,0,0:0:0:0:
320,192,73496,1,0,0:0:0:0:
64,192,73496,1,0,0:0:0:0:
448,192,73670,1,0,0:0:0:0:
320,192,73670,1,0,0:0:0:0:
192,192,73756,1,0,0:0:0:0:
64,192,73843,1,0,0:0:0:0:
448,192,73843,1,0,0:0:0:0:
192,192,74017,1,0,0:0:0:0:
448,192,74190,1,0,0:0:0:0:
64,192,74190,1,0,0:0:0:0:
320,192,74190,1,0,0:0:0:0:
192,192,74363,1,0,0:0:0:0:
320,192,74537,1,0,0:0:0:0:
448,192,74537,1,0,0:0:0:0:
192,192,74710,1,0,0:0:0:0:
320,192,74797,1,0,0:0:0:0:
64,192,74884,1,0,0:0:0:0:
448,192,74884,1,0,0:0:0:0:
192,192,74970,1,0,0:0:0:0:
64,192,75057,1,0,0:0:0:0:
192,192,75144,1,0,0:0:0:0:
448,192,75230,1,0,0:0:0:0:
320,192,75230,1,0,0:0:0:0:
320,192,75404,1,0,0:0:0:0:
192,192,75404,1,0,0:0:0:0:
448,192,75577,1,0,0:0:0:0:
320,192,75577,1,0,0:0:0:0:
192,192,75577,1,0,0:0:0:0:
64,192,75577,1,0,0:0:0:0:
64,192,75751,1,0,0:0:0:0:
320,192,75924,1,0,0:0:0:0:
448,192,75924,1,0,0:0:0:0:
320,192,76097,1,0,0:0:0:0:
192,192,76097,1,0,0:0:0:0:
448,192,76271,1,0,0:0:0:0:
192,192,76271,1,0,0:0:0:0:
320,192,76444,1,0,0:0:0:0:
448,192,76531,1,0,0:0:0:0:
64,192,76618,1,0,0:0:0:0:
192,192,76618,1,0,0:0:0:0:
320,192,76791,1,0,0:0:0:0:
448,192,76965,1,0,0:0:0:0:
192,192,76965,1,0,0:0:0:0:
320,192,77138,1,0,0:0:0:0:
448,192,77225,1,0,0:0:0:0:
192,192,77311,1,0,0:0:0:0:
64,192,77311,1,0,0:0:0:0:
320,192,77485,1,0,0:0:0:0:
448,192,77658,1,0,0:0:0:0:
64,192,77658,1,0,0:0:0:0:
192,192,77745,1,0,0:0:0:0:
320,192,77832,1,0,0:0:0:0:
448,192,77918,1,0,0:0:0:0:
192,192,78005,1,0,0:0:0:0:
64,192,78005,1,0,0:0:0:0:
320,192,78178,1,0,0:0:0:0:
448,192,78352,1,0,0:0:0:0:
192,192,78352,1,0,0:0:0:0:
320,192,78525,1,0,0:0:0:0:
448,192,78612,1,0,0:0:0:0:
64,192,78699,1,0,0:0:0:0:
192,192,78699,1,0,0:0:0:0:
320,192,78872,1,0,0:0:0:0:
192,192,79045,1,0,0:0:0:0:
448,192,79045,1,0,0:0:0:0:
320,192,79219,1,0,0:0:0:0:
448,192,79306,1,0,0:0:0:0:
192,192,79392,1,0,0:0:0:0:
64,192,79392,1,0,0:0:0:0:
320,192,79566,1,0,0:0:0:0:
192,192,79739,1,0,0:0:0:0:
448,192,79739,1,0,0:0:0:0:
320,192,79912,1,0,0:0:0:0:
448,192,79999,1,0,0:0:0:0:
192,192,80086,1,0,0:0:0:0:
64,192,80086,1,0,0:0:0:0:
320,192,80259,1,0,0:0:0:0:
448,192,80433,1,0,0:0:0:0:
64,192,80433,1,0,0:0:0:0:
192,192,80519,1,0,0:0:0:0:
320,192,80606,1,0,0:0:0:0:
448,192,80693,1,0,0:0:0:0:
192,192,80780,1,0,0:0:0:0:
64,192,80780,1,0,0:0:0:0:
192,192,80953,1,0,0:0:0:0:
320,192,80953,1,0,0:0:0:0:
192,192,81126,1,0,0:0:0:0:
64,192,81126,1,0,0:0:0:0:
448,192,81126,128,0,81647:0:0:0:0:
320,192,81300,1,0,0:0:0:0:
192,192,81386,1,0,0:0:0:0:
320,192,81473,1,0,0:0:0:0:
64,192,81473,1,0,0:0:0:0:
192,192,81647,1,0,0:0:0:0:
448,192,81820,128,0,82340:0:0:0:0:
192,192,81820,1,0,0:0:0:0:
64,192,81820,1,0,0:0:0:0:
320,192,81993,1,0,0:0:0:0:
192,192,82080,1,0,0:0:0:0:
320,192,82167,1,0,0:0:0:0:
64,192,82167,1,0,0:0:0:0:
192,192,82340,1,0,0:0:0:0:
448,192,82514,128,0,83034:0:0:0:0:
320,192,82514,1,0,0:0:0:0:
192,192,82514,1,0,0:0:0:0:
64,192,82687,1,0,0:0:0:0:
192,192,82774,1,0,0:0:0:0:
320,192,82860,1,0,0:0:0:0:
64,192,82860,1,0,0:0:0:0:
320,192,83034,1,0,0:0:0:0:
320,192,83207,128,0,83728:0:0:0:0:
192,192,83207,1,0,0:0:0:0:
64,192,83207,1,0,0:0:0:0:
64,192,83467,1,0,0:0:0:0:
448,192,83554,1,0,0:0:0:0:
192,192,83554,1,0,0:0:0:0:
448,192,83728,1,0,0:0:0:0:
320,192,83901,128,0,84421:0:0:0:0:
192,192,83901,1,0,0:0:0:0:
64,192,83901,1,0,0:0:0:0:
64,192,84161,1,0,0:0:0:0:
448,192,84248,1,0,0:0:0:0:
192,192,84248,1,0,0:0:0:0:
448,192,84421,1,0,0:0:0:0:
448,192,84595,128,0,85115:0:0:0:0:
320,192,84595,1,0,0:0:0:0:
192,192,84595,1,0,0:0:0:0:
64,192,84768,1,0,0:0:0:0:
192,192,84855,1,0,0:0:0:0:
64,192,84941,1,0,0:0:0:0:
320,192,84941,1,0,0:0:0:0:
320,192,85115,1,0,0:0:0:0:
192,192,85202,1,0,0:0:0:0:
448,192,85288,128,0,86675:0:0:0:0:
320,192,85288,1,0,0:0:0:0:
64,192,85288,1,0,0:0:0:0:
192,192,85375,1,0,0:0:0:0:
64,192,85462,1,0,0:0:0:0:
192,192,85548,1,0,0:0:0:0:
320,192,85635,1,0,0:0:0:0:
192,192,85722,1,0,0:0:0:0:
320,192,85808,1,0,0:0:0:0:
192,192,85895,1,0,0:0:0:0:
320,192,85982,1,0,0:0:0:0:
192,192,86069,1,0,0:0:0:0:
64,192,86155,1,0,0:0:0:0:
192,192,86242,1,0,0:0:0:0:
320,192,86329,1,0,0:0:0:0:
192,192,86415,1,0,0:0:0:0:
64,192,86502,1,0,0:0:0:0:
192,192,86589,1,0,0:0:0:0:
320,192,86675,1,0,0:0:0:0:
64,192,86675,1,0,0:0:0:0:
192,192,86849,1,0,0:0:0:0:
448,192,87022,1,0,0:0:0:0:
64,192,87022,1,0,0:0:0:0:
192,192,87196,1,0,0:0:0:0:
448,192,87369,1,0,0:0:0:0:
320,192,87369,128,0,87543:0:0:0:0:
192,192,87543,128,0,87716:0:0:0:0:
448,192,87716,1,0,0:0:0:0:
64,192,87716,128,0,87889:0:0:0:0:
192,192,87889,128,0,88410:0:0:0:0:
320,192,88063,1,0,0:0:0:0:
448,192,88063,1,0,0:0:0:0:
64,192,88063,1,0,0:0:0:0:
320,192,88236,1,0,0:0:0:0:
448,192,88410,1,0,0:0:0:0:
64,192,88410,1,0,0:0:0:0:
320,192,88583,1,0,0:0:0:0:
64,192,88756,1,0,0:0:0:0:
192,192,88756,128,0,88930:0:0:0:0:
320,192,88930,128,0,89103:0:0:0:0:
192,192,89103,1,0,0:0:0:0:
448,192,89103,1,0,0:0:0:0:
448,192,89277,128,0,89450:0:0:0:0:
320,192,89277,1,0,0:0:0:0:
192,192,89450,1,0,0:0:0:0:
64,192,89450,1,0,0:0:0:0:
320,192,89450,1,0,0:0:0:0:
64,192,89623,1,0,0:0:0:0:
192,192,89797,1,0,0:0:0:0:
448,192,89797,1,0,0:0:0:0:
320,192,89970,128,0,90317:0:0:0:0:
192,192,90144,1,0,0:0:0:0:
64,192,90144,1,0,0:0:0:0:
64,192,90317,128,0,90837:0:0:0:0:
192,192,90491,1,0,0:0:0:0:
448,192,90491,1,0,0:0:0:0:
320,192,90664,1,0,0:0:0:0:
192,192,90837,1,0,0:0:0:0:
448,192,90837,1,0,0:0:0:0:
320,192,90837,1,0,0:0:0:0:
64,192,91011,1,0,0:0:0:0:
448,192,91184,1,0,0:0:0:0:
192,192,91184,1,0,0:0:0:0:
64,192,91358,1,0,0:0:0:0:
320,192,91531,1,0,0:0:0:0:
192,192,91531,1,0,0:0:0:0:
64,192,91704,1,0,0:0:0:0:
448,192,91878,1,0,0:0:0:0:
192,192,91878,1,0,0:0:0:0:
320,192,92051,1,0,0:0:0:0:
64,192,92051,1,0,0:0:0:0:
192,192,92225,1,0,0:0:0:0:
448,192,92225,1,0,0:0:0:0:
320,192,92225,1,0,0:0:0:0:
64,192,92398,1,0,0:0:0:0:
192,192,92571,1,0,0:0:0:0:
320,192,92571,1,0,0:0:0:0:
64,192,92745,1,0,0:0:0:0:
192,192,92918,1,0,0:0:0:0:
448,192,92918,128,0,93092:0:0:0:0:
64,192,93092,1,0,0:0:0:0:
320,192,93092,128,0,93265:0:0:0:0:
192,192,93265,128,0,93439:0:0:0:0:
448,192,93265,1,0,0:0:0:0:
64,192,93439,128,0,93959:0:0:0:0:
448,192,93612,1,0,0:0:0:0:
192,192,93612,1,0,0:0:0:0:
320,192,93612,1,0,0:0:0:0:
192,192,93785,1,0,0:0:0:0:
320,192,93959,1,0,0:0:0:0:
448,192,93959,1,0,0:0:0:0:
192,192,94132,1,0,0:0:0:0:
448,192,94306,1,0,0:0:0:0:
64,192,94306,128,0,94479:0:0:0:0:
192,192,94479,128,0,94652:0:0:0:0:
64,192,94652,1,0,0:0:0:0:
320,192,94652,128,0,94826:0:0:0:0:
192,192,94826,128,0,94999:0:0:0:0:
448,192,94999,1,0,0:0:0:0:
64,192,94999,1,0,0:0:0:0:
320,192,94999,1,0,0:0:0:0:
192,192,95173,1,0,0:0:0:0:
320,192,95346,1,0,0:0:0:0:
64,192,95346,1,0,0:0:0:0:
192,192,95519,1,0,0:0:0:0:
448,192,95519,128,0,95866:0:0:0:0:
64,192,95693,1,0,0:0:0:0:
320,192,95693,1,0,0:0:0:0:
192,192,95866,1,0,0:0:0:0:
320,192,95866,128,0,96386:0:0:0:0:
192,192,96040,1,0,0:0:0:0:
64,192,96040,1,0,0:0:0:0:
192,192,96213,128,0,96386:0:0:0:0:
448,192,96386,1,0,0:0:0:0:
64,192,96386,1,0,0:0:0:0:
448,192,96560,1,0,0:0:0:0:
192,192,96733,1,0,0:0:0:0:
320,192,96733,1,0,0:0:0:0:
64,192,96907,1,0,0:0:0:0:
192,192,97080,1,0,0:0:0:0:
448,192,97080,1,0,0:0:0:0:
64,192,97254,1,0,0:0:0:0:
448,192,97427,1,0,0:0:0:0:
320,192,97427,1,0,0:0:0:0:
320,192,97600,1,0,0:0:0:0:
192,192,97600,1,0,0:0:0:0:
192,192,97774,1,0,0:0:0:0:
64,192,97774,1,0,0:0:0:0:
448,192,97774,1,0,0:0:0:0:
320,192,97947,1,0,0:0:0:0:
192,192,98121,1,0,0:0:0:0:
448,192,98121,1,0,0:0:0:0:
320,192,98294,1,0,0:0:0:0:
64,192,98467,1,0,0:0:0:0:
192,192,98467,128,0,98641:0:0:0:0:
320,192,98641,128,0,98814:0:0:0:0:
192,192,98814,1,0,0:0:0:0:
448,192,98814,128,0,98988:0:0:0:0:
64,192,98814,1,0,0:0:0:0:
320,192,98988,128,0,99161:0:0:0:0:
192,192,99161,1,0,0:0:0:0:
448,192,99161,1,0,0:0:0:0:
64,192,99161,128,0,100202:0:0:0:0:
448,192,99334,1,0,0:0:0:0:
320,192,99508,1,0,0:0:0:0:
192,192,99508,1,0,0:0:0:0:
320,192,99681,1,0,0:0:0:0:
448,192,99855,1,0,0:0:0:0:
192,192,99855,1,0,0:0:0:0:
448,192,100028,1,0,0:0:0:0:
320,192,100202,1,0,0:0:0:0:
192,192,100202,1,0,0:0:0:0:
448,192,100375,1,0,0:0:0:0:
192,192,100548,1,0,0:0:0:0:
64,192,100548,1,0,0:0:0:0:
320,192,100548,1,0,0:0:0:0:
448,192,100722,1,0,0:0:0:0:
320,192,100895,1,0,0:0:0:0:
64,192,100895,1,0,0:0:0:0:
448,192,101069,1,0,0:0:0:0:
320,192,101155,1,0,0:0:0:0:
192,192,101242,1,0,0:0:0:0:
64,192,101242,1,0,0:0:0:0:
320,192,101329,1,0,0:0:0:0:
448,192,101415,1,0,0:0:0:0:
320,192,101502,1,0,0:0:0:0:
192,192,101589,1,0,0:0:0:0:
448,192,101589,1,0,0:0:0:0:
320,192,101675,1,0,0:0:0:0:
448,192,101762,1,0,0:0:0:0:
320,192,101849,1,0,0:0:0:0:
192,192,101936,1,0,0:0:0:0:
64,192,101936,1,0,0:0:0:0:
320,192,102022,1,0,0:0:0:0:
448,192,102109,1,0,0:0:0:0:
320,192,102196,1,0,0:0:0:0:
448,192,102282,1,0,0:0:0:0:
64,192,102282,1,0,0:0:0:0:
320,192,102369,1,0,0:0:0:0:
192,192,102456,1,0,0:0:0:0:
320,192,102543,1,0,0:0:0:0:
64,192,102629,1,0,0:0:0:0:
448,192,102629,1,0,0:0:0:0:
192,192,102716,1,0,0:0:0:0:
320,192,102803,1,0,0:0:0:0:
448,192,102889,1,0,0:0:0:0:
64,192,102976,1,0,0:0:0:0:
320,192,102976,1,0,0:0:0:0:
192,192,103063,1,0,0:0:0:0:
320,192,103149,1,0,0:0:0:0:
448,192,103149,1,0,0:0:0:0:
192,192,103236,1,0,0:0:0:0:
448,192,103323,1,0,0:0:0:0:
320,192,103323,1,0,0:0:0:0:
64,192,103323,1,0,0:0:0:0:
64,192,103496,1,0,0:0:0:0:
448,192,103670,1,0,0:0:0:0:
192,192,103670,1,0,0:0:0:0:
192,192,103843,1,0,0:0:0:0:
448,192,104017,1,0,0:0:0:0:
320,192,104017,1,0,0:0:0:0:
320,192,104190,1,0,0:0:0:0:
192,192,104363,1,0,0:0:0:0:
64,192,104363,1,0,0:0:0:0:
64,192,104537,1,0,0:0:0:0:
320,192,104710,1,0,0:0:0:0:
192,192,104710,1,0,0:0:0:0:
320,192,104884,1,0,0:0:0:0:
448,192,105057,1,0,0:0:0:0:
192,192,105057,1,0,0:0:0:0:
448,192,105230,1,0,0:0:0:0:
320,192,105404,1,0,0:0:0:0:
192,192,105404,1,0,0:0:0:0:
320,192,105577,1,0,0:0:0:0:
64,192,105751,1,0,0:0:0:0:
192,192,105751,1,0,0:0:0:0:
64,192,105924,1,0,0:0:0:0:
448,192,106097,1,0,0:0:0:0:
320,192,106097,1,0,0:0:0:0:
192,192,106097,1,0,0:0:0:0:
448,192,106271,1,0,0:0:0:0:
320,192,106444,1,0,0:0:0:0:
64,192,106444,1,0,0:0:0:0:
320,192,106618,1,0,0:0:0:0:
192,192,106791,1,0,0:0:0:0:
64,192,106965,1,0,0:0:0:0:
320,192,107138,1,0,0:0:0:0:
192,192,107138,1,0,0:0:0:0:
64,192,107311,1,0,0:0:0:0:
320,192,107485,1,0,0:0:0:0:
192,192,107485,1,0,0:0:0:0:
64,192,107658,1,0,0:0:0:0:
448,192,107832,1,0,0:0:0:0:
320,192,107832,1,0,0:0:0:0:
64,192,108005,1,0,0:0:0:0:
448,192,108178,1,0,0:0:0:0:
192,192,108178,1,0,0:0:0:0:
192,192,108352,1,0,0:0:0:0:
320,192,108525,1,0,0:0:0:0:
64,192,108525,1,0,0:0:0:0:
192,192,108699,1,0,0:0:0:0:
320,192,108699,1,0,0:0:0:0:
448,192,108872,1,0,0:0:0:0:
192,192,108872,1,0,0:0:0:0:
64,192,108872,1,0,0:0:0:0:
448,192,109045,1,0,0:0:0:0:
320,192,109219,1,0,0:0:0:0:
64,192,109219,1,0,0:0:0:0:
320,192,109392,1,0,0:0:0:0:
192,192,109566,1,0,0:0:0:0:
64,192,109566,1,0,0:0:0:0:
64,192,109739,1,0,0:0:0:0:
192,192,109912,1,0,0:0:0:0:
448,192,109912,1,0,0:0:0:0:
448,192,110086,1,0,0:0:0:0:
320,192,110259,1,0,0:0:0:0:
192,192,110259,1,0,0:0:0:0:
192,192,110433,1,0,0:0:0:0:
320,192,110606,1,0,0:0:0:0:
64,192,110606,1,0,0:0:0:0:
64,192,110780,1,0,0:0:0:0:
192,192,110953,1,0,0:0:0:0:
320,192,110953,1,0,0:0:0:0:
320,192,111126,1,0,0:0:0:0:
64,192,111300,1,0,0:0:0:0:
192,192,111300,1,0,0:0:0:0:
64,192,111473,1,0,0:0:0:0:
192,192,111647,1,0,0:0:0:0:
448,192,111647,1,0,0:0:0:0:
320,192,111647,1,0,0:0:0:0:
448,192,111820,1,0,0:0:0:0:
320,192,111993,1,0,0:0:0:0:
64,192,111993,1,0,0:0:0:0:
320,192,112167,1,0,0:0:0:0:
192,192,112340,1,0,0:0:0:0:
64,192,112514,1,0,0:0:0:0:
192,192,112687,1,0,0:0:0:0:
320,192,112687,1,0,0:0:0:0:
64,192,112860,1,0,0:0:0:0:
192,192,113034,1,0,0:0:0:0:
320,192,113034,1,0,0:0:0:0:
64,192,113207,1,0,0:0:0:0:
320,192,113381,1,0,0:0:0:0:
448,192,113381,1,0,0:0:0:0:
64,192,113554,1,0,0:0:0:0:
192,192,113728,1,0,0:0:0:0:
448,192,113728,1,0,0:0:0:0:
192,192,113901,1,0,0:0:0:0:
320,192,114074,1,0,0:0:0:0:
64,192,114074,1,0,0:0:0:0:
320,192,114248,1,0,0:0:0:0:
192,192,114248,1,0,0:0:0:0:
192,192,114421,1,0,0:0:0:0:
448,192,114421,1,0,0:0:0:0:
64,192,114421,1,0,0:0:0:0:
320,192,114421,1,0,0:0:0:0:
192,192,114508,1,0,0:0:0:0:
320,192,114595,1,0,0:0:0:0:
64,192,114681,1,0,0:0:0:0:
448,192,114768,1,0,0:0:0:0:
192,192,114768,1,0,0:0:0:0:
64,192,114855,1,0,0:0:0:0:
320,192,114941,1,0,0:0:0:0:
192,192,115028,1,0,0:0:0:0:
448,192,115115,1,0,0:0:0:0:
64,192,115115,1,0,0:0:0:0:
192,192,115202,1,0,0:0:0:0:
320,192,115288,1,0,0:0:0:0:
64,192,115375,1,0,0:0:0:0:
448,192,115462,1,0,0:0:0:0:
192,192,115462,1,0,0:0:0:0:
64,192,115548,1,0,0:0:0:0:
192,192,115635,1,0,0:0:0:0:
320,192,115722,1,0,0:0:0:0:
192,192,115808,1,0,0:0:0:0:
64,192,115808,1,0,0:0:0:0:
448,192,115808,1,0,0:0:0:0:
320,192,115895,1,0,0:0:0:0:
192,192,115982,1,0,0:0:0:0:
64,192,116069,1,0,0:0:0:0:
448,192,116155,1,0,0:0:0:0:
192,192,116155,1,0,0:0:0:0:
64,192,116242,1,0,0:0:0:0:
320,192,116329,1,0,0:0:0:0:
192,192,116415,1,0,0:0:0:0:
448,192,116502,1,0,0:0:0:0:
64,192,116502,1,0,0:0:0:0:
320,192,116589,1,0,0:0:0:0:
192,192,116675,1,0,0:0:0:0:
64,192,116762,1,0,0:0:0:0:
192,192,116849,1,0,0:0:0:0:
320,192,116849,1,0,0:0:0:0:
64,192,116936,1,0,0:0:0:0:
320,192,117022,1,0,0:0:0:0:
448,192,117109,1,0,0:0:0:0:
320,192,117196,1,0,0:0:0:0:
192,192,117196,1,0,0:0:0:0:
64,192,117196,1,0,0:0:0:0:
448,192,117282,1,0,0:0:0:0:
192,192,117369,1,0,0:0:0:0:
320,192,117456,1,0,0:0:0:0:
448,192,117543,1,0,0:0:0:0:
192,192,117543,1,0,0:0:0:0:
64,192,117629,1,0,0:0:0:0:
320,192,117716,1,0,0:0:0:0:
448,192,117803,1,0,0:0:0:0:
192,192,117889,1,0,0:0:0:0:
64,192,117889,1,0,0:0:0:0:
320,192,117976,1,0,0:0:0:0:
192,192,118063,1,0,0:0:0:0:
64,192,118149,1,0,0:0:0:0:
448,192,118236,1,0,0:0:0:0:
192,192,118236,1,0,0:0:0:0:
64,192,118323,1,0,0:0:0:0:
320,192,118410,1,0,0:0:0:0:
192,192,118496,1,0,0:0:0:0:
448,192,118583,1,0,0:0:0:0:
64,192,118583,1,0,0:0:0:0:
320,192,118670,1,0,0:0:0:0:
192,192,118756,1,0,0:0:0:0:
320,192,118843,1,0,0:0:0:0:
448,192,118930,1,0,0:0:0:0:
192,192,118930,1,0,0:0:0:0:
64,192,119017,1,0,0:0:0:0:
320,192,119103,1,0,0:0:0:0:
192,192,119190,1,0,0:0:0:0:
448,192,119277,1,0,0:0:0:0:
64,192,119277,1,0,0:0:0:0:
320,192,119363,1,0,0:0:0:0:
192,192,119450,1,0,0:0:0:0:
64,192,119537,1,0,0:0:0:0:
448,192,119623,1,0,0:0:0:0:
320,192,119623,1,0,0:0:0:0:
192,192,119710,1,0,0:0:0:0:
320,192,119797,1,0,0:0:0:0:
64,192,119797,1,0,0:0:0:0:
448,192,119884,1,0,0:0:0:0:
64,192,119970,1,0,0:0:0:0:
320,192,119970,1,0,0:0:0:0:
192,192,119970,1,0,0:0:0:0:
448,192,120057,1,0,0:0:0:0:
192,192,120144,1,0,0:0:0:0:
320,192,120230,1,0,0:0:0:0:
448,192,120317,1,0,0:0:0:0:
64,192,120317,1,0,0:0:0:0:
192,192,120404,1,0,0:0:0:0:
64,192,120491,1,0,0:0:0:0:
192,192,120577,1,0,0:0:0:0:
320,192,120664,1,0,0:0:0:0:
448,192,120664,1,0,0:0:0:0:
64,192,120751,1,0,0:0:0:0:
320,192,120837,1,0,0:0:0:0:
192,192,120924,1,0,0:0:0:0:
448,192,121011,1,0,0:0:0:0:
64,192,121011,1,0,0:0:0:0:
320,192,121097,1,0,0:0:0:0:
192,192,121184,1,0,0:0:0:0:
320,192,121271,1,0,0:0:0:0:
64,192,121358,1,0,0:0:0:0:
448,192,121358,1,0,0:0:0:0:
192,192,121358,1,0,0:0:0:0:
320,192,121444,1,0,0:0:0:0:
64,192,121531,1,0,0:0:0:0:
192,192,121618,1,0,0:0:0:0:
448,192,121704,1,0,0:0:0:0:
64,192,121704,1,0,0:0:0:0:
320,192,121791,1,0,0:0:0:0:
192,192,121878,1,0,0:0:0:0:
320,192,121965,1,0,0:0:0:0:
448,192,122051,1,0,0:0:0:0:
192,192,122051,1,0,0:0:0:0:
64,192,122138,1,0,0:0:0:0:
320,192,122225,1,0,0:0:0:0:
448,192,122311,1,0,0:0:0:0:
192,192,122398,1,0,0:0:0:0:
64,192,122398,1,0,0:0:0:0:
320,192,122485,1,0,0:0:0:0:
448,192,122571,1,0,0:0:0:0:
320,192,122658,1,0,0:0:0:0:
192,192,122745,1,0,0:0:0:0:
64,192,122745,1,0,0:0:0:0:
448,192,122745,1,0,0:0:0:0:
320,192,122832,1,0,0:0:0:0:
192,192,122918,1,0,0:0:0:0:
64,192,123005,1,0,0:0:0:0:
448,192,123092,1,0,0:0:0:0:
192,192,123092,1,0,0:0:0:0:
64,192,123178,1,0,0:0:0:0:
320,192,123265,1,0,0:0:0:0:
192,192,123352,1,0,0:0:0:0:
448,192,123439,1,0,0:0:0:0:
320,192,123439,1,0,0:0:0:0:
64,192,123525,1,0,0:0:0:0:
448,192,123612,1,0,0:0:0:0:
320,192,123699,1,0,0:0:0:0:
192,192,123785,1,0,0:0:0:0:
64,192,123785,1,0,0:0:0:0:
320,192,123872,1,0,0:0:0:0:
448,192,123959,1,0,0:0:0:0:
192,192,124045,1,0,0:0:0:0:
320,192,124132,1,0,0:0:0:0:
64,192,124219,1,0,0:0:0:0:
448,192,124306,1,0,0:0:0:0:
320,192,124392,1,0,0:0:0:0:
192,192,124479,1,0,0:0:0:0:
64,192,124479,1,0,0:0:0:0:
448,192,124566,1,0,0:0:0:0:
320,192,124652,1,0,0:0:0:0:
192,192,124739,1,0,0:0:0:0:
64,192,124826,1,0,0:0:0:0:
448,192,124826,1,0,0:0:0:0:
320,192,124912,1,0,0:0:0:0:
192,192,124999,1,0,0:0:0:0:
320,192,125086,1,0,0:0:0:0:
448,192,125173,1,0,0:0:0:0:
192,192,125173,1,0,0:0:0:0:
320,192,125259,1,0,0:0:0:0:
192,192,125346,1,0,0:0:0:0:
64,192,125433,1,0,0:0:0:0:
320,192,125519,1,0,0:0:0:0:
192,192,125519,1,0,0:0:0:0:
64,192,125519,1,0,0:0:0:0:
448,192,125519,128,0,125693:0:0:0:0:
192,192,125693,1,0,0:0:0:0:
64,192,125866,1,0,0:0:0:0:
448,192,125866,1,0,0:0:0:0:
320,192,125866,1,0,0:0:0:0:
320,192,126040,128,0,126386:0:0:0:0:
192,192,126040,1,0,0:0:0:0:
64,192,126213,1,0,0:0:0:0:
448,192,126386,1,0,0:0:0:0:
192,192,126386,1,0,0:0:0:0:
64,192,126560,1,0,0:0:0:0:
320,192,126560,1,0,0:0:0:0:
448,192,126560,1,0,0:0:0:0:
192,192,126733,1,0,0:0:0:0:
64,192,126907,1,0,0:0:0:0:
192,192,127080,1,0,0:0:0:0:
64,192,127254,1,0,0:0:0:0:
320,192,127254,1,0,0:0:0:0:
192,192,127427,1,0,0:0:0:0:
64,192,127600,1,0,0:0:0:0:
448,192,127687,1,0,0:0:0:0:
192,192,127774,1,0,0:0:0:0:
64,192,127947,1,0,0:0:0:0:
320,192,127947,1,0,0:0:0:0:
192,192,128121,1,0,0:0:0:0:
448,192,128294,1,0,0:0:0:0:
320,192,128467,1,0,0:0:0:0:
192,192,128641,1,0,0:0:0:0:
448,192,128641,1,0,0:0:0:0:
320,192,128814,1,0,0:0:0:0:
448,192,128988,1,0,0:0:0:0:
64,192,129074,1,0,0:0:0:0:
320,192,129161,1,0,0:0:0:0:
192,192,129334,1,0,0:0:0:0:
448,192,129334,1,0,0:0:0:0:
320,192,129508,1,0,0:0:0:0:
448,192,129681,1,0,0:0:0:0:
320,192,129855,1,0,0:0:0:0:
192,192,130028,1,0,0:0:0:0:
448,192,130028,1,0,0:0:0:0:
320,192,130202,1,0,0:0:0:0:
448,192,130375,1,0,0:0:0:0:
64,192,130462,1,0,0:0:0:0:
320,192,130548,1,0,0:0:0:0:
448,192,130722,1,0,0:0:0:0:
192,192,130722,1,0,0:0:0:0:
320,192,130895,1,0,0:0:0:0:
64,192,130895,1,0,0:0:0:0:
64,192,131069,1,0,0:0:0:0:
320,192,131069,128,0,131242:0:0:0:0:
192,192,131242,1,0,0:0:0:0:
320,192,131415,1,0,0:0:0:0:
64,192,131415,1,0,0:0:0:0:
448,192,131415,1,0,0:0:0:0:
192,192,131589,1,0,0:0:0:0:
448,192,131589,128,0,131936:0:0:0:0:
64,192,131762,1,0,0:0:0:0:
320,192,131936,1,0,0:0:0:0:
192,192,131936,1,0,0:0:0:0:
448,192,132109,1,0,0:0:0:0:
64,192,132109,1,0,0:0:0:0:
320,192,132109,1,0,0:0:0:0:
192,192,132282,1,0,0:0:0:0:
64,192,132456,1,0,0:0:0:0:
320,192,132456,128,0,132629:0:0:0:0:
192,192,132629,1,0,0:0:0:0:
64,192,132803,1,0,0:0:0:0:
320,192,132803,1,0,0:0:0:0:
192,192,132976,1,0,0:0:0:0:
64,192,133149,1,0,0:0:0:0:
448,192,133236,1,0,0:0:0:0:
192,192,133323,1,0,0:0:0:0:
64,192,133496,1,0,0:0:0:0:
320,192,133496,1,0,0:0:0:0:
192,192,133670,1,0,0:0:0:0:
448,192,133843,1,0,0:0:0:0:
64,192,133843,128,0,134017:0:0:0:0:
320,192,134017,1,0,0:0:0:0:
192,192,134190,1,0,0:0:0:0:
448,192,134190,1,0,0:0:0:0:
64,192,134190,1,0,0:0:0:0:
320,192,134363,1,0,0:0:0:0:
192,192,134363,128,0,134537:0:0:0:0:
448,192,134537,1,0,0:0:0:0:
64,192,134623,1,0,0:0:0:0:
320,192,134710,1,0,0:0:0:0:
192,192,134710,1,0,0:0:0:0:
448,192,134884,1,0,0:0:0:0:
192,192,134884,1,0,0:0:0:0:
64,192,134884,1,0,0:0:0:0:
320,192,135057,1,0,0:0:0:0:
448,192,135230,1,0,0:0:0:0:
64,192,135317,1,0,0:0:0:0:
320,192,135404,1,0,0:0:0:0:
192,192,135577,1,0,0:0:0:0:
448,192,135577,1,0,0:0:0:0:
320,192,135751,1,0,0:0:0:0:
448,192,135924,1,0,0:0:0:0:
320,192,136097,1,0,0:0:0:0:
64,192,136184,1,0,0:0:0:0:
448,192,136271,1,0,0:0:0:0:
192,192,136271,1,0,0:0:0:0:
320,192,136444,1,0,0:0:0:0:
64,192,136444,1,0,0:0:0:0:
448,192,136618,1,0,0:0:0:0:
192,192,136618,128,0,136791:0:0:0:0:
320,192,136791,1,0,0:0:0:0:
192,192,136965,1,0,0:0:0:0:
448,192,136965,1,0,0:0:0:0:
64,192,136965,1,0,0:0:0:0:
64,192,137138,128,0,137485:0:0:0:0:
320,192,137138,1,0,0:0:0:0:
448,192,137311,1,0,0:0:0:0:
192,192,137485,1,0,0:0:0:0:
320,192,137485,1,0,0:0:0:0:
64,192,137658,1,0,0:0:0:0:
448,192,137658,1,0,0:0:0:0:
192,192,137658,1,0,0:0:0:0:
320,192,137832,1,0,0:0:0:0:
448,192,138005,1,0,0:0:0:0:
320,192,138178,1,0,0:0:0:0:
64,192,138265,1,0,0:0:0:0:
448,192,138352,1,0,0:0:0:0:
192,192,138352,1,0,0:0:0:0:
320,192,138525,1,0,0:0:0:0:
448,192,138699,1,0,0:0:0:0:
320,192,138872,1,0,0:0:0:0:
64,192,138959,1,0,0:0:0:0:
192,192,139045,1,0,0:0:0:0:
448,192,139045,1,0,0:0:0:0:
320,192,139219,1,0,0:0:0:0:
64,192,139392,1,0,0:0:0:0:
192,192,139566,1,0,0:0:0:0:
448,192,139652,1,0,0:0:0:0:
320,192,139739,1,0,0:0:0:0:
64,192,139739,1,0,0:0:0:0:
192,192,139912,1,0,0:0:0:0:
64,192,140086,1,0,0:0:0:0:
192,192,140259,1,0,0:0:0:0:
448,192,140346,1,0,0:0:0:0:
64,192,140433,1,0,0:0:0:0:
320,192,140433,1,0,0:0:0:0:
192,192,140606,1,0,0:0:0:0:
64,192,140780,1,0,0:0:0:0:
192,192,140953,1,0,0:0:0:0:
320,192,141126,1,0,0:0:0:0:
64,192,141126,1,0,0:0:0:0:
192,192,141300,1,0,0:0:0:0:
448,192,141386,1,0,0:0:0:0:
64,192,141473,1,0,0:0:0:0:
320,192,141473,1,0,0:0:0:0:
192,192,141560,1,0,0:0:0:0:
320,192,141647,1,0,0:0:0:0:
192,192,141733,1,0,0:0:0:0:
64,192,141820,1,0,0:0:0:0:
448,192,141820,1,0,0:0:0:0:
320,192,141907,1,0,0:0:0:0:
64,192,141993,1,0,0:0:0:0:
448,192,141993,1,0,0:0:0:0:
320,192,142080,1,0,0:0:0:0:
192,192,142167,1,0,0:0:0:0:
448,192,142167,1,0,0:0:0:0:
64,192,142167,128,0,142340:0:0:0:0:
320,192,142340,1,0,0:0:0:0:
192,192,142427,1,0,0:0:0:0:
64,192,142514,1,0,0:0:0:0:
448,192,142514,1,0,0:0:0:0:
192,192,142687,128,0,142860:0:0:0:0:
320,192,142687,1,0,0:0:0:0:
448,192,142860,1,0,0:0:0:0:
64,192,142860,1,0,0:0:0:0:
320,192,143034,128,0,143554:0:0:0:0:
192,192,143121,1,0,0:0:0:0:
64,192,143207,1,0,0:0:0:0:
448,192,143207,1,0,0:0:0:0:
192,192,143381,1,0,0:0:0:0:
64,192,143554,1,0,0:0:0:0:
448,192,143554,1,0,0:0:0:0:
192,192,143728,1,0,0:0:0:0:
320,192,143814,1,0,0:0:0:0:
192,192,143901,1,0,0:0:0:0:
64,192,143901,1,0,0:0:0:0:
448,192,144074,1,0,0:0:0:0:
320,192,144248,1,0,0:0:0:0:
64,192,144248,1,0,0:0:0:0:
192,192,144334,1,0,0:0:0:0:
320,192,144421,1,0,0:0:0:0:
192,192,144508,1,0,0:0:0:0:
320,192,144595,1,0,0:0:0:0:
448,192,144595,1,0,0:0:0:0:
192,192,144768,1,0,0:0:0:0:
64,192,144941,1,0,0:0:0:0:
448,192,144941,1,0,0:0:0:0:
320,192,145115,1,0,0:0:0:0:
192,192,145202,1,0,0:0:0:0:
448,192,145288,1,0,0:0:0:0:
320,192,145288,1,0,0:0:0:0:
192,192,145462,1,0,0:0:0:0:
64,192,145635,1,0,0:0:0:0:
448,192,145635,1,0,0:0:0:0:
320,192,145722,1,0,0:0:0:0:
192,192,145808,1,0,0:0:0:0:
320,192,145895,1,0,0:0:0:0:
192,192,145982,1,0,0:0:0:0:
64,192,145982,1,0,0:0:0:0:
320,192,146155,1,0,0:0:0:0:
192,192,146329,1,0,0:0:0:0:
448,192,146329,1,0,0:0:0:0:
320,192,146502,1,0,0:0:0:0:
192,192,146589,1,0,0:0:0:0:
64,192,146675,1,0,0:0:0:0:
448,192,146675,1,0,0:0:0:0:
192,192,146849,1,0,0:0:0:0:
320,192,147022,1,0,0:0:0:0:
64,192,147022,1,0,0:0:0:0:
448,192,147109,1,0,0:0:0:0:
192,192,147196,1,0,0:0:0:0:
320,192,147282,1,0,0:0:0:0:
448,192,147369,1,0,0:0:0:0:
64,192,147369,1,0,0:0:0:0:
192,192,147543,1,0,0:0:0:0:
448,192,147543,1,0,0:0:0:0:
448,192,147716,1,0,0:0:0:0:
64,192,147716,128,0,147889:0:0:0:0:
192,192,147889,1,0,0:0:0:0:
448,192,147976,1,0,0:0:0:0:
64,192,148063,1,0,0:0:0:0:
320,192,148063,1,0,0:0:0:0:
192,192,148236,128,0,148583:0:0:0:0:
64,192,148236,1,0,0:0:0:0:
448,192,148410,1,0,0:0:0:0:
320,192,148583,128,0,149103:0:0:0:0:
64,192,148583,1,0,0:0:0:0:
192,192,148670,1,0,0:0:0:0:
448,192,148756,1,0,0:0:0:0:
64,192,148756,1,0,0:0:0:0:
192,192,148930,1,0,0:0:0:0:
64,192,149103,128,0,149797:0:0:0:0:
192,192,149103,1,0,0:0:0:0:
448,192,149277,1,0,0:0:0:0:
320,192,149363,1,0,0:0:0:0:
448,192,149450,1,0,0:0:0:0:
192,192,149450,1,0,0:0:0:0:
320,192,149623,1,0,0:0:0:0:
192,192,149797,1,0,0:0:0:0:
448,192,149797,1,0,0:0:0:0:
320,192,149970,1,0,0:0:0:0:
192,192,150057,1,0,0:0:0:0:
64,192,150144,1,0,0:0:0:0:
320,192,150144,1,0,0:0:0:0:
192,192,150317,1,0,0:0:0:0:
320,192,150491,1,0,0:0:0:0:
448,192,150491,128,0,150664:0:0:0:0:
320,192,150664,1,0,0:0:0:0:
192,192,150751,1,0,0:0:0:0:
448,192,150837,1,0,0:0:0:0:
64,192,150837,1,0,0:0:0:0:
320,192,151011,128,0,151358:0:0:0:0:
192,192,151011,1,0,0:0:0:0:
448,192,151184,1,0,0:0:0:0:
192,192,151358,128,0,151704:0:0:0:0:
64,192,151358,1,0,0:0:0:0:
448,192,151444,1,0,0:0:0:0:
320,192,151531,1,0,0:0:0:0:
64,192,151531,1,0,0:0:0:0:
448,192,151704,128,0,151878:0:0:0:0:
64,192,151704,1,0,0:0:0:0:
320,192,151878,1,0,0:0:0:0:
192,192,151878,1,0,0:0:0:0:
64,192,152051,1,0,0:0:0:0:
192,192,152138,1,0,0:0:0:0:
320,192,152225,1,0,0:0:0:0:
448,192,152225,1,0,0:0:0:0:
192,192,152398,1,0,0:0:0:0:
64,192,152571,1,0,0:0:0:0:
448,192,152571,1,0,0:0:0:0:
320,192,152745,1,0,0:0:0:0:
192,192,152832,1,0,0:0:0:0:
320,192,152918,1,0,0:0:0:0:
448,192,152918,1,0,0:0:0:0:
192,192,153092,1,0,0:0:0:0:
64,192,153092,1,0,0:0:0:0:
64,192,153265,1,0,0:0:0:0:
320,192,153265,1,0,0:0:0:0:
448,192,153265,1,0,0:0:0:0:
448,192,153439,1,0,0:0:0:0:
192,192,153525,1,0,0:0:0:0:
320,192,153612,1,0,0:0:0:0:
448,192,153612,1,0,0:0:0:0:
192,192,153785,1,0,0:0:0:0:
64,192,153959,1,0,0:0:0:0:
320,192,153959,1,0,0:0:0:0:
192,192,154132,1,0,0:0:0:0:
320,192,154219,1,0,0:0:0:0:
192,192,154306,1,0,0:0:0:0:
64,192,154306,1,0,0:0:0:0:
448,192,154479,1,0,0:0:0:0:
320,192,154652,1,0,0:0:0:0:
64,192,154652,1,0,0:0:0:0:
192,192,154826,1,0,0:0:0:0:
320,192,154912,1,0,0:0:0:0:
448,192,154999,1,0,0:0:0:0:
64,192,154999,1,0,0:0:0:0:
320,192,155173,1,0,0:0:0:0:
192,192,155346,1,0,0:0:0:0:
448,192,155346,1,0,0:0:0:0:
64,192,155519,1,0,0:0:0:0:
192,192,155606,1,0,0:0:0:0:
320,192,155693,1,0,0:0:0:0:
448,192,155693,1,0,0:0:0:0:
192,192,155866,1,0,0:0:0:0:
64,192,156040,1,0,0:0:0:0:
448,192,156040,1,0,0:0:0:0:
320,192,156213,1,0,0:0:0:0:
192,192,156300,1,0,0:0:0:0:
320,192,156386,1,0,0:0:0:0:
448,192,156386,1,0,0:0:0:0:
64,192,156560,1,0,0:0:0:0:
192,192,156733,1,0,0:0:0:0:
448,192,156733,1,0,0:0:0:0:
320,192,156907,1,0,0:0:0:0:
192,192,156993,1,0,0:0:0:0:
64,192,157080,1,0,0:0:0:0:
448,192,157080,1,0,0:0:0:0:
320,192,157254,1,0,0:0:0:0:
192,192,157427,1,0,0:0:0:0:
448,192,157427,1,0,0:0:0:0:
64,192,157600,1,0,0:0:0:0:
192,192,157687,5,0,0:0:0:0:
320,192,157774,1,0,0:0:0:0:
448,192,157774,1,0,0:0:0:0:
192,192,157947,1,0,0:0:0:0:
64,192,158121,1,0,0:0:0:0:
320,192,158121,1,0,0:0:0:0:
448,192,158294,1,0,0:0:0:0:
320,192,158381,1,0,0:0:0:0:
192,192,158467,1,0,0:0:0:0:
64,192,158467,1,0,0:0:0:0:
64,192,158641,1,0,0:0:0:0:
192,192,158641,1,0,0:0:0:0:
64,192,158814,5,0,0:0:0:0:
320,192,158814,1,0,0:0:0:0:
448,192,158814,1,0,0:0:0:0:
192,192,158988,1,0,0:0:0:0:
320,192,159161,1,0,0:0:0:0:
448,192,159161,1,0,0:0:0:0:
192,192,159334,1,0,0:0:0:0:
192,192,159681,1,0,0:0:0:0:
320,192,159855,1,0,0:0:0:0:
448,192,159855,1,0,0:0:0:0:
192,192,160028,1,0,0:0:0:0:
64,192,160375,1,0,0:0:0:0:
448,192,160548,5,0,0:0:0:0:
320,192,160548,1,0,0:0:0:0:
64,192,160722,5,0,0:0:0:0:
64,192,161069,1,0,0:0:0:0:
320,192,161242,1,0,0:0:0:0:
448,192,161242,1,0,0:0:0:0:
64,192,161415,1,0,0:0:0:0:
192,192,161589,5,0,0:0:0:0:
448,192,161675,1,0,0:0:0:0:
192,192,161762,1,0,0:0:0:0:
448,192,161849,1,0,0:0:0:0:
64,192,161936,1,0,0:0:0:0:
192,192,161936,1,0,0:0:0:0:
448,192,162022,1,0,0:0:0:0:
192,192,162109,1,0,0:0:0:0:
448,192,162196,1,0,0:0:0:0:
320,192,162282,1,0,0:0:0:0:
192,192,162369,1,0,0:0:0:0:
320,192,162456,1,0,0:0:0:0:
192,192,162543,1,0,0:0:0:0:
64,192,162629,1,0,0:0:0:0:
320,192,162629,1,0,0:0:0:0:
192,192,162716,1,0,0:0:0:0:
320,192,162803,1,0,0:0:0:0:
192,192,162889,1,0,0:0:0:0:
64,192,162976,1,0,0:0:0:0:
448,192,163063,1,0,0:0:0:0:
64,192,163149,1,0,0:0:0:0:
448,192,163236,1,0,0:0:0:0:
320,192,163323,1,0,0:0:0:0:
64,192,163323,1,0,0:0:0:0:
448,192,163410,1,0,0:0:0:0:
64,192,163496,1,0,0:0:0:0:
448,192,163583,1,0,0:0:0:0:
192,192,163670,1,0,0:0:0:0:
448,192,163756,1,0,0:0:0:0:
192,192,163843,1,0,0:0:0:0:
448,192,163930,1,0,0:0:0:0:
320,192,164017,1,0,0:0:0:0:
192,192,164017,1,0,0:0:0:0:
448,192,164103,1,0,0:0:0:0:
192,192,164190,1,0,0:0:0:0:
448,192,164277,1,0,0:0:0:0:
448,192,164363,1,0,0:0:0:0:
320,192,164363,1,0,0:0:0:0:
64,192,164363,1,0,0:0:0:0:
192,192,164363,1,0,0:0:0:0:
448,192,167138,5,0,0:0:0:0:
320,192,167138,1,0,0:0:0:0:
64,192,167138,1,0,0:0:0:0:
192,192,167311,1,0,0:0:0:0:
64,192,167485,1,0,0:0:0:0:
448,192,168178,1,0,0:0:0:0:
448,192,168525,1,0,0:0:0:0:
320,192,168525,1,0,0:0:0:0:
192,192,168525,1,0,0:0:0:0:
192,192,168872,1,0,0:0:0:0:
320,192,168872,1,0,0:0:0:0:
320,192,169566,1,0,0:0:0:0:
448,192,169912,1,0,0:0:0:0:
192,192,169912,1,0,0:0:0:0:
64,192,169912,1,0,0:0:0:0:
64,192,170259,1,0,0:0:0:0:
448,192,170953,1,0,0:0:0:0:
192,192,171300,1,0,0:0:0:0:
320,192,171300,1,0,0:0:0:0:
64,192,171300,1,0,0:0:0:0:
448,192,172340,1,0,0:0:0:0:
320,192,172687,1,0,0:0:0:0:
64,192,172687,1,0,0:0:0:0:
448,192,172687,1,0,0:0:0:0:
192,192,172860,1,0,0:0:0:0:
320,192,173034,1,0,0:0:0:0:
192,192,173207,1,0,0:0:0:0:
448,192,173381,1,0,0:0:0:0:
320,192,173728,1,0,0:0:0:0:
320,192,174074,1,0,0:0:0:0:
192,192,174074,1,0,0:0:0:0:
64,192,174074,1,0,0:0:0:0:
192,192,174421,1,0,0:0:0:0:
64,192,175115,1,0,0:0:0:0:
448,192,175462,1,0,0:0:0:0:
320,192,175462,1,0,0:0:0:0:
192,192,175462,1,0,0:0:0:0:
448,192,175808,1,0,0:0:0:0:
192,192,175808,1,0,0:0:0:0:
320,192,176502,1,0,0:0:0:0:
192,192,176849,1,0,0:0:0:0:
448,192,176849,1,0,0:0:0:0:
64,192,176849,1,0,0:0:0:0:
320,192,177196,1,0,0:0:0:0:
192,192,177196,1,0,0:0:0:0:
448,192,177543,1,0,0:0:0:0:
320,192,178236,1,0,0:0:0:0:
192,192,178236,1,0,0:0:0:0:
64,192,178236,1,0,0:0:0:0:
64,192,178583,1,0,0:0:0:0:
448,192,179277,1,0,0:0:0:0:
448,192,179623,1,0,0:0:0:0:
320,192,179623,1,0,0:0:0:0:
64,192,179623,1,0,0:0:0:0:
320,192,179970,1,0,0:0:0:0:
192,192,180144,1,0,0:0:0:0:
192,192,180664,1,0,0:0:0:0:
64,192,181011,1,0,0:0:0:0:
192,192,181011,1,0,0:0:0:0:
448,192,181011,1,0,0:0:0:0:
448,192,181358,1,0,0:0:0:0:
192,192,181531,1,0,0:0:0:0:
192,192,182051,1,0,0:0:0:0:
448,192,182745,1,0,0:0:0:0:
192,192,182832,1,0,0:0:0:0:
448,192,182918,1,0,0:0:0:0:
192,192,183005,1,0,0:0:0:0:
320,192,183092,1,0,0:0:0:0:
192,192,183178,1,0,0:0:0:0:
320,192,183265,1,0,0:0:0:0:
192,192,183352,1,0,0:0:0:0:
320,192,183439,1,0,0:0:0:0:
64,192,183525,1,0,0:0:0:0:
320,192,183612,1,0,0:0:0:0:
64,192,183699,1,0,0:0:0:0:
448,192,183785,1,0,0:0:0:0:
320,192,183785,1,0,0:0:0:0:
192,192,183785,128,0,185173:0:0:0:0:
448,192,185173,128,0,186560:0:0:0:0:
320,192,185173,1,0,0:0:0:0:
320,192,185519,128,0,186560:0:0:0:0:
192,192,185519,1,0,0:0:0:0:
192,192,185866,128,0,186560:0:0:0:0:
64,192,185866,1,0,0:0:0:0:
64,192,186213,128,0,186560:0:0:0:0:
448,192,187514,1,0,0:0:0:0:
64,192,188294,1,0,0:0:0:0:
192,192,188641,1,0,0:0:0:0:
448,192,188988,1,0,0:0:0:0:
320,192,189334,128,0,190722:0:0:0:0:
64,192,189334,1,0,0:0:0:0:
64,192,190722,128,0,192109:0:0:0:0:
448,192,190722,1,0,0:0:0:0:
320,192,191936,1,0,0:0:0:0:
448,192,192109,1,0,0:0:0:0:
192,192,192109,1,0,0:0:0:0:
448,192,192282,1,0,0:0:0:0:
320,192,192456,1,0,0:0:0:0:
64,192,192456,1,0,0:0:0:0:
448,192,192629,1,0,0:0:0:0:
192,192,192716,1,0,0:0:0:0:
320,192,192803,1,0,0:0:0:0:
64,192,192889,1,0,0:0:0:0:
448,192,192976,1,0,0:0:0:0:
320,192,193063,1,0,0:0:0:0:
192,192,193149,1,0,0:0:0:0:
64,192,193149,1,0,0:0:0:0:
320,192,193496,1,0,0:0:0:0:
192,192,193496,1,0,0:0:0:0:
192,192,193670,1,0,0:0:0:0:
448,192,193843,1,0,0:0:0:0:
64,192,193843,1,0,0:0:0:0:
192,192,194017,1,0,0:0:0:0:
320,192,194103,1,0,0:0:0:0:
192,192,194190,1,0,0:0:0:0:
64,192,194277,1,0,0:0:0:0:
192,192,194363,1,0,0:0:0:0:
448,192,194363,1,0,0:0:0:0:
320,192,194537,1,0,0:0:0:0:
448,192,194537,1,0,0:0:0:0:
192,192,194710,1,0,0:0:0:0:
64,192,194884,1,0,0:0:0:0:
320,192,194884,1,0,0:0:0:0:
448,192,194884,1,0,0:0:0:0:
192,192,194970,1,0,0:0:0:0:
320,192,195057,1,0,0:0:0:0:
448,192,195144,1,0,0:0:0:0:
320,192,195230,1,0,0:0:0:0:
192,192,195317,1,0,0:0:0:0:
64,192,195404,1,0,0:0:0:0:
192,192,195491,1,0,0:0:0:0:
320,192,195577,1,0,0:0:0:0:
448,192,195664,1,0,0:0:0:0:
320,192,195751,1,0,0:0:0:0:
192,192,195837,1,0,0:0:0:0:
64,192,195924,1,0,0:0:0:0:
448,192,196011,1,0,0:0:0:0:
192,192,196097,1,0,0:0:0:0:
320,192,196184,1,0,0:0:0:0:
448,192,196271,1,0,0:0:0:0:
320,192,196358,1,0,0:0:0:0:
192,192,196444,1,0,0:0:0:0:
64,192,196531,1,0,0:0:0:0:
192,192,196618,1,0,0:0:0:0:
320,192,196704,1,0,0:0:0:0:
448,192,196791,1,0,0:0:0:0:
320,192,196878,1,0,0:0:0:0:
192,192,196965,1,0,0:0:0:0:
64,192,197051,1,0,0:0:0:0:
192,192,197138,1,0,0:0:0:0:
320,192,197225,1,0,0:0:0:0:
448,192,197311,1,0,0:0:0:0:
64,192,197398,1,0,0:0:0:0:
320,192,197485,1,0,0:0:0:0:
192,192,197571,1,0,0:0:0:0:
448,192,197658,1,0,0:0:0:0:
320,192,197745,1,0,0:0:0:0:
192,192,197832,1,0,0:0:0:0:
320,192,197918,1,0,0:0:0:0:
192,192,198005,1,0,0:0:0:0:
64,192,198092,1,0,0:0:0:0:
192,192,198178,1,0,0:0:0:0:
320,192,198265,1,0,0:0:0:0:
448,192,198352,1,0,0:0:0:0:
64,192,198439,1,0,0:0:0:0:
192,192,198525,1,0,0:0:0:0:
320,192,198612,1,0,0:0:0:0:
192,192,198699,1,0,0:0:0:0:
320,192,198785,1,0,0:0:0:0:
448,192,198872,1,0,0:0:0:0:
320,192,198959,1,0,0:0:0:0:
64,192,199045,1,0,0:0:0:0:
192,192,199132,1,0,0:0:0:0:
320,192,199219,1,0,0:0:0:0:
192,192,199306,1,0,0:0:0:0:
320,192,199392,1,0,0:0:0:0:
448,192,199479,1,0,0:0:0:0:
320,192,199566,1,0,0:0:0:0:
192,192,199652,1,0,0:0:0:0:
64,192,199739,1,0,0:0:0:0:
448,192,199826,1,0,0:0:0:0:
320,192,199912,1,0,0:0:0:0:
192,192,199999,1,0,0:0:0:0:
320,192,200086,1,0,0:0:0:0:
192,192,200173,1,0,0:0:0:0:
64,192,200259,1,0,0:0:0:0:
192,192,200346,1,0,0:0:0:0:
448,192,200433,1,0,0:0:0:0:
320,192,200519,1,0,0:0:0:0:
64,192,200606,1,0,0:0:0:0:
192,192,200693,1,0,0:0:0:0:
320,192,200780,1,0,0:0:0:0:
448,192,200866,1,0,0:0:0:0:
64,192,200953,1,0,0:0:0:0:
192,192,201040,1,0,0:0:0:0:
448,192,201126,1,0,0:0:0:0:
320,192,201213,1,0,0:0:0:0:
192,192,201300,1,0,0:0:0:0:
64,192,201386,1,0,0:0:0:0:
448,192,201473,1,0,0:0:0:0:
192,192,201560,1,0,0:0:0:0:
320,192,201647,1,0,0:0:0:0:
192,192,201733,1,0,0:0:0:0:
64,192,201820,1,0,0:0:0:0:
192,192,201907,1,0,0:0:0:0:
448,192,201993,1,0,0:0:0:0:
320,192,202080,1,0,0:0:0:0:
192,192,202167,1,0,0:0:0:0:
64,192,202254,1,0,0:0:0:0:
448,192,202340,1,0,0:0:0:0:
320,192,202427,1,0,0:0:0:0:
64,192,202514,1,0,0:0:0:0:
192,192,202600,1,0,0:0:0:0:
320,192,202687,1,0,0:0:0:0:
448,192,202774,1,0,0:0:0:0:
64,192,202860,1,0,0:0:0:0:
320,192,202947,1,0,0:0:0:0:
192,192,203034,1,0,0:0:0:0:
320,192,203121,1,0,0:0:0:0:
448,192,203207,1,0,0:0:0:0:
64,192,203294,1,0,0:0:0:0:
320,192,203381,1,0,0:0:0:0:
192,192,203467,1,0,0:0:0:0:
320,192,203554,1,0,0:0:0:0:
448,192,203641,1,0,0:0:0:0:
64,192,203728,1,0,0:0:0:0:
448,192,203814,1,0,0:0:0:0:
192,192,203901,1,0,0:0:0:0:
320,192,203988,1,0,0:0:0:0:
192,192,204074,1,0,0:0:0:0:
64,192,204161,1,0,0:0:0:0:
192,192,204248,1,0,0:0:0:0:
320,192,204334,1,0,0:0:0:0:
64,192,204421,1,0,0:0:0:0:
192,192,204508,1,0,0:0:0:0:
448,192,204595,1,0,0:0:0:0:
320,192,204681,1,0,0:0:0:0:
192,192,204768,1,0,0:0:0:0:
448,192,204855,1,0,0:0:0:0:
320,192,204941,1,0,0:0:0:0:
64,192,205028,1,0,0:0:0:0:
192,192,205115,1,0,0:0:0:0:
320,192,205202,1,0,0:0:0:0:
448,192,205288,1,0,0:0:0:0:
64,192,205375,1,0,0:0:0:0:
192,192,205462,1,0,0:0:0:0:
320,192,205548,1,0,0:0:0:0:
192,192,205635,1,0,0:0:0:0:
64,192,205722,1,0,0:0:0:0:
320,192,205808,1,0,0:0:0:0:
448,192,205895,1,0,0:0:0:0:
448,192,205982,5,0,0:0:0:0:
320,192,205982,1,0,0:0:0:0:
192,192,205982,1,0,0:0:0:0:
64,192,205982,128,0,206329:0:0:0:0:
448,192,206155,1,0,0:0:0:0:
320,192,206329,1,0,0:0:0:0:
192,192,206329,1,0,0:0:0:0:
64,192,206502,128,0,206849:0:0:0:0:
448,192,206502,1,0,0:0:0:0:
320,192,206675,1,0,0:0:0:0:
448,192,206675,1,0,0:0:0:0:
192,192,206849,1,0,0:0:0:0:
64,192,207022,128,0,207196:0:0:0:0:
320,192,207022,1,0,0:0:0:0:
448,192,207022,1,0,0:0:0:0:
192,192,207196,1,0,0:0:0:0:
320,192,207369,128,0,207716:0:0:0:0:
448,192,207369,1,0,0:0:0:0:
64,192,207369,1,0,0:0:0:0:
192,192,207543,1,0,0:0:0:0:
64,192,207716,1,0,0:0:0:0:
448,192,207716,1,0,0:0:0:0:
320,192,207889,128,0,208236:0:0:0:0:
192,192,207889,1,0,0:0:0:0:
64,192,208063,1,0,0:0:0:0:
192,192,208063,1,0,0:0:0:0:
448,192,208236,1,0,0:0:0:0:
320,192,208410,128,0,208583:0:0:0:0:
192,192,208410,1,0,0:0:0:0:
64,192,208410,1,0,0:0:0:0:
448,192,208583,1,0,0:0:0:0:
320,192,208756,128,0,209103:0:0:0:0:
192,192,208756,1,0,0:0:0:0:
448,192,208756,1,0,0:0:0:0:
64,192,208930,1,0,0:0:0:0:
192,192,209103,1,0,0:0:0:0:
448,192,209103,1,0,0:0:0:0:
320,192,209277,128,0,209623:0:0:0:0:
64,192,209277,1,0,0:0:0:0:
64,192,209450,1,0,0:0:0:0:
448,192,209450,1,0,0:0:0:0:
192,192,209623,1,0,0:0:0:0:
320,192,209797,128,0,209970:0:0:0:0:
64,192,209797,1,0,0:0:0:0:
448,192,209797,1,0,0:0:0:0:
192,192,209970,1,0,0:0:0:0:
192,192,210144,128,0,210491:0:0:0:0:
320,192,210144,1,0,0:0:0:0:
448,192,210144,1,0,0:0:0:0:
64,192,210317,1,0,0:0:0:0:
320,192,210491,1,0,0:0:0:0:
448,192,210491,1,0,0:0:0:0:
192,192,210664,128,0,211011:0:0:0:0:
64,192,210664,1,0,0:0:0:0:
64,192,210837,1,0,0:0:0:0:
448,192,210837,1,0,0:0:0:0:
320,192,211011,1,0,0:0:0:0:
192,192,211184,128,0,211358:0:0:0:0:
64,192,211184,1,0,0:0:0:0:
448,192,211184,1,0,0:0:0:0:
320,192,211358,1,0,0:0:0:0:
64,192,211358,1,0,0:0:0:0:
448,192,211531,128,0,211878:0:0:0:0:
192,192,211531,1,0,0:0:0:0:
320,192,211531,1,0,0:0:0:0:
64,192,211704,1,0,0:0:0:0:
192,192,211878,1,0,0:0:0:0:
320,192,211878,1,0,0:0:0:0:
448,192,212051,128,0,212398:0:0:0:0:
64,192,212051,1,0,0:0:0:0:
64,192,212225,1,0,0:0:0:0:
320,192,212225,1,0,0:0:0:0:
192,192,212398,1,0,0:0:0:0:
448,192,212571,128,0,212745:0:0:0:0:
64,192,212571,1,0,0:0:0:0:
320,192,212571,1,0,0:0:0:0:
192,192,212745,1,0,0:0:0:0:
192,192,212918,128,0,213265:0:0:0:0:
64,192,212918,1,0,0:0:0:0:
448,192,212918,1,0,0:0:0:0:
320,192,213092,1,0,0:0:0:0:
64,192,213265,1,0,0:0:0:0:
448,192,213265,1,0,0:0:0:0:
192,192,213439,128,0,213785:0:0:0:0:
320,192,213439,1,0,0:0:0:0:
320,192,213612,1,0,0:0:0:0:
448,192,213612,1,0,0:0:0:0:
64,192,213785,1,0,0:0:0:0:
192,192,213959,128,0,214132:0:0:0:0:
320,192,213959,1,0,0:0:0:0:
448,192,213959,1,0,0:0:0:0:
64,192,214132,1,0,0:0:0:0:
192,192,214306,128,0,214652:0:0:0:0:
64,192,214306,1,0,0:0:0:0:
448,192,214306,1,0,0:0:0:0:
320,192,214479,1,0,0:0:0:0:
64,192,214652,1,0,0:0:0:0:
448,192,214652,1,0,0:0:0:0:
192,192,214826,128,0,215173:0:0:0:0:
320,192,214826,1,0,0:0:0:0:
64,192,214999,1,0,0:0:0:0:
320,192,214999,1,0,0:0:0:0:
448,192,215173,1,0,0:0:0:0:
192,192,215346,128,0,215519:0:0:0:0:
64,192,215346,1,0,0:0:0:0:
320,192,215346,1,0,0:0:0:0:
448,192,215519,1,0,0:0:0:0:
320,192,215693,128,0,216040:0:0:0:0:
448,192,215693,1,0,0:0:0:0:
192,192,215693,1,0,0:0:0:0:
64,192,215866,1,0,0:0:0:0:
192,192,216040,1,0,0:0:0:0:
448,192,216040,1,0,0:0:0:0:
320,192,216213,128,0,216560:0:0:0:0:
64,192,216213,1,0,0:0:0:0:
192,192,216386,1,0,0:0:0:0:
64,192,216386,1,0,0:0:0:0:
448,192,216560,1,0,0:0:0:0:
320,192,216733,128,0,216907:0:0:0:0:
192,192,216733,1,0,0:0:0:0:
64,192,216733,1,0,0:0:0:0:
448,192,216907,1,0,0:0:0:0:
192,192,217080,128,0,217427:0:0:0:0:
320,192,217080,1,0,0:0:0:0:
64,192,217080,1,0,0:0:0:0:
448,192,217254,1,0,0:0:0:0:
64,192,217427,1,0,0:0:0:0:
320,192,217427,1,0,0:0:0:0:
192,192,217600,128,0,217947:0:0:0:0:
448,192,217600,1,0,0:0:0:0:
320,192,217774,1,0,0:0:0:0:
448,192,217774,1,0,0:0:0:0:
64,192,217947,1,0,0:0:0:0:
192,192,218121,128,0,218294:0:0:0:0:
320,192,218121,1,0,0:0:0:0:
448,192,218121,1,0,0:0:0:0:
64,192,218294,1,0,0:0:0:0:
64,192,218467,128,0,218814:0:0:0:0:
192,192,218467,1,0,0:0:0:0:
320,192,218467,1,0,0:0:0:0:
448,192,218641,1,0,0:0:0:0:
192,192,218814,1,0,0:0:0:0:
320,192,218814,1,0,0:0:0:0:
64,192,218988,128,0,219334:0:0:0:0:
448,192,218988,1,0,0:0:0:0:
192,192,219161,1,0,0:0:0:0:
448,192,219161,1,0,0:0:0:0:
320,192,219334,1,0,0:0:0:0:
64,192,219508,128,0,219681:0:0:0:0:
192,192,219508,1,0,0:0:0:0:
448,192,219508,1,0,0:0:0:0:
320,192,219681,1,0,0:0:0:0:
320,192,219855,128,0,220202:0:0:0:0:
192,192,219855,1,0,0:0:0:0:
448,192,219855,1,0,0:0:0:0:
64,192,220028,1,0,0:0:0:0:
192,192,220202,1,0,0:0:0:0:
448,192,220202,1,0,0:0:0:0:
320,192,220375,128,0,220722:0:0:0:0:
64,192,220375,1,0,0:0:0:0:
192,192,220548,1,0,0:0:0:0:
64,192,220548,1,0,0:0:0:0:
448,192,220722,1,0,0:0:0:0:
320,192,220895,128,0,221069:0:0:0:0:
192,192,220895,1,0,0:0:0:0:
64,192,220895,1,0,0:0:0:0:
448,192,221069,1,0,0:0:0:0:
320,192,221242,1,0,0:0:0:0:
64,192,221242,1,0,0:0:0:0:
448,192,221329,1,0,0:0:0:0:
320,192,221415,1,0,0:0:0:0:
192,192,221502,1,0,0:0:0:0:
64,192,221589,1,0,0:0:0:0:
320,192,221589,1,0,0:0:0:0:
448,192,221675,1,0,0:0:0:0:
320,192,221762,1,0,0:0:0:0:
192,192,221849,1,0,0:0:0:0:
64,192,221936,1,0,0:0:0:0:
448,192,221936,1,0,0:0:0:0:
192,192,222022,1,0,0:0:0:0:
64,192,222109,1,0,0:0:0:0:
192,192,222196,1,0,0:0:0:0:
64,192,222282,1,0,0:0:0:0:
448,192,222282,1,0,0:0:0:0:
192,192,222369,1,0,0:0:0:0:
64,192,222456,1,0,0:0:0:0:
448,192,222456,1,0,0:0:0:0:
192,192,222543,1,0,0:0:0:0:
448,192,222629,1,0,0:0:0:0:
64,192,222629,128,0,222976:0:0:0:0:
320,192,222716,1,0,0:0:0:0:
192,192,222803,1,0,0:0:0:0:
448,192,222889,1,0,0:0:0:0:
320,192,222976,1,0,0:0:0:0:
192,192,223063,1,0,0:0:0:0:
64,192,223149,128,0,223496:0:0:0:0:
320,192,223149,1,0,0:0:0:0:
448,192,223236,1,0,0:0:0:0:
192,192,223323,1,0,0:0:0:0:
320,192,223410,1,0,0:0:0:0:
448,192,223496,1,0,0:0:0:0:
192,192,223583,1,0,0:0:0:0:
64,192,223670,128,0,223843:0:0:0:0:
448,192,223670,1,0,0:0:0:0:
320,192,223756,1,0,0:0:0:0:
192,192,223843,1,0,0:0:0:0:
320,192,223930,1,0,0:0:0:0:
64,192,224017,1,0,0:0:0:0:
448,192,224017,128,0,224363:0:0:0:0:
192,192,224103,1,0,0:0:0:0:
320,192,224190,1,0,0:0:0:0:
64,192,224277,1,0,0:0:0:0:
192,192,224363,1,0,0:0:0:0:
320,192,224450,1,0,0:0:0:0:
192,192,224537,1,0,0:0:0:0:
448,192,224537,128,0,224884:0:0:0:0:
64,192,224623,1,0,0:0:0:0:
320,192,224710,1,0,0:0:0:0:
192,192,224797,1,0,0:0:0:0:
64,192,224884,1,0,0:0:0:0:
320,192,224970,1,0,0:0:0:0:
64,192,225057,1,0,0:0:0:0:
448,192,225057,128,0,225230:0:0:0:0:
192,192,225144,1,0,0:0:0:0:
320,192,225230,1,0,0:0:0:0:
192,192,225317,1,0,0:0:0:0:
320,192,225404,128,0,225751:0:0:0:0:
448,192,225404,1,0,0:0:0:0:
192,192,225491,1,0,0:0:0:0:
64,192,225577,1,0,0:0:0:0:
448,192,225664,1,0,0:0:0:0:
64,192,225751,1,0,0:0:0:0:
192,192,225837,1,0,0:0:0:0:
320,192,225924,128,0,226271:0:0:0:0:
64,192,225924,1,0,0:0:0:0:
192,192,226011,1,0,0:0:0:0:
448,192,226097,1,0,0:0:0:0:
64,192,226184,1,0,0:0:0:0:
192,192,226271,1,0,0:0:0:0:
448,192,226358,1,0,0:0:0:0:
320,192,226444,128,0,226618:0:0:0:0:
64,192,226444,1,0,0:0:0:0:
192,192,226531,1,0,0:0:0:0:
448,192,226618,1,0,0:0:0:0:
320,192,226704,1,0,0:0:0:0:
64,192,226791,1,0,0:0:0:0:
320,192,226878,1,0,0:0:0:0:
448,192,226965,1,0,0:0:0:0:
192,192,226965,128,0,227311:0:0:0:0:
64,192,227051,1,0,0:0:0:0:
320,192,227225,1,0,0:0:0:0:
448,192,227311,1,0,0:0:0:0:
320,192,227398,1,0,0:0:0:0:
64,192,227485,1,0,0:0:0:0:
192,192,227485,128,0,227658:0:0:0:0:
448,192,227571,1,0,0:0:0:0:
320,192,227658,1,0,0:0:0:0:
64,192,227745,1,0,0:0:0:0:
448,192,227832,1,0,0:0:0:0:
192,192,227832,128,0,228005:0:0:0:0:
320,192,227918,1,0,0:0:0:0:
64,192,228005,1,0,0:0:0:0:
192,192,228092,1,0,0:0:0:0:
64,192,228178,1,0,0:0:0:0:
448,192,228178,128,0,228525:0:0:0:0:
192,192,228265,1,0,0:0:0:0:
320,192,228352,1,0,0:0:0:0:
64,192,228439,1,0,0:0:0:0:
192,192,228525,1,0,0:0:0:0:
320,192,228612,1,0,0:0:0:0:
448,192,228699,128,0,229045:0:0:0:0:
192,192,228699,1,0,0:0:0:0:
64,192,228785,1,0,0:0:0:0:
320,192,228872,1,0,0:0:0:0:
192,192,228959,1,0,0:0:0:0:
64,192,229045,1,0,0:0:0:0:
320,192,229132,1,0,0:0:0:0:
64,192,229219,1,0,0:0:0:0:
448,192,229219,128,0,229392:0:0:0:0:
192,192,229306,1,0,0:0:0:0:
320,192,229392,1,0,0:0:0:0:
192,192,229479,1,0,0:0:0:0:
448,192,229566,1,0,0:0:0:0:
64,192,229566,1,0,0:0:0:0:
320,192,229652,1,0,0:0:0:0:
192,192,229739,1,0,0:0:0:0:
448,192,229826,1,0,0:0:0:0:
320,192,229912,1,0,0:0:0:0:
64,192,229912,1,0,0:0:0:0:
192,192,229999,1,0,0:0:0:0:
320,192,230086,1,0,0:0:0:0:
448,192,230173,1,0,0:0:0:0:
192,192,230259,1,0,0:0:0:0:
64,192,230259,1,0,0:0:0:0:
320,192,230346,1,0,0:0:0:0:
448,192,230433,1,0,0:0:0:0:
192,192,230519,1,0,0:0:0:0:
448,192,230606,1,0,0:0:0:0:
64,192,230606,1,0,0:0:0:0:
320,192,230693,1,0,0:0:0:0:
192,192,230780,1,0,0:0:0:0:
320,192,230866,1,0,0:0:0:0:
64,192,230953,1,0,0:0:0:0:
192,192,230953,1,0,0:0:0:0:
320,192,231040,1,0,0:0:0:0:
448,192,231126,1,0,0:0:0:0:
192,192,231213,1,0,0:0:0:0:
64,192,231300,1,0,0:0:0:0:
320,192,231300,1,0,0:0:0:0:
448,192,231386,1,0,0:0:0:0:
192,192,231473,1,0,0:0:0:0:
320,192,231560,1,0,0:0:0:0:
192,192,231647,1,0,0:0:0:0:
64,192,231647,1,0,0:0:0:0:
448,192,231733,1,0,0:0:0:0:
320,192,231820,1,0,0:0:0:0:
192,192,231907,1,0,0:0:0:0:
64,192,231993,1,0,0:0:0:0:
448,192,231993,1,0,0:0:0:0:
320,192,232080,1,0,0:0:0:0:
192,192,232167,1,0,0:0:0:0:
320,192,232254,1,0,0:0:0:0:
448,192,232340,1,0,0:0:0:0:
64,192,232340,1,0,0:0:0:0:
320,192,232427,1,0,0:0:0:0:
64,192,232514,1,0,0:0:0:0:
192,192,232600,1,0,0:0:0:0:
448,192,232687,1,0,0:0:0:0:
320,192,232687,1,0,0:0:0:0:
64,192,232774,1,0,0:0:0:0:
192,192,232860,1,0,0:0:0:0:
320,192,232947,1,0,0:0:0:0:
448,192,233034,1,0,0:0:0:0:
192,192,233034,1,0,0:0:0:0:
64,192,233121,1,0,0:0:0:0:
320,192,233207,1,0,0:0:0:0:
192,192,233294,1,0,0:0:0:0:
448,192,233381,1,0,0:0:0:0:
64,192,233381,1,0,0:0:0:0:
320,192,233467,1,0,0:0:0:0:
448,192,233554,1,0,0:0:0:0:
192,192,233554,1,0,0:0:0:0:
64,192,233641,1,0,0:0:0:0:
192,192,233728,5,0,0:0:0:0:
64,192,233728,1,0,0:0:0:0:
448,192,233728,1,0,0:0:0:0:
320,192,233728,1,0,0:0:0:0:
320,192,233814,1,0,0:0:0:0:
192,192,233901,1,0,0:0:0:0:
448,192,233988,1,0,0:0:0:0:
320,192,234074,1,0,0:0:0:0:
64,192,234074,1,0,0:0:0:0:
448,192,234161,1,0,0:0:0:0:
192,192,234248,1,0,0:0:0:0:
320,192,234334,1,0,0:0:0:0:
448,192,234421,1,0,0:0:0:0:
64,192,234421,1,0,0:0:0:0:
320,192,234508,1,0,0:0:0:0:
192,192,234595,1,0,0:0:0:0:
448,192,234681,1,0,0:0:0:0:
320,192,234768,1,0,0:0:0:0:
64,192,234768,1,0,0:0:0:0:
448,192,234855,1,0,0:0:0:0:
320,192,234941,1,0,0:0:0:0:
192,192,235028,1,0,0:0:0:0:
64,192,235115,1,0,0:0:0:0:
448,192,235115,1,0,0:0:0:0:
320,192,235115,1,0,0:0:0:0:
192,192,235202,1,0,0:0:0:0:
320,192,235288,1,0,0:0:0:0:
448,192,235375,1,0,0:0:0:0:
320,192,235462,1,0,0:0:0:0:
64,192,235462,1,0,0:0:0:0:
448,192,235548,1,0,0:0:0:0:
192,192,235635,1,0,0:0:0:0:
320,192,235722,1,0,0:0:0:0:
64,192,235808,1,0,0:0:0:0:
448,192,235808,1,0,0:0:0:0:
192,192,235895,1,0,0:0:0:0:
320,192,235982,1,0,0:0:0:0:
448,192,236069,1,0,0:0:0:0:
192,192,236155,1,0,0:0:0:0:
320,192,236155,1,0,0:0:0:0:
448,192,236242,1,0,0:0:0:0:
192,192,236329,1,0,0:0:0:0:
64,192,236415,1,0,0:0:0:0:
192,192,236502,1,0,0:0:0:0:
448,192,236502,1,0,0:0:0:0:
320,192,236502,1,0,0:0:0:0:
64,192,236589,1,0,0:0:0:0:
192,192,236675,1,0,0:0:0:0:
320,192,236762,1,0,0:0:0:0:
448,192,236849,1,0,0:0:0:0:
192,192,236849,1,0,0:0:0:0:
64,192,236936,1,0,0:0:0:0:
320,192,237022,1,0,0:0:0:0:
448,192,237109,1,0,0:0:0:0:
64,192,237196,1,0,0:0:0:0:
192,192,237196,1,0,0:0:0:0:
320,192,237282,1,0,0:0:0:0:
192,192,237369,1,0,0:0:0:0:
64,192,237456,1,0,0:0:0:0:
192,192,237543,1,0,0:0:0:0:
448,192,237543,1,0,0:0:0:0:
64,192,237629,1,0,0:0:0:0:
320,192,237716,1,0,0:0:0:0:
192,192,237803,1,0,0:0:0:0:
448,192,237889,1,0,0:0:0:0:
64,192,237889,1,0,0:0:0:0:
320,192,237976,1,0,0:0:0:0:
192,192,238063,1,0,0:0:0:0:
320,192,238149,1,0,0:0:0:0:
192,192,238236,1,0,0:0:0:0:
448,192,238236,1,0,0:0:0:0:
64,192,238323,1,0,0:0:0:0:
320,192,238410,1,0,0:0:0:0:
192,192,238496,1,0,0:0:0:0:
64,192,238583,1,0,0:0:0:0:
448,192,238583,1,0,0:0:0:0:
320,192,238670,1,0,0:0:0:0:
192,192,238756,1,0,0:0:0:0:
64,192,238843,1,0,0:0:0:0:
320,192,238930,1,0,0:0:0:0:
448,192,238930,1,0,0:0:0:0:
192,192,239017,1,0,0:0:0:0:
64,192,239103,1,0,0:0:0:0:
320,192,239103,1,0,0:0:0:0:
448,192,239190,1,0,0:0:0:0:
192,192,239277,1,0,0:0:0:0:
64,192,239277,1,0,0:0:0:0:
320,192,239277,1,0,0:0:0:0:
448,192,239363,1,0,0:0:0:0:
192,192,239450,1,0,0:0:0:0:
320,192,239537,1,0,0:0:0:0:
448,192,239623,1,0,0:0:0:0:
64,192,239623,1,0,0:0:0:0:
192,192,239710,1,0,0:0:0:0:
64,192,239797,1,0,0:0:0:0:
192,192,239884,1,0,0:0:0:0:
320,192,239970,1,0,0:0:0:0:
448,192,239970,1,0,0:0:0:0:
64,192,240057,1,0,0:0:0:0:
320,192,240144,1,0,0:0:0:0:
192,192,240230,1,0,0:0:0:0:
64,192,240317,1,0,0:0:0:0:
448,192,240317,1,0,0:0:0:0:
320,192,240404,1,0,0:0:0:0:
192,192,240491,1,0,0:0:0:0:
320,192,240577,1,0,0:0:0:0:
64,192,240664,1,0,0:0:0:0:
448,192,240664,1,0,0:0:0:0:
192,192,240664,1,0,0:0:0:0:
320,192,240751,1,0,0:0:0:0:
64,192,240837,1,0,0:0:0:0:
192,192,240924,1,0,0:0:0:0:
64,192,241011,1,0,0:0:0:0:
448,192,241011,1,0,0:0:0:0:
192,192,241097,1,0,0:0:0:0:
320,192,241184,1,0,0:0:0:0:
192,192,241271,1,0,0:0:0:0:
64,192,241358,1,0,0:0:0:0:
320,192,241358,1,0,0:0:0:0:
448,192,241444,1,0,0:0:0:0:
192,192,241531,1,0,0:0:0:0:
64,192,241618,1,0,0:0:0:0:
320,192,241704,1,0,0:0:0:0:
448,192,241704,1,0,0:0:0:0:
192,192,241791,1,0,0:0:0:0:
64,192,241878,1,0,0:0:0:0:
192,192,241965,1,0,0:0:0:0:
448,192,242051,1,0,0:0:0:0:
320,192,242051,1,0,0:0:0:0:
64,192,242051,1,0,0:0:0:0:
192,192,242138,1,0,0:0:0:0:
320,192,242225,1,0,0:0:0:0:
448,192,242311,1,0,0:0:0:0:
64,192,242398,1,0,0:0:0:0:
320,192,242398,1,0,0:0:0:0:
448,192,242485,1,0,0:0:0:0:
192,192,242571,1,0,0:0:0:0:
320,192,242658,1,0,0:0:0:0:
192,192,242745,1,0,0:0:0:0:
64,192,242745,1,0,0:0:0:0:
448,192,242832,1,0,0:0:0:0:
64,192,242918,1,0,0:0:0:0:
192,192,243005,1,0,0:0:0:0:
448,192,243092,1,0,0:0:0:0:
320,192,243092,1,0,0:0:0:0:
192,192,243178,1,0,0:0:0:0:
64,192,243265,1,0,0:0:0:0:
320,192,243352,1,0,0:0:0:0:
192,192,243439,1,0,0:0:0:0:
448,192,243525,1,0,0:0:0:0:
64,192,243612,1,0,0:0:0:0:
192,192,243699,1,0,0:0:0:0:
448,192,243785,1,0,0:0:0:0:
320,192,243785,1,0,0:0:0:0:
64,192,243872,1,0,0:0:0:0:
192,192,243959,1,0,0:0:0:0:
320,192,244045,1,0,0:0:0:0:
448,192,244132,1,0,0:0:0:0:
64,192,244132,1,0,0:0:0:0:
192,192,244219,1,0,0:0:0:0:
320,192,244306,1,0,0:0:0:0:
192,192,244392,1,0,0:0:0:0:
320,192,244479,1,0,0:0:0:0:
64,192,244479,1,0,0:0:0:0:
192,192,244566,1,0,0:0:0:0:
320,192,244652,1,0,0:0:0:0:
448,192,244739,1,0,0:0:0:0:
320,192,244826,1,0,0:0:0:0:
192,192,244826,1,0,0:0:0:0:
64,192,244826,1,0,0:0:0:0:
448,192,244826,1,0,0:0:0:0:
64,192,244999,1,0,0:0:0:0:
192,192,245173,1,0,0:0:0:0:
448,192,245173,1,0,0:0:0:0:
64,192,245346,1,0,0:0:0:0:
320,192,245519,1,0,0:0:0:0:
192,192,245519,1,0,0:0:0:0:
64,192,245693,1,0,0:0:0:0:
448,192,245866,1,0,0:0:0:0:
192,192,245866,1,0,0:0:0:0:
64,192,246040,1,0,0:0:0:0:
192,192,246213,1,0,0:0:0:0:
320,192,246213,1,0,0:0:0:0:
64,192,246386,1,0,0:0:0:0:
192,192,246560,1,0,0:0:0:0:
448,192,246560,1,0,0:0:0:0:
64,192,246733,1,0,0:0:0:0:
320,192,246907,1,0,0:0:0:0:
192,192,246907,1,0,0:0:0:0:
64,192,247080,1,0,0:0:0:0:
448,192,247254,1,0,0:0:0:0:
192,192,247254,1,0,0:0:0:0:
64,192,247427,1,0,0:0:0:0:
320,192,247600,1,0,0:0:0:0:
192,192,247600,1,0,0:0:0:0:
64,192,247774,1,0,0:0:0:0:
192,192,247947,1,0,0:0:0:0:
448,192,247947,1,0,0:0:0:0:
64,192,248121,1,0,0:0:0:0:
192,192,248294,1,0,0:0:0:0:
320,192,248294,1,0,0:0:0:0:
64,192,248467,1,0,0:0:0:0:
448,192,248641,1,0,0:0:0:0:
192,192,248641,1,0,0:0:0:0:
64,192,248814,1,0,0:0:0:0:
320,192,248988,1,0,0:0:0:0:
192,192,248988,1,0,0:0:0:0:
64,192,249161,1,0,0:0:0:0:
448,192,249334,1,0,0:0:0:0:
192,192,249334,1,0,0:0:0:0:
64,192,249508,1,0,0:0:0:0:
192,192,249681,1,0,0:0:0:0:
320,192,249681,1,0,0:0:0:0:
64,192,249855,1,0,0:0:0:0:
192,192,250028,1,0,0:0:0:0:
448,192,250028,1,0,0:0:0:0:
192,192,250202,1,0,0:0:0:0:
320,192,250202,1,0,0:0:0:0:
192,192,250375,1,0,0:0:0:0:
64,192,250375,1,0,0:0:0:0:
448,192,250548,1,0,0:0:0:0:
64,192,250722,1,0,0:0:0:0:
320,192,250722,1,0,0:0:0:0:
448,192,250895,1,0,0:0:0:0:
192,192,251069,1,0,0:0:0:0:
64,192,251069,1,0,0:0:0:0:
448,192,251242,1,0,0:0:0:0:
320,192,251415,1,0,0:0:0:0:
64,192,251415,1,0,0:0:0:0:
448,192,251589,1,0,0:0:0:0:
192,192,251762,1,0,0:0:0:0:
64,192,251762,1,0,0:0:0:0:
448,192,251936,1,0,0:0:0:0:
320,192,252109,1,0,0:0:0:0:
64,192,252109,1,0,0:0:0:0:
448,192,252282,1,0,0:0:0:0:
192,192,252456,1,0,0:0:0:0:
64,192,252456,1,0,0:0:0:0:
448,192,252629,1,0,0:0:0:0:
320,192,252803,1,0,0:0:0:0:
64,192,252803,1,0,0:0:0:0:
448,192,252976,1,0,0:0:0:0:
192,192,253149,1,0,0:0:0:0:
64,192,253149,1,0,0:0:0:0:
448,192,253323,1,0,0:0:0:0:
320,192,253496,1,0,0:0:0:0:
64,192,253496,1,0,0:0:0:0:
448,192,253670,1,0,0:0:0:0:
192,192,253843,1,0,0:0:0:0:
64,192,253843,1,0,0:0:0:0:
448,192,254017,1,0,0:0:0:0:
64,192,254190,1,0,0:0:0:0:
320,192,254190,1,0,0:0:0:0:
448,192,254363,1,0,0:0:0:0:
64,192,254537,1,0,0:0:0:0:
192,192,254537,1,0,0:0:0:0:
448,192,254710,1,0,0:0:0:0:
320,192,254884,1,0,0:0:0:0:
64,192,254884,1,0,0:0:0:0:
448,192,254970,1,0,0:0:0:0:
192,192,255057,1,0,0:0:0:0:
320,192,255144,1,0,0:0:0:0:
64,192,255230,1,0,0:0:0:0:
448,192,255230,1,0,0:0:0:0:
320,192,255317,1,0,0:0:0:0:
192,192,255404,1,0,0:0:0:0:
64,192,255404,1,0,0:0:0:0:
320,192,255491,1,0,0:0:0:0:
192,192,255577,1,0,0:0:0:0:
448,192,255577,1,0,0:0:0:0:
64,192,255664,1,0,0:0:0:0:
320,192,255751,1,0,0:0:0:0:
192,192,255751,1,0,0:0:0:0:
64,192,255837,1,0,0:0:0:0:
192,192,255924,1,0,0:0:0:0:
320,192,255924,1,0,0:0:0:0:
448,192,255924,1,0,0:0:0:0:
192,192,256097,1,0,0:0:0:0:
320,192,256271,1,0,0:0:0:0:
448,192,256271,1,0,0:0:0:0:
192,192,256444,1,0,0:0:0:0:
320,192,256618,1,0,0:0:0:0:
64,192,256618,1,0,0:0:0:0:
192,192,256791,1,0,0:0:0:0:
448,192,256965,1,0,0:0:0:0:
320,192,256965,1,0,0:0:0:0:
192,192,257138,1,0,0:0:0:0:
448,192,257311,1,0,0:0:0:0:
64,192,257311,1,0,0:0:0:0:
320,192,257311,1,0,0:0:0:0:
192,192,257485,1,0,0:0:0:0:
448,192,257658,1,0,0:0:0:0:
320,192,257658,1,0,0:0:0:0:
192,192,257832,1,0,0:0:0:0:
320,192,258005,1,0,0:0:0:0:
64,192,258005,1,0,0:0:0:0:
192,192,258178,1,0,0:0:0:0:
448,192,258352,1,0,0:0:0:0:
320,192,258352,1,0,0:0:0:0:
192,192,258525,1,0,0:0:0:0:
64,192,258699,1,0,0:0:0:0:
320,192,258699,1,0,0:0:0:0:
448,192,258699,1,0,0:0:0:0:
320,192,258872,1,0,0:0:0:0:
64,192,259045,1,0,0:0:0:0:
192,192,259045,1,0,0:0:0:0:
320,192,259219,1,0,0:0:0:0:
192,192,259392,1,0,0:0:0:0:
448,192,259392,1,0,0:0:0:0:
320,192,259566,1,0,0:0:0:0:
192,192,259739,1,0,0:0:0:0:
64,192,259739,1,0,0:0:0:0:
320,192,259912,1,0,0:0:0:0:
192,192,260086,1,0,0:0:0:0:
448,192,260086,1,0,0:0:0:0:
64,192,260086,1,0,0:0:0:0:
320,192,260259,1,0,0:0:0:0:
64,192,260433,1,0,0:0:0:0:
192,192,260433,1,0,0:0:0:0:
320,192,260606,1,0,0:0:0:0:
448,192,260780,1,0,0:0:0:0:
192,192,260780,1,0,0:0:0:0:
320,192,260953,1,0,0:0:0:0:
192,192,261126,1,0,0:0:0:0:
64,192,261126,1,0,0:0:0:0:
192,192,261300,1,0,0:0:0:0:
320,192,261300,1,0,0:0:0:0:
320,192,261473,1,0,0:0:0:0:
192,192,261473,1,0,0:0:0:0:
448,192,261473,1,0,0:0:0:0:
64,192,261473,128,0,262860:0:0:0:0:
448,192,261647,128,0,261820:0:0:0:0:
192,192,261820,1,0,0:0:0:0:
448,192,261993,128,0,262167:0:0:0:0:
320,192,261993,1,0,0:0:0:0:
448,192,262340,128,0,262514:0:0:0:0:
192,192,262514,1,0,0:0:0:0:
448,192,262687,128,0,262860:0:0:0:0:
320,192,262860,128,0,264248:0:0:0:0:
192,192,262860,1,0,0:0:0:0:
448,192,263034,128,0,263207:0:0:0:0:
64,192,263207,1,0,0:0:0:0:
448,192,263381,128,0,263554:0:0:0:0:
192,192,263381,1,0,0:0:0:0:
192,192,263554,1,0,0:0:0:0:
448,192,263728,128,0,263901:0:0:0:0:
192,192,263728,1,0,0:0:0:0:
64,192,263901,1,0,0:0:0:0:
448,192,264074,128,0,264248:0:0:0:0:
192,192,264074,1,0,0:0:0:0:
192,192,264248,128,0,265635:0:0:0:0:
64,192,264248,1,0,0:0:0:0:
320,192,264334,1,0,0:0:0:0:
448,192,264421,1,0,0:0:0:0:
64,192,264421,128,0,264595:0:0:0:0:
320,192,264508,1,0,0:0:0:0:
448,192,264595,1,0,0:0:0:0:
320,192,264681,1,0,0:0:0:0:
448,192,264768,1,0,0:0:0:0:
64,192,264768,128,0,264941:0:0:0:0:
320,192,264855,1,0,0:0:0:0:
448,192,264941,1,0,0:0:0:0:
320,192,265028,1,0,0:0:0:0:
448,192,265115,1,0,0:0:0:0:
64,192,265115,128,0,265288:0:0:0:0:
320,192,265202,1,0,0:0:0:0:
448,192,265288,1,0,0:0:0:0:
320,192,265375,1,0,0:0:0:0:
448,192,265462,1,0,0:0:0:0:
64,192,265462,128,0,265635:0:0:0:0:
320,192,265548,1,0,0:0:0:0:
448,192,265635,1,0,0:0:0:0:
320,192,265722,1,0,0:0:0:0:
192,192,265808,1,0,0:0:0:0:
64,192,265895,1,0,0:0:0:0:
448,192,265982,1,0,0:0:0:0:
192,192,265982,1,0,0:0:0:0:
320,192,266069,1,0,0:0:0:0:
192,192,266155,1,0,0:0:0:0:
320,192,266242,1,0,0:0:0:0:
448,192,266329,1,0,0:0:0:0:
320,192,266415,1,0,0:0:0:0:
192,192,266502,1,0,0:0:0:0:
64,192,266589,1,0,0:0:0:0:
448,192,266675,1,0,0:0:0:0:
192,192,266675,1,0,0:0:0:0:
320,192,266762,1,0,0:0:0:0:
192,192,266849,1,0,0:0:0:0:
320,192,266936,128,0,271184:0:0:0:0:
