osu file format v14

[General]
AudioFilename: audio.mp3
AudioLeadIn: 0
PreviewTime: 61174
Countdown: 0
SampleSet: Soft
StackLeniency: 0.7
Mode: 0
LetterboxInBreaks: 0
WidescreenStoryboard: 1

[Editor]
Bookmarks: 17774,20974,24174,27374,30574,33774,36974,40174,43374,46574,48574
DistanceSpacing: 0.4
BeatDivisor: 4
GridSize: 4
TimelineZoom: 1

[Metadata]
Title:Bravely You
TitleUnicode:Bravely You
Artist:Lia
ArtistUnicode:Lia
Creator:TaMul
Version:Insane
Source:シャーロット
Tags:Charlotte
BeatmapID:1038723
BeatmapSetID:487201

[Difficulty]
HPDrainRate:7
CircleSize:4
OverallDifficulty:8
ApproachRate:9
SliderMultiplier:1.75
SliderTickRate:2

[Events]
//Background and Video events
0,0,"55372_charlotte.jpg",0,0
Video,0,"video.avi"
//Break Periods
//Storyboard Layer 0 (Background)
//Storyboard Layer 1 (Fail)
//Storyboard Layer 2 (Pass)
//Storyboard Layer 3 (Foreground)
//Storyboard Sound Samples

[TimingPoints]
574,400,4,2,1,80,1,0
6974,-133.333333333333,4,2,2,80,0,0
7374,-100,4,2,2,80,0,0
8174,-100,4,2,3,80,0,0
8574,-133.333333333333,4,2,2,80,0,0
8974,-100,4,2,2,80,0,0
11374,-100,4,2,3,80,0,0
11574,-100,4,2,2,80,0,0
14574,-100,4,2,3,80,0,0
14974,-100,4,2,2,80,0,0
17774,-100,4,2,3,80,0,0
18174,-100,4,2,2,80,0,0
19774,-133.333333333333,4,2,2,80,0,0
20174,-100,4,2,2,80,0,0
20974,-100,4,2,3,80,0,0
21374,-100,4,2,10,80,0,0
21574,-100,4,2,2,80,0,0
22574,-100,4,2,40,80,0,0
22974,-133.333333333333,4,2,2,80,0,0
23374,-100,4,2,2,80,0,0
24174,-100,4,2,3,80,0,0
24574,-100,4,2,2,80,0,0
26174,-133.333333333333,4,2,2,80,0,0
26574,-100,4,2,2,80,0,0
27374,-100,4,2,3,80,0,0
27574,-100,4,2,2,80,0,0
28574,-100,4,2,10,80,0,0
28774,-100,4,2,2,80,0,0
29374,-133.333333333333,4,2,2,80,0,0
29774,-100,4,2,2,80,0,0
30574,-100,4,2,3,80,0,0
30774,-100,4,2,2,80,0,0
31774,-100,4,2,10,80,0,0
31974,-100,4,2,2,80,0,0
33774,-100,4,2,3,80,0,0
33974,-100,4,2,2,80,0,0
35374,-100,4,2,40,80,0,0
35774,-133.333333333333,4,2,2,80,0,0
36174,-100,4,2,2,80,0,0
36974,-100,4,2,3,80,0,0
37174,-100,4,2,2,80,0,0
38974,-133.333333333333,4,2,2,80,0,0
39374,-100,4,2,2,80,0,0
40174,-100,4,2,3,80,0,0
40374,-100,4,2,2,80,0,0
42174,-133.333333333333,4,2,2,80,0,0
42574,-100,4,2,2,80,0,0
43374,-100,4,2,3,80,0,0
43574,-100,4,2,2,80,0,0
46574,-100,4,2,3,80,0,0
46774,-100,4,2,2,80,0,0
46974,-76.9230769230769,4,2,2,80,0,0
47374,-100,4,2,40,80,0,0
48574,-100,4,2,2,80,0,0
59774,-133.333333333333,4,2,2,80,0,0
60174,-100,4,2,2,80,0,0
60974,-100,4,2,40,80,0,0
61374,-100,4,2,2,80,0,1
62974,-100,4,2,10,80,0,1
63174,-100,4,2,2,80,0,1
63774,-100,4,2,10,80,0,1
63974,-100,4,2,2,80,0,1
66174,-100,4,2,10,80,0,1
66374,-100,4,2,2,80,0,1
66974,-100,4,2,10,80,0,1
67174,-100,4,2,2,80,0,1
73774,-100,4,2,40,80,0,0
74174,-100,4,2,2,80,0,1
75774,-100,4,2,10,80,0,1
75974,-100,4,2,2,80,0,1
76574,-100,4,2,10,80,0,1
76774,-100,4,2,2,80,0,1
78974,-100,4,2,10,80,0,1
79174,-100,4,2,2,80,0,1
79774,-100,4,2,10,80,0,1
79974,-100,4,2,2,80,0,1
86974,-100,4,2,2,80,0,0
88374,-100,4,2,4,80,0,0

[Colours]
Combo1 : 255,255,0
Combo2 : 255,0,0
Combo3 : 255,128,128
Combo4 : 255,128,64

[HitObjects]
272,264,574,6,0,P|284:212|224:212,1,131.25,4|0,0:0|0:0,0:0:0:0:
240,124,974,2,0,P|280:124|324:148,1,87.5
144,204,1374,1,0,0:0:0:0:
148,188,1474,1,0,0:0:0:0:
152,172,1574,1,0,0:0:0:0:
156,156,1674,1,0,0:0:0:0:
160,140,1774,1,2,0:0:0:0:
189,339,2174,6,0,B|203:282|203:282|208:276|208:276|208:268|208:268|222:212,1,131.25
112,292,2674,1,0,0:0:0:0:
112,292,2774,1,0,0:0:0:0:
312,352,2974,1,0,0:0:0:0:
480,224,3174,2,0,P|460:264|456:312,1,87.5
440,300,3474,1,0,0:0:0:0:
424,296,3574,1,0,0:0:0:0:
408,292,3674,1,0,0:0:0:0:
392,288,3774,1,0,0:0:0:0:
368,80,3974,6,0,L|360:128,1,43.75,0|0,0:0|0:0,0:0:0:0:
280,84,4274,2,0,L|272:127,1,43.75,0|0,0:0|0:0,0:0:0:0:
316,200,4574,1,0,0:0:0:0:
316,200,4774,2,0,P|360:216|404:204,1,87.5,0|2,0:0|0:0,0:0:0:0:
398,207,5374,5,0,0:0:0:0:
398,207,5674,1,0,0:0:0:0:
398,207,5774,2,0,L|388:296,1,87.5,0|0,0:0|0:0,0:0:0:0:
352,116,6174,1,0,0:0:0:0:
408,376,6374,1,0,0:0:0:0:
156,296,6574,2,0,L|112:304,3,43.75,0|0|0|0,0:0|0:0|0:0|0:0,0:0:0:0:
156,296,6974,6,0,B|196:308|212:288|256:300,1,98.4375037550928,6|0,0:0|0:0,0:0:0:0:
292,364,7374,2,0,P|320:332|324:288,1,87.5,10|0,0:0|0:0,0:0:0:0:
304,148,7774,1,2,0:0:0:0:
280,232,7974,1,0,0:0:0:0:
388,128,8174,1,14,0:0:0:0:
244,88,8374,1,0,0:0:0:0:
244,88,8474,1,0,0:0:0:0:
244,88,8574,6,0,B|200:100|188:80|144:92,1,98.4375037550928,2|0,0:0|0:0,0:0:0:0:
136,104,8974,1,10,0:0:0:0:
56,68,9174,1,0,0:0:0:0:
128,272,9374,1,2,0:0:0:0:
166,193,9574,1,0,0:0:0:0:
40,280,9774,1,10,0:0:0:0:
52,320,9874,1,0,0:0:0:0:
84,352,9974,1,0,0:0:0:0:
128,364,10074,1,0,0:0:0:0:
172,352,10174,6,0,P|216:340|264:352,1,87.5,2|0,0:0|0:0,0:0:0:0:
240,260,10574,1,10,0:0:0:0:
320,296,10774,1,0,0:0:0:0:
320,296,10874,1,0,0:0:0:0:
320,296,10974,1,2,0:0:0:0:
248,176,11174,1,0,0:0:0:0:
384,240,11374,1,14,0:0:0:0:
256,96,11574,2,0,P|216:100|180:136,2,87.5,0|2|0,0:0|0:0|0:0,0:0:0:0:
465,84,12174,5,10,0:0:0:0:
450,93,12274,1,0,0:0:0:0:
434,100,12374,1,0,0:0:0:0:
417,106,12474,1,0,0:0:0:0:
400,110,12574,1,2,0:0:0:0:
383,112,12674,1,0,0:0:0:0:
366,113,12774,1,0,0:0:0:0:
348,113,12874,1,0,0:0:0:0:
332,112,12974,2,0,L|336:164,1,43.75,10|0,0:0|0:0,0:0:0:0:
260,96,13174,2,0,L|268:188,1,87.5,0|2,0:0|0:0,0:0:0:0:
312,40,13574,5,0,0:0:0:0:
312,40,13774,1,10,0:0:0:0:
184,76,13974,1,0,0:0:0:0:
168,72,14074,1,0,0:0:0:0:
152,68,14174,1,2,0:0:0:0:
136,64,14274,1,0,0:0:0:0:
120,60,14374,1,0,0:0:0:0:
52,84,14574,6,0,P|50:40|73:4,1,87.5,14|0,0:0|0:0,0:0:0:0:
100,140,14874,2,0,P|72:156|52:156,1,43.75,0|2,0:0|0:0,0:0:0:0:
208,200,15174,2,0,P|236:215|246:232,1,43.75
252,248,15374,1,10,0:0:0:0:
136,328,15574,2,0,P|164:312|174:295,1,43.75
180,280,15774,1,2,0:0:0:0:
184,68,15974,1,0,0:0:0:0:
184,68,16074,1,0,0:0:0:0:
184,68,16174,6,0,P|204:32|236:88,1,131.25,10|0,0:0|0:0,0:0:0:0:
136,128,16574,2,0,P|112:88|112:48,1,87.5,2|0,0:0|0:0,0:0:0:0:
116,32,16874,1,0,0:0:0:0:
124,16,16974,1,10,0:0:0:0:
200,216,17174,6,0,P|140:212|104:228,1,87.5,0|2,0:0|0:0,0:0:0:0:
256,160,17574,1,0,0:0:0:0:
252,284,17774,2,0,P|312:288|348:272,1,87.5,14|0,0:0|0:0,0:0:0:0:
352,268,18074,1,0,0:0:0:0:
364,256,18174,1,2,0:0:0:0:
200,216,18374,1,0,0:0:0:0:
444,276,18574,5,10,0:0:0:0:
448,260,18674,1,0,0:0:0:0:
448,244,18774,1,0,0:0:0:0:
444,228,18874,1,0,0:0:0:0:
432,212,18974,2,0,L|484:216,1,43.75,2|0,0:0|0:0,0:0:0:0:
400,136,19174,2,0,L|348:144,1,43.75
476,144,19374,2,0,L|464:96,1,43.75,10|0,0:0|0:0,0:0:0:0:
280,140,19574,2,0,L|290:182,1,43.75
324,72,19774,6,0,P|284:56|228:76,1,98.4375037550928,2|0,0:0|0:0,0:0:0:0:
164,132,20174,2,0,L|152:45,1,87.5,10|0,0:0|0:0,0:0:0:0:
80,128,20574,2,0,L|68:41,1,87.5,2|0,0:0|0:0,0:0:0:0:
120,204,20974,1,14,0:0:0:0:
120,204,21174,6,0,P|136:248|68:216,1,175
208,220,21674,1,0,0:0:0:0:
208,220,21774,2,0,P|208:264|184:312,1,87.5,8|0,0:0|0:0,0:0:0:0:
176,152,22174,1,2,0:0:0:0:
284,236,22374,2,0,P|324:256|368:256,1,87.5,0|8,0:0|0:0,0:0:0:0:
408,244,22674,2,0,L|404:292,1,43.75,2|4,0:0|0:0,0:0:0:0:
480,228,22974,6,0,L|472:328,1,98.4375037550928,6|0,0:0|0:0,0:0:0:0:
388,160,23374,2,0,B|432:160|432:160|476:148,1,87.5,10|0,0:0|0:0,0:0:0:0:
324,104,23774,1,2,0:0:0:0:
208,208,23974,1,0,0:0:0:0:
60,160,24174,1,14,0:0:0:0:
32,8,24374,1,0,0:0:0:0:
32,8,24474,1,0,0:0:0:0:
32,8,24574,6,0,P|28:60|40:96,1,87.5,2|0,0:0|0:0,0:0:0:0:
176,137,24974,2,0,P|133:138|96:160,1,87.5,10|0,0:0|0:0,0:0:0:0:
88,176,25274,1,0,0:0:0:0:
88,192,25374,1,2,0:0:0:0:
180,60,25574,1,0,0:0:0:0:
256,204,25774,1,10,0:0:0:0:
176,344,25974,1,0,0:0:0:0:
176,344,26074,1,0,0:0:0:0:
176,344,26174,6,0,P|172:304|128:316,1,98.4375037550928,2|0,0:0|0:0,0:0:0:0:
248,360,26574,2,0,P|252:312|236:268,1,87.5,10|0,0:0|0:0,0:0:0:0:
180,212,26974,1,2,0:0:0:0:
216,56,27174,1,0,0:0:0:0:
216,56,27274,1,0,0:0:0:0:
216,56,27374,2,0,P|204:96|228:144,1,87.5,14|0,0:0|0:0,0:0:0:0:
372,100,27774,6,0,L|284:92,1,87.5,2|0,0:0|0:0,0:0:0:0:
132,136,28174,1,10,0:0:0:0:
136,56,28374,2,0,P|80:72|60:176,1,175
81,290,28874,2,0,P|80:268|72:248,1,43.75,0|10,0:0|0:0,0:0:0:0:
32,344,29174,1,0,0:0:0:0:
32,344,29374,6,0,P|84:364|128:344,1,98.4375037550928,2|0,0:0|0:0,0:0:0:0:
176,296,29774,2,0,P|196:332|188:383,1,87.5,10|0,0:0|0:0,0:0:0:0:
81,290,30174,1,2,0:0:0:0:
144,164,30374,1,0,0:0:0:0:
280,204,30574,2,0,P|316:240|356:240,1,87.5,14|0,0:0|0:0,0:0:0:0:
352,32,30974,5,2,0:0:0:0:
344,172,31174,1,0,0:0:0:0:
344,172,31274,1,0,0:0:0:0:
344,172,31374,1,10,0:0:0:0:
212,232,31574,2,0,P|264:296|360:316,1,175
240,140,32174,2,0,P|194:148|152:173,1,87.5,10|0,0:0|0:0,0:0:0:0:
146,181,32474,1,0,0:0:0:0:
138,197,32574,5,2,0:0:0:0:
216,44,32774,1,0,0:0:0:0:
240,224,32974,1,10,0:0:0:0:
112,88,33174,1,0,0:0:0:0:
112,88,33274,1,0,0:0:0:0:
112,88,33374,5,2,0:0:0:0:
300,124,33574,1,0,0:0:0:0:
28,264,33774,1,14,0:0:0:0:
320,320,33974,1,0,0:0:0:0:
112,88,34174,1,2,0:0:0:0:
168,384,34374,1,0,0:0:0:0:
168,384,34474,1,0,0:0:0:0:
168,384,34574,6,0,P|124:360|88:360,1,87.5,10|0,0:0|0:0,0:0:0:0:
320,320,34974,2,0,P|364:344|400:344,1,87.5,2|0,0:0|0:0,0:0:0:0:
212,276,35374,1,2,0:0:0:0:
216,292,35474,1,2,0:0:0:0:
220,308,35574,1,4,0:0:0:0:
144,232,35774,6,0,P|184:196|228:196,1,98.4375037550928,6|0,0:0|0:0,0:0:0:0:
244,204,36174,1,8,0:0:0:0:
144,304,36374,1,0,0:0:0:0:
144,304,36474,1,0,0:0:0:0:
144,304,36574,2,0,P|96:288|76:256,1,87.5,2|0,0:0|0:0,0:0:0:0:
120,68,36974,1,12,0:0:0:0:
144,232,37174,1,0,0:0:0:0:
144,232,37274,1,0,0:0:0:0:
144,232,37374,6,0,L|132:140,1,87.5,2|0,0:0|0:0,0:0:0:0:
324,168,37774,2,0,L|335:81,1,87.5,10|0,0:0|0:0,0:0:0:0:
338,64,38074,1,0,0:0:0:0:
341,46,38174,1,2,0:0:0:0:
256,220,38374,1,0,0:0:0:0:
256,220,38574,2,0,P|288:248|336:252,1,87.5,10|0,0:0|0:0,0:0:0:0:
348,248,38874,1,0,0:0:0:0:
364,240,38974,6,0,P|408:228|456:248,1,98.4375037550928,2|0,0:0|0:0,0:0:0:0:
404,308,39374,1,10,0:0:0:0:
324,168,39574,1,0,0:0:0:0:
232,300,39774,6,0,L|144:284,1,87.5,2|0,0:0|0:0,0:0:0:0:
280,360,40074,1,0,0:0:0:0:
280,360,40174,2,0,P|304:328|304:280,1,87.5,14|0,0:0|0:0,0:0:0:0:
84,344,40574,5,2,0:0:0:0:
232,300,40774,1,0,0:0:0:0:
36,268,40974,1,10,0:0:0:0:
228,216,41174,2,0,L|280:200,1,43.75
286,199,41374,1,2,0:0:0:0:
116,160,41574,2,0,L|64:144,1,43.75
58,143,41774,1,10,0:0:0:0:
280,120,41974,1,0,0:0:0:0:
280,120,42074,1,0,0:0:0:0:
280,120,42174,6,0,P|332:132|360:168,1,98.4375037550928,2|0,0:0|0:0,0:0:0:0:
372,288,42574,2,0,P|384:244|432:220,1,87.5,10|0,0:0|0:0,0:0:0:0:
286,199,42974,1,2,0:0:0:0:
444,288,43174,1,0,0:0:0:0:
292,384,43374,1,14,0:0:0:0:
140,284,43574,1,0,0:0:0:0:
140,284,43674,1,0,0:0:0:0:
140,284,43774,6,0,P|152:224|96:228,1,131.25,2|0,0:0|0:0,0:0:0:0:
120,356,44174,2,0,P|168:352|200:328,1,87.5,10|0,0:0|0:0,0:0:0:0:
352,296,44574,2,0,P|306:279|281:248,1,87.5,2|0,0:0|0:0,0:0:0:0:
168,208,44974,2,0,P|193:173|196:129,1,87.5,10|0,0:0|0:0,0:0:0:0:
192,112,45274,1,0,0:0:0:0:
184,96,45374,5,2,0:0:0:0:
198,329,45574,1,0,0:0:0:0:
316,124,45774,1,10,0:0:0:0:
120,212,45974,1,0,0:0:0:0:
340,284,46174,1,2,0:0:0:0:
172,76,46374,5,0,0:0:0:0:
196,348,46574,1,10,0:0:0:0:
172,76,46774,1,0,0:0:0:0:
172,76,46874,1,0,0:0:0:0:
172,76,46974,6,0,P|144:120|224:120,1,170.624992189408,2|0,0:0|0:0,0:0:0:0:
228,136,47374,2,0,L|240:196,1,43.75,2|2,0:0|0:0,0:0:0:0:
80,148,47574,2,0,P|72:104|88:60,1,87.5,2|2,0:0|0:0,0:0:0:0:
312,176,47974,1,2,0:0:0:0:
108,328,48174,1,2,0:0:0:0:
108,328,48274,1,8,0:0:0:0:
108,328,48374,1,4,0:0:0:0:
108,328,48474,1,4,0:0:0:0:
108,328,48574,6,0,P|104:280|80:244,1,87.5,2|0,0:0|0:0,0:0:0:0:
268,304,48974,2,0,P|224:308|188:340,1,87.5,2|0,0:0|0:0,0:0:0:0:
252,380,49374,1,2,0:0:0:0:
200,232,49574,1,0,0:0:0:0:
332,364,49774,1,2,0:0:0:0:
280,204,49974,2,0,L|268:160,1,43.75
328,116,50174,6,0,L|352:208,1,87.5,2|0,0:0|0:0,0:0:0:0:
175,111,50574,2,0,L|260:88,1,87.5,2|0,0:0|0:0,0:0:0:0:
280,204,50974,1,2,0:0:0:0:
316,44,51174,1,0,0:0:0:0:
160,0,51374,1,2,0:0:0:0:
112,156,51574,1,0,0:0:0:0:
112,156,51674,1,0,0:0:0:0:
112,156,51774,5,2,0:0:0:0:
316,44,51974,1,0,0:0:0:0:
492,196,52174,6,0,P|456:228|516:256,1,131.25,2|0,0:0|0:0,0:0:0:0:
512,128,52574,2,0,P|464:128|420:152,1,87.5,2|0,0:0|0:0,0:0:0:0:
376,72,52974,2,0,P|348:104|340:156,1,87.5,2|0,0:0|0:0,0:0:0:0:
256,120,53374,5,2,0:0:0:0:
428,144,53574,1,0,0:0:0:0:
324,288,53774,1,2,0:0:0:0:
300,52,53974,1,0,0:0:0:0:
104,184,54174,5,2,0:0:0:0:
300,52,54374,1,0,0:0:0:0:
324,288,54574,1,2,0:0:0:0:
104,184,54774,1,0,0:0:0:0:
104,184,54874,1,0,0:0:0:0:
104,184,54974,6,0,P|120:140|108:100,1,87.5,2|0,0:0|0:0,0:0:0:0:
36,216,55374,2,0,P|68:252|108:260,1,87.5,2|0,0:0|0:0,0:0:0:0:
188,236,55774,1,2,0:0:0:0:
109,102,55974,1,0,0:0:0:0:
104,260,56174,1,2,0:0:0:0:
208,380,56374,1,0,0:0:0:0:
208,380,56474,1,0,0:0:0:0:
208,380,56574,6,0,P|244:356|292:352,1,87.5,2|0,0:0|0:0,0:0:0:0:
464,332,56974,2,0,P|434:363|393:377,1,87.5,2|0,0:0|0:0,0:0:0:0:
287,351,57374,1,2,0:0:0:0:
248,248,57574,1,0,0:0:0:0:
292,148,57774,1,2,0:0:0:0:
400,140,57974,1,0,0:0:0:0:
400,140,58074,1,0,0:0:0:0:
400,140,58174,6,0,P|444:148|472:184,1,87.5,2|0,0:0|0:0,0:0:0:0:
287,351,58574,1,2,0:0:0:0:
404,212,58774,1,0,0:0:0:0:
124,104,58974,1,2,0:0:0:0:
132,284,59174,1,0,0:0:0:0:
300,64,59374,1,2,0:0:0:0:
287,351,59574,1,0,0:0:0:0:
287,351,59674,1,0,0:0:0:0:
287,351,59774,6,0,P|320:340|284:316,1,98.4375037550928,2|0,0:0|0:0,0:0:0:0:
384,368,60174,2,0,P|388:304|344:252,1,131.25,2|0,0:0|0:0,0:0:0:0:
216,344,60574,1,2,0:0:0:0:
464,276,60774,1,0,0:0:0:0:
200,228,60974,1,8,0:0:0:0:
200,228,61074,1,8,0:0:0:0:
200,228,61174,1,2,0:0:0:0:
200,228,61274,1,2,0:0:0:0:
200,228,61374,6,0,P|156:208|108:208,1,87.5,6|0,0:0|0:0,0:0:0:0:
256,164,61774,1,10,0:0:0:0:
311,228,61974,2,0,P|351:209|394:206,1,87.5,0|2,0:0|0:0,0:0:0:0:
372,300,62374,1,0,0:0:0:0:
372,300,62474,1,0,0:0:0:0:
372,300,62574,1,10,0:0:0:0:
256,164,62774,6,0,P|272:112|196:140,1,175
328,60,63374,1,10,0:0:0:0:
328,60,63574,6,0,P|256:16|168:36,1,175
347,143,64174,2,0,P|346:99|328:60,1,87.5,10|0,0:0|0:0,0:0:0:0:
308,204,64474,6,0,P|332:216|360:216,1,43.75,0|2,0:0|0:0,0:0:0:0:
328,60,64774,1,0,0:0:0:0:
288,276,64974,2,0,P|332:288|376:284,1,87.5,10|0,0:0|0:0,0:0:0:0:
232,224,65374,1,2,0:0:0:0:
232,224,65574,2,0,P|212:268|220:312,1,87.5,0|10,0:0|0:0,0:0:0:0:
428,340,65974,6,0,P|452:296|372:208,1,175
256,384,66574,1,10,0:0:0:0:
127,208,66774,2,0,P|62:259|84:340,1,175
204,284,67374,1,10,0:0:0:0:
188,284,67474,1,0,0:0:0:0:
172,284,67574,1,0,0:0:0:0:
156,284,67674,1,0,0:0:0:0:
138,284,67774,5,2,0:0:0:0:
163,74,67974,1,0,0:0:0:0:
163,74,68074,1,0,0:0:0:0:
163,74,68174,1,10,0:0:0:0:
373,99,68374,1,0,0:0:0:0:
348,309,68574,1,2,0:0:0:0:
124,284,68774,5,0,0:0:0:0:
164,60,68974,1,10,0:0:0:0:
124,284,69174,1,0,0:0:0:0:
124,284,69274,1,0,0:0:0:0:
124,284,69374,2,0,L|104:376,1,87.5,2|0,0:0|0:0,0:0:0:0:
96,192,69774,1,10,0:0:0:0:
216,244,69974,1,0,0:0:0:0:
28,268,70174,1,2,0:0:0:0:
280,176,70374,1,0,0:0:0:0:
280,176,70474,1,0,0:0:0:0:
280,176,70574,2,0,P|304:212|304:256,1,87.5,10|0,0:0|0:0,0:0:0:0:
260,312,70874,6,0,P|280:324|300:328,1,43.75,0|2,0:0|0:0,0:0:0:0:
236,116,71174,2,0,P|219:132|210:150,1,43.75
208,176,71374,1,10,0:0:0:0:
372,296,71574,2,0,P|395:295|414:288,1,43.75
433,272,71774,1,2,0:0:0:0:
280,176,71974,1,0,0:0:0:0:
168,316,72174,1,10,0:0:0:0:
16,216,72374,2,0,L|20:264,1,43.75
92,284,72574,6,0,L|84:196,1,87.5,2|0,0:0|0:0,0:0:0:0:
280,176,72974,2,0,L|272:264,1,87.5,10|0,0:0|0:0,0:0:0:0:
164,136,73374,1,2,0:0:0:0:
256,0,73574,1,0,0:0:0:0:
416,44,73774,2,0,L|464:36,1,43.75,8|8,0:0|0:0,0:0:0:0:
432,112,73974,2,0,L|480:104,1,43.75,2|2,0:0|0:0,0:0:0:0:
364,92,74174,6,0,P|364:136|400:176,1,87.5,6|0,0:0|0:0,0:0:0:0:
404,180,74474,1,0,0:0:0:0:
420,184,74574,1,10,0:0:0:0:
416,44,74774,1,0,0:0:0:0:
292,64,74974,2,0,B|244:72|248:52|200:64,2,87.5,2|0|10,0:0|0:0|0:0,0:0:0:0:
162,1,75574,6,0,P|132:78|192:136,1,175
271,251,76174,1,10,0:0:0:0:
271,251,76374,6,0,P|268:168|192:136,1,175
116,180,76974,1,10,0:0:0:0:
98,176,77074,1,0,0:0:0:0:
81,172,77174,1,0,0:0:0:0:
64,168,77274,1,0,0:0:0:0:
47,164,77374,6,0,P|64:220|56:252,1,87.5,2|0,0:0|0:0,0:0:0:0:
48,264,77674,1,0,0:0:0:0:
32,276,77774,1,10,0:0:0:0:
100,328,77974,1,0,0:0:0:0:
188,332,78174,2,0,P|212:284|320:300,1,175,2|10,0:0|0:0,0:0:0:0:
216,170,78774,6,0,L|260:340,1,175
260,340,79374,1,10,0:0:0:0:
348,32,79574,2,0,L|320:208,1,175
140,136,80174,2,0,P|176:96|208:88,1,87.5,10|0,0:0|0:0,0:0:0:0:
140,208,80474,2,0,P|112:204|96:192,1,43.75,0|6,0:0|0:0,0:0:0:0:
207,88,80774,5,0,0:0:0:0:
224,92,80874,1,0,0:0:0:0:
240,96,80974,1,10,0:0:0:0:
316,192,81174,1,0,0:0:0:0:
299,195,81274,1,0,0:0:0:0:
283,199,81374,5,2,0:0:0:0:
372,104,81574,1,0,0:0:0:0:
472,192,81774,1,10,0:0:0:0:
380,288,81974,1,0,0:0:0:0:
380,288,82074,1,0,0:0:0:0:
380,288,82174,6,0,P|336:276|296:296,1,87.5,2|0,0:0|0:0,0:0:0:0:
288,304,82474,1,0,0:0:0:0:
280,320,82574,1,10,0:0:0:0:
372,104,82774,1,0,0:0:0:0:
344,352,82974,1,2,0:0:0:0:
256,64,83174,1,0,0:0:0:0:
216,360,83374,1,10,0:0:0:0:
124,196,83574,1,0,0:0:0:0:
124,196,83674,1,0,0:0:0:0:
124,196,83774,6,0,L|216:208,1,87.5,2|0,0:0|0:0,0:0:0:0:
388,188,84174,2,0,L|296:176,1,87.5,10|0,0:0|0:0,0:0:0:0:
228,128,84574,1,2,0:0:0:0:
284,256,84774,1,0,0:0:0:0:
243,98,84974,1,10,0:0:0:0:
268,285,85174,2,0,L|276:344,1,43.75
208,364,85374,6,0,L|196:272,1,87.5,2|0,0:0|0:0,0:0:0:0:
304,20,85774,2,0,L|316:112,1,87.5,10|0,0:0|0:0,0:0:0:0:
341,251,86174,1,2,0:0:0:0:
170,132,86374,5,0,0:0:0:0:
153,136,86474,1,0,0:0:0:0:
136,139,86574,1,8,0:0:0:0:
119,143,86674,1,0,0:0:0:0:
102,146,86774,1,0,0:0:0:0:
212,68,86974,6,0,P|240:100|244:144,1,87.5,6|0,0:0|0:0,0:0:0:0:
60,212,87374,2,0,P|32:180|28:136,1,87.5,10|0,0:0|0:0,0:0:0:0:
176,232,87774,1,2,0:0:0:0:
212,68,87974,1,0,0:0:0:0:
27,136,88174,1,8,0:0:0:0:
368,156,88374,1,14,0:0:0:0:
