osu file format v14

[General]
AudioFilename: BravelyYouTVSize.mp3
AudioLeadIn: 0
PreviewTime: 60974
Countdown: 0
SampleSet: Soft
StackLeniency: 0.7
Mode: 0
LetterboxInBreaks: 0
WidescreenStoryboard: 0

[Editor]
Bookmarks: 23023,35823,48623
DistanceSpacing: 2
BeatDivisor: 4
GridSize: 4
TimelineZoom: 1.500001

[Metadata]
Title:Bravely You (TV Size)
TitleUnicode:Bravely You (TV Size)
Artist:Lia
ArtistUnicode:Lia
Creator:Reana
Version:Charlotte
Source:Charlotte
Tags:[C_u_r_i] doyak taeyang [_zzz_] key anime opening
BeatmapID:820944
BeatmapSetID:374767

[Difficulty]
HPDrainRate:6
CircleSize:4
OverallDifficulty:8
ApproachRate:8.7
SliderMultiplier:1.7
SliderTickRate:2

[Events]
//Background and Video events
0,0,"bg.jpg",0,0
//Break Periods
//Storyboard Layer 0 (Background)
//Storyboard Layer 1 (Fail)
//Storyboard Layer 2 (Pass)
//Storyboard Layer 3 (Foreground)
//Storyboard Sound Samples

[TimingPoints]
574,400,4,2,1,50,1,0
47974,-100,4,2,1,45,0,0
48074,-100,4,2,1,40,0,0
48174,-100,4,2,1,35,0,0
48274,-100,4,2,1,30,0,0
48374,-100,4,2,1,25,0,0
48574,-133.333333333333,4,2,1,25,0,0
60974,-133.333333333333,4,2,1,30,0,0
61074,-133.333333333333,4,2,1,35,0,0
61174,-133.333333333333,4,2,1,40,0,0
61274,-133.333333333333,4,2,1,45,0,0
61374,-83.3333333333333,4,2,1,60,0,1
88374,-83.3333333333333,4,2,1,60,0,0

[Colours]
Combo1 : 247,140,255
Combo2 : 0,128,255
Combo3 : 247,9,86
Combo4 : 128,255,255

[HitObjects]
112,96,574,6,0,L|120:208,1,85,4|0,0:0|0:0,0:0:0:0:
208,223,974,1,8,0:0:0:0:
186,39,1174,1,0,0:0:0:0:
186,39,1274,1,0,0:0:0:0:
186,39,1374,2,0,P|147:11|90:16,1,85,0|0,0:0|0:0,0:0:0:0:
16,123,1774,2,0,L|24:235,1,85,8|0,0:0|0:0,0:0:0:0:
208,223,2174,5,2,0:0:0:0:
409,176,2374,1,2,0:0:0:0:
288,300,2574,1,8,0:0:0:0:
259,128,2774,2,0,P|252:78|263:28,1,85,2|0,0:0|0:0,0:0:0:0:
407,92,3174,2,0,P|414:142|403:192,1,85,2|8,0:0|0:0,0:0:0:0:
288,300,3574,1,2,0:0:0:0:
208,223,3774,6,0,L|101:231,1,85,2|0,0:0|0:0,0:0:0:0:
130,120,4174,1,8,0:0:0:0:
323,169,4374,2,0,L|430:177,1,85,2|0,0:0|0:0,0:0:0:0:
288,300,4774,2,0,L|181:308,2,85,2|8|2,0:0|0:0|0:0,0:0:0:0:
200,138,5374,6,0,P|200:180|207:222,1,85,0|0,0:0|0:0,0:0:0:0:
288,300,5774,1,8,0:0:0:0:
323,169,5974,1,2,0:0:0:0:
323,169,6074,1,0,0:0:0:0:
323,169,6174,1,0,0:0:0:0:
205,55,6374,1,0,0:0:0:0:
183,52,6474,1,0,0:0:0:0:
161,52,6574,1,8,0:0:0:0:
140,56,6674,1,0,0:0:0:0:
120,64,6774,1,0,0:0:0:0:
102,76,6874,1,0,0:0:0:0:
86,90,6974,6,0,P|94:137|87:190,1,85,0|0,0:0|0:0,0:0:0:0:
33,267,7374,1,8,0:0:0:0:
8,90,7574,2,0,P|59:15|154:51,1,170,0|0,0:0|0:0,0:0:0:0:
303,86,8174,2,0,P|242:94|188:68,1,85,8|0,0:0|0:0,0:0:0:0:
259,0,8574,5,0,0:0:0:0:
212,164,8774,2,0,P|204:211|211:264,1,85,0|8,0:0|0:0,0:0:0:0:
377,132,9174,2,0,P|385:85|378:32,1,85,0|0,0:0|0:0,0:0:0:0:
337,218,9574,1,0,0:0:0:0:
337,218,9674,1,0,0:0:0:0:
337,218,9774,2,0,P|384:226|437:219,1,85,8|0,0:0|0:0,0:0:0:0:
381,48,10174,5,0,0:0:0:0:
178,109,10374,1,0,0:0:0:0:
298,4,10574,1,8,0:0:0:0:
248,170,10774,2,0,P|242:223|254:268,1,85,0|0,0:0|0:0,0:0:0:0:
385,330,11174,2,0,L|469:326,1,85,0|8,0:0|0:0,0:0:0:0:
339,212,11574,1,0,0:0:0:0:
267,368,11774,6,0,L|182:364,1,85,0|0,0:0|0:0,0:0:0:0:
98,284,12174,2,0,L|52:289,1,42.5,10|0,0:0|0:0,0:0:0:0:
132,177,12374,2,0,L|90:173,1,42.5,2|0,0:0|0:0,0:0:0:0:
217,264,12574,1,2,0:0:0:0:
246,266,12674,1,2,0:0:0:0:
275,266,12774,1,2,0:0:0:0:
304,262,12874,1,2,0:0:0:0:
332,254,12974,2,0,L|340:199,1,42.5,10|0,0:0|0:0,0:0:0:0:
444,150,13174,2,0,L|436:95,1,42.5,2|0,0:0|0:0,0:0:0:0:
286,48,13374,6,0,P|242:45|161:78,1,127.5
152,96,13774,1,8,0:0:0:0:
318,195,13974,2,0,P|362:198|410:187,1,85,0|0,0:0|0:0,0:0:0:0:
354,107,14374,1,0,0:0:0:0:
248,253,14574,2,0,L|263:350,1,85,8|0,0:0|0:0,0:0:0:0:
129,205,14974,5,0,0:0:0:0:
129,205,15174,2,0,L|144:108,1,85,0|8,0:0|0:0,0:0:0:0:
40,254,15574,2,0,P|105:305|191:286,1,170,0|0,0:0|0:0,0:0:0:0:
367,249,16174,2,0,P|324:238|285:249,1,85,8|0,0:0|0:0,0:0:0:0:
439,323,16574,6,0,P|468:235|455:195,1,127.5,0|0,0:0|0:0,0:0:0:0:
452,180,16974,1,8,0:0:0:0:
285,248,17174,1,0,0:0:0:0:
354,107,17374,1,0,0:0:0:0:
363,297,17574,1,0,0:0:0:0:
363,297,17674,1,0,0:0:0:0:
363,297,17774,2,0,P|309:329|271:329,1,85,8|0,0:0|0:0,0:0:0:0:
176,205,18174,6,0,L|187:305,1,85,0|0,0:0|0:0,0:0:0:0:
41,277,18574,2,0,L|30:231,1,42.5,10|0,0:0|0:0,0:0:0:0:
88,129,18774,2,0,L|99:83,1,42.5,2|0,0:0|0:0,0:0:0:0:
256,100,18974,1,2,0:0:0:0:
266,127,19074,1,2,0:0:0:0:
271,156,19174,1,2,0:0:0:0:
269,185,19274,1,2,0:0:0:0:
260,213,19374,2,0,P|235:223|204:227,1,42.5,10|0,0:0|0:0,0:0:0:0:
322,283,19574,2,0,P|347:293|378:297,1,42.5,2|0,0:0|0:0,0:0:0:0:
444,204,19774,6,0,P|452:156|440:101,1,85,0|0,0:0|0:0,0:0:0:0:
273,72,20174,2,0,P|265:120|277:175,1,85,8|0,0:0|0:0,0:0:0:0:
322,283,20574,1,0,0:0:0:0:
369,77,20774,1,2,0:0:0:0:
369,77,20974,2,0,P|363:33|331:-6,1,85,8|2,0:0|0:0,0:0:0:0:
270,155,21374,5,0,0:0:0:0:
229,6,21574,1,0,0:0:0:0:
219,226,21774,1,10,0:0:0:0:
126,102,21974,1,0,0:0:0:0:
43,317,22174,1,10,0:0:0:0:
172,166,22374,1,10,0:0:0:0:
9,81,22574,1,8,0:0:0:0:
9,81,22674,1,8,0:0:0:0:
9,81,22774,1,8,0:0:0:0:
38,234,22974,6,0,P|34:290|56:339,1,85,0|0,0:0|0:0,0:0:0:0:
162,335,23374,1,8,0:0:0:0:
81,145,23574,1,0,0:0:0:0:
81,145,23674,1,0,0:0:0:0:
81,145,23774,2,0,P|20:134|-13:149,1,85,0|0,0:0|0:0,0:0:0:0:
42,316,24174,1,8,0:0:0:0:
42,316,24274,1,0,0:0:0:0:
42,316,24374,1,0,0:0:0:0:
219,226,24574,6,0,P|274:236|340:217,1,85,0|2,0:0|0:0,0:0:0:0:
267,129,24974,1,8,0:0:0:0:
186,317,25174,1,2,0:0:0:0:
186,317,25274,1,0,0:0:0:0:
186,317,25374,2,0,P|140:287|118:233,1,85,0|2,0:0|0:0,0:0:0:0:
302,232,25774,1,10,0:0:0:0:
302,232,25874,1,0,0:0:0:0:
302,232,25974,1,2,0:0:0:0:
440,60,26174,6,0,L|347:65,1,85,0|0,0:0|0:0,0:0:0:0:
267,129,26574,1,8,0:0:0:0:
101,59,26774,1,0,0:0:0:0:
92,49,26874,1,0,0:0:0:0:
84,38,26974,2,0,L|168:33,1,85,0|0,0:0|0:0,0:0:0:0:
154,171,27374,2,0,L|165:222,1,42.5,8|0,0:0|0:0,0:0:0:0:
186,317,27574,1,0,0:0:0:0:
403,318,27774,6,0,L|360:315,1,42.5,2|0,0:0|0:0,0:0:0:0:
334,228,27974,2,0,L|291:230,1,42.5,2|0,0:0|0:0,0:0:0:0:
228,318,28174,2,0,L|185:316,1,42.5,10|0,0:0|0:0,0:0:0:0:
86,238,28374,2,0,L|43:240,1,42.5,2|0,0:0|0:0,0:0:0:0:
72,368,28574,5,0,0:0:0:0:
72,368,28774,2,0,L|61:318,1,42.5,2|0,0:0|0:0,0:0:0:0:
86,238,28974,2,0,L|97:188,1,42.5,10|0,0:0|0:0,0:0:0:0:
52,85,29174,1,0,0:0:0:0:
188,61,29374,6,0,P|234:56|277:70,1,85,0|0,0:0|0:0,0:0:0:0:
339,159,29774,1,8,0:0:0:0:
117,125,29974,1,0,0:0:0:0:
114,121,30074,1,0,0:0:0:0:
111,117,30174,2,0,P|90:58|96:13,1,85,0|0,0:0|0:0,0:0:0:0:
226,173,30574,1,8,0:0:0:0:
226,173,30674,1,0,0:0:0:0:
226,173,30774,1,0,0:0:0:0:
265,328,30974,6,0,L|376:336,1,85,0|2,0:0|0:0,0:0:0:0:
400,244,31374,1,8,0:0:0:0:
202,259,31574,1,2,0:0:0:0:
201,267,31674,1,0,0:0:0:0:
200,275,31774,2,0,L|89:283,1,85,0|2,0:0|0:0,0:0:0:0:
79,161,32174,2,0,L|88:107,1,42.5,10|0,0:0|0:0,0:0:0:0:
108,13,32374,1,2,0:0:0:0:
272,88,32574,6,0,L|374:92,1,85,0|0,0:0|0:0,0:0:0:0:
484,240,32974,2,0,L|382:244,1,85,8|0,0:0|0:0,0:0:0:0:
200,275,33374,2,0,L|196:173,1,85,0|0,0:0|0:0,0:0:0:0:
356,91,33774,1,8,0:0:0:0:
357,120,33874,1,0,0:0:0:0:
358,149,33974,1,0,0:0:0:0:
262,331,34174,6,0,P|230:353|184:358,1,85,0|0,0:0|0:0,0:0:0:0:
114,189,34574,2,0,P|151:179|196:190,1,85,8|0,0:0|0:0,0:0:0:0:
53,277,34974,1,0,0:0:0:0:
37,139,35174,1,10,0:0:0:0:
281,159,35374,1,8,0:0:0:0:
281,159,35474,1,0,0:0:0:0:
281,159,35574,1,0,0:0:0:0:
281,159,35674,1,0,0:0:0:0:
281,159,35774,6,0,P|285:207|270:244,1,85,0|0,0:0|0:0,0:0:0:0:
185,316,36174,1,8,0:0:0:0:
203,129,36374,1,0,0:0:0:0:
203,129,36474,1,0,0:0:0:0:
203,129,36574,2,0,P|241:86|295:81,1,85,0|0,0:0|0:0,0:0:0:0:
404,196,36974,1,8,0:0:0:0:
404,196,37074,1,0,0:0:0:0:
404,196,37174,1,0,0:0:0:0:
268,311,37374,6,0,P|212:319|180:315,1,85,0|2,0:0|0:0,0:0:0:0:
135,221,37774,1,8,0:0:0:0:
343,264,37974,1,2,0:0:0:0:
343,264,38074,1,0,0:0:0:0:
343,264,38174,2,0,P|351:320|347:352,1,85,0|2,0:0|0:0,0:0:0:0:
184,315,38574,2,0,L|133:320,1,42.5,10|0,0:0|0:0,0:0:0:0:
37,360,38774,1,2,0:0:0:0:
135,221,38974,6,0,L|133:129,1,85,0|0,0:0|0:0,0:0:0:0:
213,78,39374,1,8,0:0:0:0:
197,270,39574,1,0,0:0:0:0:
190,293,39674,1,0,0:0:0:0:
184,315,39774,2,0,L|92:317,1,85,0|0,0:0|0:0,0:0:0:0:
32,128,40174,1,8,0:0:0:0:
32,128,40274,1,0,0:0:0:0:
32,128,40374,1,0,0:0:0:0:
92,217,40574,6,0,L|151:222,1,42.5,2|0,0:0|0:0,0:0:0:0:
184,145,40774,2,0,L|243:140,1,42.5,2|0,0:0|0:0,0:0:0:0:
289,227,40974,2,0,L|348:232,1,42.5,10|0,0:0|0:0,0:0:0:0:
425,147,41174,2,0,L|484:142,1,42.5,2|0,0:0|0:0,0:0:0:0:
497,271,41374,5,0,0:0:0:0:
497,271,41574,2,0,L|454:267,1,42.5,2|0,0:0|0:0,0:0:0:0:
373,227,41774,2,0,L|330:230,1,42.5,10|0,0:0|0:0,0:0:0:0:
221,277,41974,1,0,0:0:0:0:
91,166,42174,6,0,L|192:163,1,85,0|0,0:0|0:0,0:0:0:0:
241,83,42574,1,8,0:0:0:0:
50,83,42774,1,0,0:0:0:0:
50,83,42874,1,0,0:0:0:0:
50,83,42974,2,0,P|16:109|3:176,1,85,0|0,0:0|0:0,0:0:0:0:
173,193,43374,1,8,0:0:0:0:
173,193,43474,1,0,0:0:0:0:
173,193,43574,1,0,0:0:0:0:
99,316,43774,6,0,L|208:314,1,85,0|2,0:0|0:0,0:0:0:0:
261,231,44174,1,8,0:0:0:0:
410,322,44374,1,2,0:0:0:0:
415,328,44474,1,0,0:0:0:0:
421,334,44574,2,0,L|312:332,1,85,0|2,0:0|0:0,0:0:0:0:
261,231,44974,2,0,L|271:172,1,42.5,10|0,0:0|0:0,0:0:0:0:
291,74,45174,1,2,0:0:0:0:
336,250,45374,6,0,P|346:294|333:336,1,85,0|0,0:0|0:0,0:0:0:0:
382,176,45774,2,0,P|412:209|422:251,1,85,8|0,0:0|0:0,0:0:0:0:
261,231,46174,1,0,0:0:0:0:
291,74,46374,1,0,0:0:0:0:
382,176,46574,1,8,0:0:0:0:
382,176,46674,1,0,0:0:0:0:
382,176,46774,1,0,0:0:0:0:
261,231,46974,6,8,P|214:236|174:224,1,85,8|0,0:0|0:0,0:0:0:0:
52,247,47374,2,8,L|36:293,2,42.5
72,77,47774,2,0,P|119:78|157:65,1,85,0|8,0:0|0:0,0:0:0:0:
174,57,48074,1,8,0:0:0:0:
194,50,48174,1,8,0:0:0:0:
215,50,48274,1,8,0:0:0:0:
235,55,48374,1,8,0:0:0:0:
382,128,48574,5,2,0:0:0:0:
359,215,48774,1,0,0:0:0:0:
445,238,48974,1,8,0:0:0:0:
468,152,49174,1,2,0:0:0:0:
369,108,49374,5,2,0:0:0:0:
485,139,49574,1,0,0:0:0:0:
454,256,49774,1,8,0:0:0:0:
337,224,49974,1,0,0:0:0:0:
313,138,50174,5,2,0:0:0:0:
227,161,50374,1,0,0:0:0:0:
250,247,50574,1,8,0:0:0:0:
337,224,50774,1,0,0:0:0:0:
321,117,50974,5,2,0:0:0:0:
353,233,51174,1,0,0:0:0:0:
236,265,51374,1,8,0:0:0:0:
205,148,51574,1,0,0:0:0:0:
118,125,51774,5,2,0:0:0:0:
205,148,51974,1,0,0:0:0:0:
228,62,52174,1,8,0:0:0:0:
142,39,52374,1,2,0:0:0:0:
100,140,52574,5,2,0:0:0:0:
132,24,52774,1,0,0:0:0:0:
248,55,52974,1,8,0:0:0:0:
217,172,53174,1,0,0:0:0:0:
304,149,53374,5,2,0:0:0:0:
217,172,53574,1,0,0:0:0:0:
240,258,53774,1,8,0:0:0:0:
326,235,53974,1,0,0:0:0:0:
320,129,54174,5,2,0:0:0:0:
350,245,54374,1,0,0:0:0:0:
234,276,54574,1,8,0:0:0:0:
202,159,54774,1,0,0:0:0:0:
116,181,54974,5,2,0:0:0:0:
139,268,55174,1,0,0:0:0:0:
225,244,55374,1,8,0:0:0:0:
202,159,55574,1,2,0:0:0:0:
242,257,55774,5,2,0:0:0:0:
126,287,55974,1,0,0:0:0:0:
95,171,56174,1,8,0:0:0:0:
212,139,56374,1,0,0:0:0:0:
299,163,56574,5,2,0:0:0:0:
212,139,56774,1,0,0:0:0:0:
189,225,56974,1,8,0:0:0:0:
275,248,57174,1,0,0:0:0:0:
169,234,57374,5,2,0:0:0:0:
201,118,57574,1,0,0:0:0:0:
316,149,57774,1,8,0:0:0:0:
286,267,57974,1,0,0:0:0:0:
192,295,58174,5,2,0:0:0:0:
169,207,58374,1,0,0:0:0:0:
83,230,58574,1,8,0:0:0:0:
106,316,58774,1,2,0:0:0:0:
212,303,58974,5,2,0:0:0:0:
94,336,59174,1,0,0:0:0:0:
65,219,59374,1,8,0:0:0:0:
181,188,59574,1,0,0:0:0:0:
64,220,59774,6,0,P|52:163|57:132,1,63.7500024318696,2|0,0:0|0:0,0:0:0:0:
233,160,60174,2,0,P|255:136|282:119,1,63.7500024318696,10|0,0:0|0:0,0:0:0:0:
140,164,60574,2,0,P|147:132|161:104,1,63.7500024318696,2|0,0:0|0:0,0:0:0:0:
317,255,60974,1,10,0:0:0:0:
321,283,61074,1,2,0:0:0:0:
331,309,61174,1,2,0:0:0:0:
349,330,61274,1,2,0:0:0:0:
372,345,61374,6,0,P|429:360|487:347,1,101.999996887207,6|0,0:0|0:0,0:0:0:0:
375,179,61774,2,0,P|318:164|260:177,1,101.999996887207,8|0,0:0|0:0,0:0:0:0:
479,235,62174,2,0,P|491:158|408:63,1,203.999993774414,0|8,0:0|0:0,0:0:0:0:
224,84,62774,6,0,P|277:86|336:61,1,101.999996887207,2|0,0:0|0:0,0:0:0:0:
142,48,63174,2,0,P|140:101|165:160,1,101.999996887207,2|8,0:0|0:0,0:0:0:0:
83,231,63574,1,0,0:0:0:0:
275,169,63774,2,0,P|292:217|290:268,2,101.999996887207,2|0|10,0:0|0:0|0:0,0:0:0:0:
238,359,64374,6,0,P|345:359|394:275,1,203.999993774414,0|2,0:0|0:0,0:0:0:0:
468,173,64974,1,8,0:0:0:0:
290,267,65174,1,0,0:0:0:0:
501,383,65374,2,0,L|484:249,1,101.999996887207,0|0,0:0|0:0,0:0:0:0:
465,158,65774,1,10,0:0:0:0:
245,56,65974,6,0,L|265:163,1,101.999996887207,2|0,0:0|0:0,0:0:0:0:
290,267,66374,1,0,0:0:0:0:
418,101,66574,1,8,0:0:0:0:
263,156,66774,2,0,P|213:170|151:156,1,101.999996887207,2|0,0:0|0:0,0:0:0:0:
71,125,67174,1,0,0:0:0:0:
316,92,67374,2,0,L|428:101,1,101.999996887207,10|0,0:0|0:0,0:0:0:0:
488,281,67774,5,0,0:0:0:0:
290,267,67974,1,0,0:0:0:0:
417,100,68174,2,0,P|431:155|428:216,1,101.999996887207,8|2,0:0|0:0,0:0:0:0:
234,160,68574,1,0,0:0:0:0:
367,1,68774,1,2,0:0:0:0:
316,207,68974,2,0,P|278:242|230:253,1,101.999996887207,10|0,0:0|0:0,0:0:0:0:
112,99,69374,5,0,0:0:0:0:
306,117,69574,1,0,0:0:0:0:
145,221,69774,2,0,L|-3:213,1,101.999996887207,8|2,0:0|0:0,0:0:0:0:
216,128,70174,1,0,0:0:0:0:
71,2,70374,1,2,0:0:0:0:
265,0,70574,2,0,L|377:5,1,101.999996887207,8|0,0:0|0:0,0:0:0:0:
454,194,70974,5,0,0:0:0:0:
259,175,71174,1,0,0:0:0:0:
366,4,71374,1,10,0:0:0:0:
350,216,71574,1,2,0:0:0:0:
163,135,71774,1,0,0:0:0:0:
130,336,71974,1,2,0:0:0:0:
259,175,72174,1,10,0:0:0:0:
56,232,72374,1,10,0:0:0:0:
56,232,72474,1,10,0:0:0:0:
56,232,72574,5,0,0:0:0:0:
244,334,72774,1,0,0:0:0:0:
163,135,72974,1,10,0:0:0:0:
130,336,73174,1,2,0:0:0:0:
309,218,73374,1,2,0:0:0:0:
459,369,73574,1,2,0:0:0:0:
244,334,73774,1,10,0:0:0:0:
244,334,73874,1,10,0:0:0:0:
244,334,73974,1,10,0:0:0:0:
244,334,74074,1,10,0:0:0:0:
244,334,74174,6,0,P|182:328|135:332,1,101.999996887207,6|0,0:0|0:0,0:0:0:0:
163,135,74574,2,0,P|225:141|272:137,1,101.999996887207,8|0,0:0|0:0,0:0:0:0:
164,242,74974,2,0,P|73:275|61:372,1,203.999993774414,0|8,0:0|0:0,0:0:0:0:
256,277,75574,6,0,P|307:277|357:266,1,101.999996887207
433,210,75974,2,0,P|444:259|444:310,1,101.999996887207,2|8,0:0|0:0,0:0:0:0:
331,167,76374,2,0,P|409:98|506:128,1,203.999993774414,0|2,0:0|0:0,0:0:0:0:
444,310,76974,1,10,0:0:0:0:
256,277,77174,6,0,L|232:171,1,101.999996887207,0|0,0:0|0:0,0:0:0:0:
125,189,77574,1,0,0:0:0:0:
229,369,77774,2,0,P|270:374|340:314,1,101.999996887207,10|0,0:0|0:0,0:0:0:0:
331,167,78174,2,0,L|307:61,2,101.999996887207,0|2|10,0:0|0:0|0:0,0:0:0:0:
196,255,78774,6,0,P|107:282|32:210,1,203.999993774414,2|0,0:0|0:0,0:0:0:0:
99,41,79374,1,8,0:0:0:0:
212,88,79574,2,0,P|272:86|313:63,2,101.999996887207,2|0|0,0:0|0:0|0:0,0:0:0:0:
272,204,80174,2,0,P|285:256|329:294,1,101.999996887207,8|2,0:0|0:0,0:0:0:0:
413,51,80574,5,0,0:0:0:0:
212,88,80774,1,0,0:0:0:0:
404,155,80974,2,0,L|526:144,1,101.999996887207,10|2,0:0|0:0,0:0:0:0:
328,41,81374,1,2,0:0:0:0:
247,228,81574,1,0,0:0:0:0:
110,75,81774,2,0,L|248:92,1,101.999996887207,8|2,0:0|0:0,0:0:0:0:
109,253,82174,5,0,0:0:0:0:
302,259,82374,1,0,0:0:0:0:
211,87,82574,2,0,P|204:143|211:200,1,101.999996887207,8|2,0:0|0:0,0:0:0:0:
374,288,82974,1,0,0:0:0:0:
301,108,83174,1,2,0:0:0:0:
216,282,83374,2,0,P|217:340|238:389,1,101.999996887207,8|2,0:0|0:0,0:0:0:0:
208,188,83774,5,0,0:0:0:0:
95,358,83974,1,0,0:0:0:0:
115,155,84174,1,10,0:0:0:0:
292,264,84374,1,2,0:0:0:0:
88,263,84574,1,2,0:0:0:0:
83,59,84774,1,2,0:0:0:0:
261,158,84974,1,10,0:0:0:0:
88,263,85174,1,2,0:0:0:0:
88,263,85274,1,2,0:0:0:0:
88,263,85374,5,0,0:0:0:0:
191,73,85574,1,0,0:0:0:0:
292,264,85774,1,10,0:0:0:0:
102,164,85974,1,2,0:0:0:0:
315,152,86174,1,2,0:0:0:0:
269,361,86374,1,2,0:0:0:0:
207,155,86574,1,10,0:0:0:0:
377,285,86774,1,2,0:0:0:0:
200,288,86974,6,0,L|78:297,1,101.999996887207,4|2,0:0|0:0,0:0:0:0:
102,164,87374,1,8,0:0:0:0:
305,257,87574,2,0,P|274:364|185:383,1,203.999993774414,4|2,0:0|0:0,0:0:0:0:
102,164,88174,5,8,0:0:0:0:
305,257,88374,1,12,0:0:0:0:
