osu file format v14

[General]
AudioFilename: Bravely You.mp3
AudioLeadIn: 0
PreviewTime: 61060
Countdown: 0
SampleSet: Soft
StackLeniency: 0.7
Mode: 0
LetterboxInBreaks: 0
WidescreenStoryboard: 0

[Editor]
Bookmarks: 23060,26260,29460,32660,35860,39060,42260,45460,48660,87060
DistanceSpacing: 1.5
BeatDivisor: 4
GridSize: 4
TimelineZoom: 1

[Metadata]
Title:Bravely You (TV Size)
TitleUnicode:Bravely You (TV Size)
Artist:Lia
ArtistUnicode:Lia
Creator:Owntrolf
Version:Normal
Source:Charlotte
Tags:シャーロット OP
BeatmapID:738406
BeatmapSetID:333698

[Difficulty]
HPDrainRate:4
CircleSize:3.5
OverallDifficulty:4
ApproachRate:5
SliderMultiplier:1.1
SliderTickRate:1

[Events]
//Background and Video events
0,0,"51012253_p0_master1200.jpg",0,0
Video,5,"video.flv"
//Break Periods
//Storyboard Layer 0 (Background)
//Storyboard Layer 1 (Fail)
//Storyboard Layer 2 (Pass)
//Storyboard Layer 3 (Foreground)
//Storyboard Sound Samples

[TimingPoints]
665,400,4,2,1,40,1,0
7065,-100,4,2,1,50,0,0
48665,-100,4,3,1,30,0,0
61465,-100,4,2,1,60,0,1
87065,-100,4,2,1,50,0,0

[Colours]
Combo1 : 223,132,146
Combo2 : 157,199,249
Combo3 : 216,216,224
Combo4 : 1,21,163

[HitObjects]
152,59,665,6,0,P|175:108|224:128,1,110,4|0,0:0|0:0,0:0:0:0:
308,129,1265,2,0,P|357:149|380:197,1,110,2|0,0:0|3:0,0:0:0:0:
383,281,1865,2,0,P|352:336|297:349,1,110,0|2,3:0|0:0,0:0:0:0:
192,234,2665,5,0,0:0:0:0:
274,234,2865,2,0,P|321:208|340:157,1,110,2|2,0:0|0:0,0:0:0:0:
188,96,3665,1,2,0:0:0:0:
109,120,3865,6,0,L|109:249,1,110,2|0,0:0|0:0,0:0:0:0:
109,312,4465,1,2,0:0:0:0:
211,184,4865,2,0,P|246:201|271:200,1,55,2|2,0:0|3:0,0:0:0:0:
344,204,5265,6,0,P|411:215|472:301,1,165,2|2,0:0|0:0,0:0:0:0:
425,354,6065,2,0,P|357:342|296:256,1,165,0|2,0:0|0:0,0:0:0:0:
299,105,7065,6,0,P|348:132|368:184,1,110,4|2,0:0|3:0,0:0:0:0:
285,188,7665,2,0,P|236:161|215:108,1,110,2|0,0:0|0:0,0:0:0:0:
212,32,8266,1,8,0:0:0:0:
129,32,8465,6,0,L|78:82,1,55,2|0,0:0|0:0,0:0:0:0:
31,129,8865,2,0,L|81:179,1,55,2|8,0:0|0:0,0:0:0:0:
128,226,9265,2,0,L|173:180,1,55,0|0,0:0|0:0,0:0:0:0:
225,129,9665,2,0,L|278:182,2,55,0|8|8,0:0|0:0|0:0,0:0:0:0:
166,70,10265,6,0,L|111:70,1,55,4|0,0:0|0:0,0:0:0:0:
52,128,10665,1,8,0:0:0:0:
111,186,10865,2,0,L|190:186,1,55,2|0,0:0|0:0,0:0:0:0:
224,244,11265,2,0,L|279:244,2,55,2|8|0,0:0|0:0|0:0,0:0:0:0:
165,302,11865,6,0,P|210:346|274:341,2,110,2|8|0,0:0|0:0|0:0,0:0:0:0:
144,220,12865,1,0,0:0:0:0:
176,144,13065,2,0,P|201:135|229:137,1,55,8|8,0:0|0:0,0:0:0:0:
310,150,13465,6,0,P|360:131|382:82,1,110,4|8,0:0|0:0,0:0:0:0:
302,70,14065,2,0,P|250:90|230:142,1,110,2|0,0:0|0:0,0:0:0:0:
230,219,14665,1,8,0:0:0:0:
171,277,14865,6,0,L|90:277,1,55,2|0,0:0|0:0,0:0:0:0:
33,277,15265,2,0,L|33:215,1,55,2|8,0:0|0:0,0:0:0:0:
33,140,15665,2,0,L|96:140,1,55,2|0,0:0|0:0,0:0:0:0:
146,199,16065,1,2,0:0:0:0:
202,142,16265,2,0,P|241:113|313:138,1,110,10|0,0:0|0:0,0:0:0:0:
416,240,17065,5,8,0:0:0:0:
417,158,17265,2,0,P|362:182|334:230,1,110,2|2,0:0|0:0,0:0:0:0:
309,301,17865,2,0,P|278:345|227:365,1,110,8|4,0:0|3:0,0:0:0:0:
110,248,18665,2,0,P|59:268|28:312,2,110,10|2|10,0:0|0:0|0:0,0:0:0:0:
227,365,19865,6,0,P|278:345|309:301,2,110,2|8|0,0:0|0:0|0:0,0:0:0:0:
168,306,20865,2,0,L|168:246,1,55,2|8,0:0|0:0,0:0:0:0:
226,192,21265,6,0,L|226:137,1,55,2|0,0:0|0:0,0:0:0:0:
167,78,21665,2,0,L|167:-1,2,55,2|8|2,0:0|0:0|0:0,0:0:0:0:
108,136,22265,2,0,L|108:268,1,110,0|8,0:0|0:0,0:0:0:0:
226,364,23065,6,0,P|277:347|302:300,1,110,0|8,0:0|0:0,0:0:0:0:
302,217,23665,1,0,0:0:0:0:
302,134,23865,2,0,P|322:91|398:75,1,110,0|8,0:0|0:0,0:0:0:0:
455,217,24665,6,0,L|454:291,2,55,2|2|8,0:0|0:0|0:0,0:0:0:0:
455,134,25265,2,0,P|430:86|378:70,1,110,2|2,0:0|0:0,0:0:0:0:
296,69,25865,1,8,0:0:0:0:
131,69,26265,6,0,P|70:112|70:164,1,110,2|8,0:0|0:0,0:0:0:0:
123,200,26865,1,2,0:0:0:0:
181,258,27065,2,0,P|163:308|115:331,1,110,2|10,0:0|0:0,0:0:0:0:
0,214,27865,6,0,L|0:159,2,55,2|2|10,0:0|0:0|0:0,0:0:0:0:
82,214,28465,2,0,L|82:82,1,110,2|2,0:0|0:0,0:0:0:0:
164,104,29065,1,10,0:0:0:0:
329,104,29465,6,0,L|329:246,1,110,4|8,0:0|0:0,0:0:0:0:
329,296,30065,1,0,0:0:0:0:
246,296,30265,2,0,L|136:296,1,110,0|8,0:0|0:0,0:0:0:0:
136,130,31065,6,0,L|246:130,1,110,2|10,0:0|0:0,0:0:0:0:
328,130,31665,1,0,0:0:0:0:
410,130,31865,2,0,L|411:288,1,110,2|8,0:0|0:0,0:0:0:0:
294,356,32665,6,0,P|243:337|225:287,1,110,4|8,0:0|0:0,0:0:0:0:
233,206,33265,1,2,0:0:0:0:
309,174,33465,2,0,P|341:132|330:80,1,110,2|8,0:0|0:0,0:0:0:0:
167,69,34265,6,0,L|167:136,1,55,2|0,0:0|0:0,0:0:0:0:
167,206,34665,2,0,L|107:206,1,55,8|0,0:0|0:0,0:0:0:0:
29,206,35065,2,0,L|29:151,1,55,2|0,0:0|0:0,0:0:0:0:
29,68,35465,2,0,L|84:68,1,55,8|8,0:0|0:0,0:0:0:0:
167,69,35865,6,0,P|197:144|243:162,1,110,2|8,0:0|0:0,0:0:0:0:
299,178,36465,1,2,0:0:0:0:
375,206,36665,2,0,P|416:240|427:293,1,110,2|8,0:0|0:0,0:0:0:0:
261,293,37465,6,0,L|105:293,1,110,2|8,0:0|0:0,0:0:0:0:
92,234,38065,1,2,0:0:0:0:
151,174,38265,2,0,L|215:174,1,55,2|0,0:0|0:0,0:0:0:0:
263,116,38665,2,0,L|327:116,1,55,8|0,0:0|0:0,0:0:0:0:
376,57,39065,6,0,P|399:106|363:186,1,110,2|8,0:0|0:0,0:0:0:0:
329,217,39665,1,2,0:0:0:0:
270,275,39865,2,0,P|258:327|281:376,1,110,0|8,0:0|0:0,0:0:0:0:
432,312,40665,6,0,L|521:312,2,55,2|2|8,0:0|0:0|0:0,0:0:0:0:
432,229,41265,2,0,P|416:179|344:147,1,110,2|2,0:0|0:0,0:0:0:0:
287,148,41865,2,0,L|287:83,1,55,14|0,0:0|0:0,0:0:0:0:
228,34,42265,6,0,P|154:76|154:140,1,110,2|8,0:0|0:0,0:0:0:0:
196,161,42865,1,0,0:0:0:0:
247,226,43065,2,0,P|218:271|166:286,1,110,0|8,0:0|0:0,0:0:0:0:
67,154,43865,6,0,P|96:109|148:94,1,110,2|8,0:0|0:0,0:0:0:0:
196,161,44465,1,2,0:0:0:0:
247,226,44665,2,0,P|298:211|328:166,1,110,2|8,0:0|0:0,0:0:0:0:
428,32,45465,6,0,L|429:166,1,110,2|8,0:0|0:0,0:0:0:0:
428,225,46065,1,2,0:0:0:0:
428,307,46265,2,0,P|378:326|327:308,1,110,2|8,0:0|0:0,0:0:0:0:
256,158,47065,6,0,P|205:139|154:158,1,110,2|8,0:0|0:0,0:0:0:0:
84,308,47865,2,0,L|123:346,1,55,2|0,0:0|0:0,0:0:0:0:
206,346,48265,2,0,L|246:308,1,55,10|0,0:0|0:0,0:0:0:0:
328,308,48665,6,0,L|438:308,1,110,4|2,0:0|0:0,0:0:0:0:
438,225,49265,1,2,0:2:0:0:
438,142,49465,2,0,L|373:142,1,55,2|2,2:0|2:0,0:0:0:0:
325,200,49865,2,0,L|260:200,1,55,2|0,0:0|0:0,0:0:0:0:
211,258,50265,6,0,P|161:277|110:259,1,110,4|2,0:0|0:0,0:0:0:0:
109,141,51065,2,0,L|164:141,1,55,2|2,2:0|2:0,0:0:0:0:
246,141,51465,2,0,L|284:103,1,55,2|0,0:0|0:0,0:0:0:0:
343,43,51865,5,4,0:0:0:0:
344,48,52265,1,2,0:0:0:0:
344,212,52665,2,0,L|344:266,1,55,2|2,2:0|2:0,0:0:0:0:
285,325,53066,2,0,L|230:325,1,55,2|2,0:0|2:0,0:0:0:0:
147,325,53465,6,0,P|101:311|69:230,1,110,4|2,0:0|0:0,0:0:0:0:
127,202,54065,1,0,0:0:0:0:
185,143,54265,2,0,L|264:143,1,55,2|2,2:0|2:0,0:0:0:0:
298,84,54665,2,0,L|353:84,1,55,2|0,0:0|0:0,0:0:0:0:
411,142,55065,5,4,0:0:0:0:
411,147,55465,1,2,0:0:0:0:
411,312,55865,2,0,L|372:350,1,55,2|0,2:0|0:0,0:0:0:0:
289,350,56265,2,0,L|250:311,1,55,2|2,0:0|2:0,0:0:0:0:
217,234,56665,6,0,P|211:180|239:133,1,110,4|2,0:0|0:0,0:0:0:0:
311,92,57265,2,0,L|366:92,1,55,2|0,2:0|0:0,0:0:0:0:
437,134,57665,2,0,P|464:180|459:234,1,110,2|2,2:0|2:0,0:0:0:0:
404,296,58265,6,0,P|350:305|302:281,1,110,4|2,0:0|0:0,0:0:0:0:
256,124,59065,1,2,2:0:0:0:
256,129,59465,1,2,0:0:0:0:
256,289,59865,6,0,L|201:289,1,55,4|0,0:0|0:0,0:0:0:0:
201,206,60265,2,0,L|256:206,1,55,10|0,0:0|0:0,0:0:0:0:
256,124,60665,2,0,L|201:124,1,55,12|0,0:0|0:0,0:0:0:0:
201,41,61065,2,0,L|256:41,1,55,8|8,0:0|0:0,0:0:0:0:
328,84,61465,6,0,P|350:137|418:141,1,110,4|8,0:0|0:0,0:0:0:0:
455,90,62065,1,2,0:0:0:0:
479,168,62265,2,0,P|460:218|409:233,1,110,2|8,0:0|0:0,0:0:0:0:
326,233,62865,6,0,L|255:233,1,55,2|0,0:0|0:0,0:0:0:0:
212,291,63265,2,0,L|141:291,1,55,2|8,0:0|0:0,0:0:0:0:
98,349,63665,2,0,P|32:328|16:276,1,110,2|0,0:0|0:0,0:0:0:0:
16,129,64465,5,0,0:0:0:0:
148,32,64865,2,0,L|186:70,2,55,0|8|2,0:0|0:0|0:0,0:0:0:0:
100,100,65465,2,0,P|115:151|160:181,1,110,2|8,0:0|0:0,0:0:0:0:
240,196,66065,6,0,P|284:225|300:277,1,110,2|0,0:0|0:0,0:0:0:0:
304,360,66665,1,10,0:0:0:0:
386,360,66865,2,0,L|424:321,1,55,2|0,0:0|0:0,0:0:0:0:
478,263,67265,1,10,0:0:0:0:
478,181,67465,2,0,L|478:120,1,55,10|0,0:0|0:0,0:0:0:0:
393,126,67865,6,0,L|393:199,1,55,2|0,0:0|0:0,0:0:0:0:
393,263,68265,2,0,L|393:341,1,55,8|0,0:0|0:0,0:0:0:0:
310,317,68665,2,0,L|255:317,2,55,2|0|8,0:0|0:0|0:0,0:0:0:0:
310,234,69265,1,8,0:0:0:0:
310,151,69465,6,0,L|231:151,1,55,2|0,0:0|0:0,0:0:0:0:
173,151,69865,2,0,L|94:151,1,55,8|0,0:0|0:0,0:0:0:0:
35,151,70265,2,0,L|35:206,1,55,2|0,0:0|0:0,0:0:0:0:
35,288,70665,1,8,0:0:0:0:
35,293,70865,1,8,0:0:0:0:
117,293,71065,6,0,P|172:272|200:204,2,110,2|8|2,0:0|0:0|0:0,0:0:0:0:
117,127,72265,1,8,0:0:0:0:
117,132,72465,1,8,0:0:0:0:
199,132,72665,6,0,L|254:133,1,55,2|0,0:0|0:0,0:0:0:0:
337,133,73065,2,0,L|337:188,1,55,8|0,0:0|0:0,0:0:0:0:
337,271,73466,2,0,L|283:271,1,55,2|0,0:0|0:0,0:0:0:0:
199,271,73865,1,10,0:0:0:0:
199,276,74065,1,8,0:0:0:0:
140,218,74265,6,0,P|162:168|222:152,1,110,6|8,0:0|0:0,0:0:0:0:
295,150,74865,1,2,0:0:0:0:
295,232,75065,2,0,P|317:281|367:299,1,110,2|10,0:0|0:0,0:0:0:0:
450,298,75665,6,0,P|426:360|365:380,1,110,2|2,0:0|0:0,0:0:0:0:
248,296,76465,2,0,P|272:234|333:214,1,110,2|0,0:0|0:0,0:0:0:0:
384,244,77065,1,8,0:0:0:0:
368,164,77265,6,0,P|306:137|252:160,1,110,2|2,0:0|0:0,0:0:0:0:
201,196,77865,1,8,0:0:0:0:
199,201,78065,1,2,0:0:0:0:
140,259,78265,2,0,L|81:259,1,55,2|0,0:0|0:0,0:0:0:0:
26,200,78665,1,10,0:0:0:0:
84,141,78865,6,0,L|139:141,2,55,2|2|0,0:0|0:0|0:0,0:0:0:0:
25,82,79465,1,10,0:0:0:0:
83,23,79665,2,0,L|138:23,1,55,2|0,0:0|0:0,0:0:0:0:
220,23,80065,1,2,0:0:0:0:
278,81,80265,2,0,L|278:136,1,55,10|0,0:0|0:0,0:0:0:0:
278,218,80665,6,0,L|239:256,1,55,2|0,0:0|0:0,0:0:0:0:
156,256,81065,2,0,L|117:217,1,55,10|0,0:0|0:0,0:0:0:0:
117,134,81465,2,0,P|132:84|208:64,1,110,2|8,0:0|0:0,0:0:0:0:
264,59,82065,1,8,0:0:0:0:
264,141,82265,6,0,L|264:194,1,55,2|0,0:0|0:0,0:0:0:0:
323,253,82665,2,0,L|377:252,1,55,10|0,0:0|0:0,0:0:0:0:
437,195,83065,2,0,L|437:80,1,110,2|8,0:0|0:0,0:0:0:0:
378,26,83665,1,8,0:0:0:0:
323,87,83865,6,0,L|268:87,1,55,2|0,0:0|0:0,0:0:0:0:
268,170,84265,2,0,L|323:170,1,55,10|0,0:0|0:0,0:0:0:0:
323,253,84665,2,0,L|195:253,1,110,2|8,0:0|0:0,0:0:0:0:
154,311,85265,1,8,0:0:0:0:
95,252,85465,6,0,L|143:203,1,55,2|0,0:0|0:0,0:0:0:0:
133,130,85865,2,0,L|84:81,1,55,10|0,0:0|0:0,0:0:0:0:
152,32,86265,2,0,L|234:114,1,110,2|8,0:0|0:0,0:0:0:0:
288,51,86865,1,8,0:0:0:0:
346,109,87065,5,2,0:0:0:0:
346,191,87265,2,0,L|307:230,1,55,2|8,0:0|0:0,0:0:0:0:
224,229,87665,2,0,L|185:267,1,55,2|0,0:0|0:0,0:0:0:0:
102,267,88065,2,0,L|63:306,1,55,2|2,0:0|0:0,0:0:0:0:
2,362,88465,5,6,0:0:0:0:
