osu file format v14

[General]
AudioFilename: Bravely You.mp3
AudioLeadIn: 0
PreviewTime: 61060
Countdown: 0
SampleSet: Soft
StackLeniency: 0.7
Mode: 0
LetterboxInBreaks: 0
WidescreenStoryboard: 0

[Editor]
Bookmarks: 23060,26260,29460,32660,35860,39060,42260,45460,48660,87060
DistanceSpacing: 1.5
BeatDivisor: 4
GridSize: 4
TimelineZoom: 1

[Metadata]
Title:Bravely You (TV Size)
TitleUnicode:Bravely You (TV Size)
Artist:Lia
ArtistUnicode:Lia
Creator:Owntrolf
Version:Hard
Source:Charlotte
Tags:シャーロット OP
BeatmapID:738405
BeatmapSetID:333698

[Difficulty]
HPDrainRate:6
CircleSize:4
OverallDifficulty:6
ApproachRate:8
SliderMultiplier:1.4
SliderTickRate:1

[Events]
//Background and Video events
0,0,"51012253_p0_master1200.jpg",0,0
Video,5,"video.flv"
//Break Periods
//Storyboard Layer 0 (Background)
//Storyboard Layer 1 (Fail)
//Storyboard Layer 2 (Pass)
//Storyboard Layer 3 (Foreground)
//Storyboard Sound Samples

[TimingPoints]
665,400,4,2,1,40,1,0
7065,-100,4,2,1,50,0,0
23065,-100,4,2,1,50,0,0
48665,-100,4,3,1,30,0,0
61465,-100,4,2,1,60,0,1
87065,-100,4,2,1,50,0,0

[Colours]
Combo1 : 223,132,146
Combo2 : 157,199,249
Combo3 : 216,216,224
Combo4 : 1,21,163

[HitObjects]
80,144,665,6,0,P|120:192|188:192,1,105,4|0,0:0|0:0,0:0:0:0:
184,196,1065,1,0,0:0:0:0:
267,65,1265,2,0,P|301:69|329:90,1,70,2|0,0:0|0:0,0:0:0:0:
396,172,1665,1,0,3:0:0:0:
370,274,1865,2,0,P|335:269|307:248,1,70,0|0,3:0|0:0,0:0:0:0:
204,260,2265,6,0,P|200:304|244:340,2,70,2|2|0,0:0|0:0|0:0,0:0:0:0:
304,148,2865,2,0,L|372:200,1,70,2|0,0:0|0:0,0:0:0:0:
208,148,3265,2,0,L|140:200,1,70,2|0,0:0|0:0,0:0:0:0:
256,60,3665,1,2,0:0:0:0:
256,200,3865,6,0,L|256:335,1,105,2|0,0:0|0:0,0:0:0:0:
256,329,4265,1,0,0:0:0:0:
328,216,4465,2,0,L|400:264,1,70,2|0,0:0|0:0,0:0:0:0:
460,180,4865,1,2,0:0:0:0:
385,105,5065,1,2,3:0:0:0:
459,30,5265,2,2,P|492:52|510:98,2,70
280,116,5865,5,2,0:0:0:0:
239,211,6065,1,0,0:0:0:0:
342,199,6265,1,2,0:0:0:0:
176,126,6465,1,0,0:0:0:0:
135,223,6665,1,2,0:0:0:0:
239,211,6865,1,0,0:0:0:0:
78,139,7065,6,0,P|36:193|38:248,1,105,4|0,0:0|0:0,0:0:0:0:
36,252,7465,1,2,3:0:0:0:
135,223,7665,2,0,P|195:191|225:128,1,140,2|0,0:0|0:0,0:0:0:0:
224,24,8265,1,8,0:0:0:0:
300,96,8465,6,0,L|364:71,1,70,2|0,0:0|0:0,0:0:0:0:
212,96,8865,2,0,L|148:71,1,70,2|8,0:0|0:0,0:0:0:0:
173,185,9265,2,0,L|238:210,2,70
56,140,9865,1,8,0:0:0:0:
146,70,10065,1,8,0:0:0:0:
102,195,10265,6,0,P|82:215|38:235,2,70,4|0|8,0:0|0:0|0:0,0:0:0:0:
146,70,10865,2,0,L|218:110,1,70,2|0,0:0|0:0,0:0:0:0:
366,192,11265,2,0,L|294:232,1,70,2|8,0:0|0:0,0:0:0:0:
200,220,11665,1,0,0:0:0:0:
310,120,11865,6,0,P|291:147|301:198,1,70,2|0,0:0|0:0,0:0:0:0:
346,274,12265,1,8,0:0:0:0:
450,275,12465,1,0,0:0:0:0:
485,176,12665,1,0,0:0:0:0:
401,113,12865,1,0,0:0:0:0:
315,173,13065,1,8,0:0:0:0:
346,274,13265,1,8,0:0:0:0:
244,248,13465,6,0,P|180:252|144:216,1,105,4|0,0:0|0:0,0:0:0:0:
144,205,13865,1,8,0:0:0:0:
140,80,14065,2,0,L|71:149,2,70,2|0|0,0:0|0:0|0:0,0:0:0:0:
256,128,14665,1,8,0:0:0:0:
195,251,14865,6,0,L|136:310,1,70,2|0,0:0|0:0,0:0:0:0:
315,251,15265,2,0,L|366:302,1,70,2|8,0:0|0:0,0:0:0:0:
315,131,15665,2,0,L|375:72,1,70,2|0,0:0|0:0,0:0:0:0:
244,28,16065,1,2,0:0:0:0:
117,119,16265,6,0,P|161:169|249:183,2,140,10|0|8,0:0|0:0|0:0,0:0:0:0:
75,236,17265,2,0,L|127:288,1,70,2|0,0:0|0:0,0:0:0:0:
279,235,17665,2,0,L|227:183,1,70,2|8,0:0|0:0,0:0:0:0:
117,119,18065,1,0,0:0:0:0:
24,284,18265,6,0,L|84:228,1,70,4|0,3:0|0:0,0:0:0:0:
149,161,18665,1,10,0:0:0:0:
223,235,18865,1,2,0:0:0:0:
223,340,19065,1,2,0:0:0:0:
328,340,19265,1,2,0:0:0:0:
328,235,19465,1,10,0:0:0:0:
400,160,19665,1,10,0:0:0:0:
484,228,19865,6,0,L|520:132,1,70,2|0,0:0|0:0,0:0:0:0:
460,32,20265,1,8,0:0:0:0:
332,92,20465,2,0,L|300:176,1,70,2|0,0:0|0:0,0:0:0:0:
434,276,20865,2,0,L|484:227,1,70,2|8,0:0|0:0,0:0:0:0:
380,41,21265,6,0,L|332:92,1,70,2|0,0:0|0:0,0:0:0:0:
240,180,21665,1,2,0:0:0:0:
138,105,21865,1,8,0:0:0:0:
36,180,22065,1,2,0:0:0:0:
75,299,22265,1,0,0:0:0:0:
201,299,22465,1,2,0:0:0:0:
240,180,22665,1,8,0:0:0:0:
220,160,22765,1,8,0:0:0:0:
200,140,22865,1,10,0:0:0:0:
36,180,23065,6,0,P|33:211|61:264,1,70
160,300,23465,1,8,0:0:0:0:
257,220,23665,1,0,0:0:0:0:
172,128,23865,2,0,P|160:176|104:216,1,105,0|0,0:0|0:0,0:0:0:0:
96,216,24265,1,8,0:0:0:0:
52,64,24465,1,0,0:0:0:0:
172,128,24665,6,0,P|212:140|264:136,2,70,2|2|8,0:0|0:0|0:0,0:0:0:0:
228,40,25265,2,0,P|262:41|296:52,1,70,2|0,0:0|0:0,0:0:0:0:
356,180,25665,2,0,P|389:190|424:192,1,70,2|8,0:0|0:0,0:0:0:0:
500,92,26065,1,0,0:0:0:0:
376,75,26265,6,0,P|328:78|289:101,2,70,2|0|8,0:0|0:0|0:0,0:0:0:0:
424,192,26865,1,2,0:0:0:0:
368,304,27065,2,0,L|276:304,1,70,2|0,0:0|0:0,0:0:0:0:
186,192,27465,2,0,L|256:192,1,70,10|0,0:0|0:0,0:0:0:0:
368,192,27865,5,2,0:0:0:0:
404,88,28065,1,2,0:0:0:0:
312,24,28265,1,10,0:0:0:0:
216,84,28465,2,0,P|236:116|296:136,1,70,2|0,0:0|0:0,0:0:0:0:
368,192,28865,2,0,P|397:210|415:240,2,70,2|10|0,0:0|0:0|0:0,0:0:0:0:
185,192,29465,6,0,P|140:243|73:253,1,140,4|8,0:0|0:0,0:0:0:0:
86,142,30065,1,0,0:0:0:0:
176,76,30265,2,0,P|243:86|288:137,1,140,0|8,0:0|0:0,0:0:0:0:
284,248,30865,1,0,0:0:0:0:
185,192,31065,6,0,P|167:234|180:284,1,70,2|0,0:0|0:0,0:0:0:0:
264,320,31465,2,0,P|243:346|212:363,1,70,10|0,0:0|0:0,0:0:0:0:
100,356,31865,2,0,P|38:289|45:221,1,140,2|8,0:0|0:0,0:0:0:0:
71,130,32465,1,8,0:0:0:0:
160,208,32665,6,0,P|224:240|308:216,1,140,4|8,0:0|0:0,0:0:0:0:
240,128,33265,1,2,0:0:0:0:
332,301,33465,2,0,L|428:301,1,70,2|0,0:0|0:0,0:0:0:0:
180,301,33865,2,0,L|84:301,1,70,8|0,0:0|0:0,0:0:0:0:
332,192,34265,6,0,L|402:192,1,70,2|0,0:0|0:0,0:0:0:0:
180,192,34665,2,0,L|110:192,1,70,8|0,0:0|0:0,0:0:0:0:
332,83,35065,2,0,L|428:83,1,70,2|0,0:0|0:0,0:0:0:0:
180,83,35465,2,0,L|84:83,1,70,8|8,0:0|0:0,0:0:0:0:
256,88,35865,6,0,L|256:252,1,140,2|8,0:0|0:0,0:0:0:0:
333,309,36465,1,2,0:0:0:0:
224,332,36665,2,0,P|185:315|161:269,1,70,2|0,0:0|0:0,0:0:0:0:
148,184,37065,1,8,0:0:0:0:
228,104,37265,1,2,0:0:0:0:
284,232,37465,6,0,P|347:256|423:226,1,140,2|8,0:0|0:0,0:0:0:0:
472,140,38065,1,2,0:0:0:0:
413,44,38265,2,0,P|347:23|283:48,1,140,2|8,0:0|0:0,0:0:0:0:
244,288,39065,6,0,P|200:341|133:355,1,140,2|8,0:0|0:0,0:0:0:0:
36,300,39665,1,2,0:0:0:0:
80,196,39865,2,0,P|128:232|164:224,1,70
240,188,40265,1,8,0:0:0:0:
152,116,40465,1,0,0:0:0:0:
212,264,40665,6,0,P|244:288|308:300,2,70,2|2|8,0:0|0:0|0:0,0:0:0:0:
212,149,41265,2,0,P|180:125|116:113,1,70,2|0,0:0|0:0,0:0:0:0:
40,123,41665,1,2,0:0:0:0:
100,220,41865,2,0,P|132:244|196:256,1,70,14|0,0:0|0:0,0:0:0:0:
199,64,42265,6,0,P|265:81|296:142,1,140,2|8,0:0|0:0,0:0:0:0:
296,256,42865,1,0,0:0:0:0:
392,196,43065,2,0,L|441:245,1,70,0|0,0:0|0:0,0:0:0:0:
344,306,43465,2,0,L|295:255,1,70,8|0,0:0|0:0,0:0:0:0:
287,115,43865,6,0,P|327:171|391:195,1,140,2|8,0:0|0:0,0:0:0:0:
488,144,44465,1,2,0:0:0:0:
500,256,44665,2,0,P|476:280|409:309,1,70,2|0,0:0|0:0,0:0:0:0:
332,288,45065,2,0,P|302:305|277:330,1,70,8|0,0:0|0:0,0:0:0:0:
180,276,45465,6,0,P|194:231|182:135,1,140,2|8,0:0|0:0,0:0:0:0:
96,68,46065,1,2,0:0:0:0:
8,136,46265,2,0,P|-6:181|6:277,1,140,2|8,0:0|0:0,0:0:0:0:
184,139,47065,6,0,P|240:200|304:192,1,140,2|8,0:0|0:0,0:0:0:0:
356,73,47665,1,2,0:0:0:0:
217,77,47865,2,0,L|173:161,1,70,2|0,0:0|0:0,0:0:0:0:
259,259,48265,2,0,L|292:197,1,70,10|0,0:0|0:0,0:0:0:0:
124,308,48665,6,0,L|60:352,2,70,4|0|2,0:0|0:0|0:0,0:0:0:0:
192,216,49265,1,2,0:2:0:0:
80,204,49465,1,2,2:0:0:0:
124,308,49665,1,2,2:0:0:0:
192,216,49865,2,0,L|248:288,1,70,2|0,0:0|0:0,0:0:0:0:
314,191,50265,6,0,L|271:135,1,70,4|0,0:0|0:0,0:0:0:0:
192,216,50665,1,2,0:0:0:0:
271,295,50865,1,2,2:0:0:0:
380,280,51065,2,0,L|422:224,1,70,2|2,2:0|2:0,0:0:0:0:
396,116,51465,2,0,L|353:60,1,70,2|0,0:0|0:0,0:0:0:0:
260,124,51865,6,0,L|200:164,2,70,4|0|2,0:0|0:0|0:0,0:0:0:0:
353,60,52465,1,0,0:0:0:0:
362,172,52665,1,2,2:0:0:0:
260,124,52865,1,2,2:0:0:0:
180,203,53065,1,2,0:0:0:0:
80,152,53265,1,2,2:0:0:0:
176,93,53465,6,0,P|212:129|260:145,1,70,4|0,0:0|0:0,0:0:0:0:
336,172,53865,2,0,P|365:189|388:216,1,70,2|0,0:0|0:0,0:0:0:0:
356,324,54265,1,2,2:0:0:0:
279,243,54465,1,2,2:0:0:0:
388,216,54665,1,2,0:0:0:0:
316,132,54865,1,0,0:0:0:0:
279,243,55065,6,0,P|236:260|200:256,1,70,4|0,0:0|0:0,0:0:0:0:
112,216,55465,1,2,0:0:0:0:
204,152,55665,1,2,2:0:0:0:
103,103,55865,2,0,P|69:104|37:119,1,70,2|0,2:0|0:0,0:0:0:0:
8,228,56265,1,2,0:0:0:0:
116,196,56465,1,2,2:0:0:0:
92,304,56665,6,0,P|137:314|172:304,1,70,4|0,0:0|0:0,0:0:0:0:
226,218,57065,1,2,0:0:0:0:
116,196,57265,2,0,P|119:161|136:131,1,70,2|0,2:0|0:0,0:0:0:0:
246,153,57665,2,0,P|242:187|225:217,1,70,2|2,2:0|0:0,0:0:0:0:
152,303,58065,1,2,2:0:0:0:
116,196,58265,6,0,P|84:212|56:256,2,70,4|0|2,0:0|0:0|0:0,0:0:0:0:
225,217,58865,1,2,2:0:0:0:
312,148,59065,1,2,2:0:0:0:
208,106,59265,1,2,2:0:0:0:
225,217,59465,1,2,0:0:0:0:
328,260,59665,1,0,0:0:0:0:
420,196,59865,6,0,P|460:224|476:260,1,70,4|0,0:0|0:0,0:0:0:0:
378,305,60265,2,0,P|347:287|327:259,1,70,10|0,0:0|0:0,0:0:0:0:
312,148,60665,2,0,P|291:119|261:102,1,70,12|0,0:0|0:0,0:0:0:0:
148,112,61065,1,8,0:0:0:0:
240,176,61265,1,8,0:0:0:0:
68,188,61465,6,0,P|76:240|100:272,2,70,4|0|8,0:0|0:0|0:0,0:0:0:0:
148,112,62065,1,2,0:0:0:0:
240,176,62265,2,0,P|292:183|329:169,1,70,2|0,0:0|0:0,0:0:0:0:
380,92,62665,1,8,0:0:0:0:
227,107,62865,6,0,L|244:204,1,70,2|0,0:0|0:0,0:0:0:0:
142,235,63265,2,0,L|91:186,1,70,2|8,0:0|0:0,0:0:0:0:
14,305,63665,2,0,L|80:326,2,70,2|0|0,0:0|0:0|0:0,0:0:0:0:
14,193,64265,1,8,0:0:0:0:
104,128,64465,1,0,0:0:0:0:
80,326,64665,6,0,P|100:344|168:352,1,70,4|0,0:0|0:0,0:0:0:0:
240,304,65065,1,8,0:0:0:0:
148,240,65265,1,2,0:0:0:0:
248,192,65465,2,0,P|284:212|340:220,1,70,2|0,0:0|0:0,0:0:0:0:
424,200,65865,1,8,0:0:0:0:
384,312,66065,6,0,P|360:340|300:356,2,70,2|2|0,0:0|0:0|0:0,0:0:0:0:
352,116,66665,1,10,0:0:0:0:
352,115,66865,2,0,L|300:163,1,70,2|0,0:0|0:0,0:0:0:0:
256,45,67265,1,10,0:0:0:0:
214,164,67465,2,0,P|224:208|247:231,1,70,10|0,0:0|0:0,0:0:0:0:
365,181,67865,6,0,P|365:135|331:101,1,70,2|0,0:0|0:0,0:0:0:0:
160,231,68265,2,0,P|157:266|173:297,1,70,8|0,0:0|0:0,0:0:0:0:
377,246,68665,2,0,P|377:200|343:166,1,70,2|0,0:0|0:0,0:0:0:0:
288,100,69065,1,8,0:0:0:0:
178,121,69265,1,8,0:0:0:0:
160,231,69465,6,0,P|192:263|240:263,1,70,2|0,0:0|0:0,0:0:0:0:
342,137,69865,2,0,P|309:104|261:104,1,70,8|0,0:0|0:0,0:0:0:0:
214,268,70265,2,0,P|246:300|294:300,1,70,2|0,0:0|0:0,0:0:0:0:
380,304,70665,1,8,0:0:0:0:
432,204,70865,1,8,0:0:0:0:
342,137,71065,6,0,P|311:121|276:124,1,70,2|0,0:0|0:0,0:0:0:0:
214,268,71465,2,0,P|244:283|279:280,1,70,8|0,0:0|0:0,0:0:0:0:
276,124,71865,2,0,P|241:120|210:136,1,70,2|0,0:0|0:0,0:0:0:0:
121,204,72265,1,8,0:0:0:0:
214,268,72465,1,8,0:0:0:0:
292,188,72665,6,0,P|293:153|276:123,1,70,2|0,0:0|0:0,0:0:0:0:
105,139,73065,2,0,P|103:173|120:203,1,70,8|0,0:0|0:0,0:0:0:0:
307,252,73465,2,0,P|308:217|291:187,1,70,2|0,0:0|0:0,0:0:0:0:
212,108,73865,1,10,0:0:0:0:
105,139,74065,1,8,0:0:0:0:
68,300,74265,6,0,P|89:336|129:360,2,70,6|2|8,0:0|0:0|0:0,0:0:0:0:
60,188,74865,1,2,0:0:0:0:
152,252,75065,2,0,P|175:267|237:272,1,70,2|0,0:0|0:0,0:0:0:0:
297,199,75465,1,10,0:0:0:0:
200,144,75665,6,0,P|176:116|172:76,1,70,2|0,0:0|0:0,0:0:0:0:
280,56,76065,1,2,0:0:0:0:
310,164,76265,1,10,0:0:0:0:
200,144,76465,1,2,0:0:0:0:
240,248,76665,2,0,P|280:300|368:308,1,140,2|8,0:0|0:0,0:0:0:0:
408,216,77265,1,2,0:0:0:0:
294,88,77465,6,0,P|262:104|234:148,2,70,2|2|8,0:0|0:0|0:0,0:0:0:0:
400,120,78065,1,2,0:0:0:0:
320,200,78265,2,0,P|297:226|266:242,1,70,2|0,0:0|0:0,0:0:0:0:
160,208,78665,1,10,0:0:0:0:
176,48,78865,6,0,P|208:64|236:108,2,70,2|2|0,0:0|0:0|0:0,0:0:0:0:
90,121,79465,1,10,0:0:0:0:
160,208,79665,2,0,L|252:244,1,70,2|0,0:0|0:0,0:0:0:0:
256,117,80065,1,2,0:0:0:0:
352,272,80265,2,0,L|260:308,1,70,10|0,0:0|0:0,0:0:0:0:
186,117,80665,6,0,L|278:117,1,70,2|0,0:0|0:0,0:0:0:0:
326,267,81065,2,0,L|234:267,1,70,10|0,0:0|0:0,0:0:0:0:
186,117,81465,2,0,L|186:187,1,70,2|0,0:0|0:0,0:0:0:0:
298,187,81865,1,8,0:0:0:0:
298,75,82065,1,8,0:0:0:0:
392,136,82265,6,0,L|484:136,1,70,2|0,0:0|0:0,0:0:0:0:
504,280,82665,2,0,L|408:280,1,70,10|0,0:0|0:0,0:0:0:0:
392,136,83065,2,0,L|392:38,1,70,2|0,0:0|0:0,0:0:0:0:
280,66,83465,1,8,0:0:0:0:
280,178,83665,1,8,0:0:0:0:
152,204,83865,6,0,L|68:144,1,70,2|0,0:0|0:0,0:0:0:0:
288,108,84265,2,0,L|372:168,1,70,10|0,0:0|0:0,0:0:0:0:
208,244,84665,2,0,L|152:204,1,70,2|0,0:0|0:0,0:0:0:0:
176,94,85065,1,8,0:0:0:0:
288,108,85265,1,8,0:0:0:0:
328,264,85465,6,0,L|244:324,1,70,2|0,0:0|0:0,0:0:0:0:
152,204,85865,2,0,L|236:144,1,70,10|0,0:0|0:0,0:0:0:0:
271,304,86265,2,0,L|187:364,1,70,2|0,0:0|0:0,0:0:0:0:
101,344,86665,1,8,0:0:0:0:
101,231,86865,1,8,0:0:0:0:
213,231,87065,5,2,0:0:0:0:
292,310,87265,2,0,L|380:342,1,70,2|8,0:0|0:0,0:0:0:0:
357,221,87665,2,0,L|423:244,1,70,2|0,0:0|0:0,0:0:0:0:
423,130,88065,1,2,0:0:0:0:
328,64,88265,1,2,0:0:0:0:
268,160,88465,5,6,0:0:0:0:
