osu file format v14

[General]
AudioFilename: bravely you.mp3
AudioLeadIn: 500
PreviewTime: 60975
Countdown: 0
SampleSet: Soft
StackLeniency: 0.7
Mode: 0
LetterboxInBreaks: 0
WidescreenStoryboard: 1

[Editor]
DistanceSpacing: 1
BeatDivisor: 4
GridSize: 4
TimelineZoom: 1

[Metadata]
Title:Bravely You (TV Size)
TitleUnicode:Bravely You (TV Size)
Artist:Lia
ArtistUnicode:Lia
Creator:Enon
Version:Insane
Source:Charlotte
Tags:bbj0920 Startrick -Tochi op シャーロット Opening 麻枝准
BeatmapID:748438
BeatmapSetID:338293

[Difficulty]
HPDrainRate:6
CircleSize:4
OverallDifficulty:7
ApproachRate:8.5
SliderMultiplier:1.8
SliderTickRate:1

[Events]
//Background and Video events
0,0,"bg.png",0,0
Video,-369,"bga.avi"
//Break Periods
//Storyboard Layer 0 (Background)
//Storyboard Layer 1 (Fail)
//Storyboard Layer 2 (Pass)
//Storyboard Layer 3 (Foreground)
//Storyboard Sound Samples

[TimingPoints]
375,400,4,2,1,50,1,0
47775,-100,4,2,1,40,0,0
48375,-100,4,3,1,30,0,0
61175,-83.3333333333333,4,2,1,60,0,1
73175,-83.3333333333333,4,2,1,60,0,0
73375,-83.3333333333333,4,2,1,20,0,0
73575,-83.3333333333333,4,2,1,40,0,0
73775,-83.3333333333333,4,2,1,60,0,1
86775,-100,4,2,1,50,0,0

[Colours]
Combo1 : 255,255,100
Combo2 : 200,200,255
Combo3 : 50,150,255
Combo4 : 255,100,200

[HitObjects]
64,336,375,6,0,P|88:264|144:224,1,135,6|0,0:0|0:0,0:0:0:0:
176,224,775,2,0,P|168:160|168:104,1,90,8|0,0:0|0:0,0:0:0:0:
96,80,1175,1,2,0:0:0:0:
40,148,1375,1,0,0:0:0:0:
176,224,1575,2,0,P|220:221|265:215,1,90,8|0,0:0|0:0,0:0:0:0:
421,164,1975,6,0,P|376:158|332:156,1,90,2|2,0:0|0:0,0:0:0:0:
256,108,2375,1,10,0:0:0:0:
368,235,2575,2,0,P|404:199|424:155,2,90,2|0|2,0:0|0:0|0:0,0:0:0:0:
316,308,3175,2,0,P|265:299|218:308,1,90,8|2,0:0|0:0,0:0:0:0:
4,224,3575,6,0,P|90:248|176:224,1,180,6|8,0:0|0:0,0:0:0:0:
256,108,4175,2,0,P|170:84|84:108,1,180,2|2,0:0|0:0,0:0:0:0:
4,224,4775,2,0,L|16:328,1,90,10|0,0:0|0:0,0:0:0:0:
256,192,5175,12,0,6575,0:0:0:0:
124,344,6775,6,0,P|192:344|256:240,1,180,6|8,0:0|0:0,0:0:0:0:
228,176,7375,1,0,0:0:0:0:
148,136,7575,2,0,P|140:180|160:232,1,90,2|0,0:0|0:0,0:0:0:0:
304,132,7975,2,0,L|312:36,1,90,8|0,0:0|0:0,0:0:0:0:
399,22,8375,5,2,0:0:0:0:
444,96,8575,1,0,0:0:0:0:
387,166,8775,1,8,0:0:0:0:
304,132,8975,1,0,0:0:0:0:
444,96,9175,5,2,0:0:0:0:
501,166,9375,1,0,0:0:0:0:
448,240,9575,2,0,P|392:260|328:248,1,90,8|0,0:0|0:0,0:0:0:0:
280,224,9975,6,0,P|238:206|194:205,2,90,2|0|8,0:0|0:0|0:0,0:0:0:0:
362,258,10575,2,0,P|352:192|372:80,1,180,2|0,0:0|0:0,0:0:0:0:
436,16,11175,1,8,0:0:0:0:
492,85,11375,2,0,P|436:105|346:15,1,180,2|0,0:0|0:0,0:0:0:0:
216,10,11975,5,8,0:0:0:0:
179,10,12075,1,0,0:0:0:0:
148,27,12175,1,0,0:0:0:0:
128,56,12275,1,0,0:0:0:0:
124,91,12375,1,2,0:0:0:0:
137,125,12475,1,0,0:0:0:0:
157,155,12575,1,0,0:0:0:0:
169,188,12675,1,0,0:0:0:0:
165,223,12775,1,8,0:0:0:0:
146,252,12875,1,0,0:0:0:0:
114,270,12975,1,0,0:0:0:0:
78,270,13075,1,0,0:0:0:0:
43,260,13175,6,0,P|121:298|152:383,1,180,6|8,0:0|0:0,0:0:0:0:
249,335,13775,2,0,P|214:255|244:172,1,180,2|0,0:0|0:0,0:0:0:0:
315,117,14375,2,0,P|334:161|326:209,1,90,8|0,0:0|0:0,0:0:0:0:
249,335,14775,6,0,P|271:296|310:274,1,90,2|0,0:0|0:0,0:0:0:0:
396,329,15175,1,8,0:0:0:0:
324,383,15375,1,0,0:0:0:0:
249,335,15575,1,2,0:0:0:0:
272,248,15775,1,0,0:0:0:0:
361,245,15975,2,0,P|427:244|488:320,1,135,8|0,0:0|0:0,0:0:0:0:
500,326,16375,6,0,P|424:374|319:345,1,180,6|8,0:0|0:0,0:0:0:0:
257,322,16975,1,0,0:0:0:0:
172,292,17175,2,0,P|85:277|11:325,1,180,2|8,0:0|0:0,0:0:0:0:
257,322,17975,2,0,P|257:262|210:209,1,90,2|0,0:0|0:0,0:0:0:0:
298,149,18375,5,8,0:0:0:0:
322,122,18475,1,0,0:0:0:0:
356,112,18575,1,0,0:0:0:0:
390,120,18675,1,0,0:0:0:0:
416,145,18775,1,2,0:0:0:0:
426,179,18875,1,0,0:0:0:0:
417,214,18975,1,0,0:0:0:0:
402,245,19075,1,0,0:0:0:0:
393,279,19175,1,8,0:0:0:0:
403,313,19275,1,0,0:0:0:0:
428,338,19375,1,0,0:0:0:0:
463,346,19475,1,0,0:0:0:0:
497,336,19575,6,0,B|366:365|334:285|194:337,1,270,6|0,0:0|0:0,0:0:0:0:
142,358,20375,2,0,P|126:298|126:246,1,90,2|0,0:0|0:0,0:0:0:0:
172,200,20775,1,8,0:0:0:0:
256,232,20975,1,0,0:0:0:0:
340,200,21175,6,0,P|348:124|344:104,1,90,2|0,0:0|0:0,0:0:0:0:
166,111,21575,2,0,P|162:156|172:200,1,90,8|0,0:0|0:0,0:0:0:0:
256,232,21975,2,0,P|259:276|250:320,1,90,2|0,0:0|0:0,0:0:0:0:
177,375,22375,1,8,0:0:0:0:
141,376,22475,1,0,0:0:0:0:
106,378,22575,1,0,0:0:0:0:
40,300,22775,6,0,B|12:204|72:204|32:96,1,180,6|8,0:0|0:0,0:0:0:0:
4,40,23375,1,0,0:0:0:0:
92,56,23575,2,0,P|140:64|200:56,1,90,2|0,0:0|0:0,0:0:0:0:
308,135,23975,2,0,P|264:132|220:140,1,90,8|0,0:0|0:0,0:0:0:0:
144,188,24375,5,2,0:0:0:0:
168,276,24575,1,0,0:0:0:0:
248,236,24775,1,8,0:0:0:0:
272,324,24975,1,0,0:0:0:0:
352,280,25175,1,2,0:0:0:0:
376,368,25375,1,0,0:0:0:0:
376,368,25475,1,0,0:0:0:0:
375,368,25575,2,0,P|428:327|436:256,1,135,8|0,0:0|0:0,0:0:0:0:
432,216,25975,6,0,P|376:224|311:120,1,180,6|8,0:0|0:0,0:0:0:0:
364,64,26575,1,0,0:0:0:0:
424,130,26775,2,0,P|440:178|428:222,1,90,2|0,0:0|0:0,0:0:0:0:
272,324,27175,2,0,P|256:282|264:238,1,90,8|0,0:0|0:0,0:0:0:0:
344,192,27575,5,2,0:0:0:0:
431,215,27775,1,0,0:0:0:0:
272,324,27975,1,8,0:0:0:0:
184,300,28175,2,0,P|193:213|254:148,1,180,2|0,0:0|0:0,0:0:0:0:
431,215,28775,2,0,P|376:204|332:187,1,90,8|0,0:0|0:0,0:0:0:0:
254,148,29175,6,0,P|341:113|434:97,1,180,6|8,0:0|0:0,0:0:0:0:
496,152,29775,1,0,0:0:0:0:
431,215,29975,2,0,P|408:264|408:312,1,90,2|0,0:0|0:0,0:0:0:0:
496,152,30375,2,0,P|496:97|475:54,1,90,8|0,0:0|0:0,0:0:0:0:
254,148,30775,6,0,P|223:232|227:321,1,180,2|8,0:0|0:0,0:0:0:0:
304,368,31375,1,0,0:0:0:0:
308,280,31575,2,0,P|268:244|144:284,1,180,2|8,0:0|0:0,0:0:0:0:
92,336,32175,1,0,0:0:0:0:
32,268,32375,6,0,P|16:208|16:172,1,90,2|0,0:0|0:0,0:0:0:0:
237,60,32775,2,0,P|253:120|253:156,1,90,8|0,0:0|0:0,0:0:0:0:
126,168,33175,2,0,P|142:100|240:60,1,180,2|8,0:0|0:0,0:0:0:0:
324,80,33775,1,0,0:0:0:0:
412,104,33975,6,0,P|436:60|440:16,1,90,2|0,0:0|0:0,0:0:0:0:
434,209,34375,2,0,P|479:187|507:153,1,90,8|0,0:0|0:0,0:0:0:0:
391,307,34775,2,0,P|434:316|478:305,1,90,2|0,0:0|0:0,0:0:0:0:
280,248,35175,2,0,P|235:240|192:249,1,90,8|0,0:0|0:0,0:0:0:0:
136,320,35575,6,0,P|64:296|24:192,1,180,6|8,0:0|0:0,0:0:0:0:
40,120,36175,1,0,0:0:0:0:
120,74,36375,2,0,P|132:118|120:166,1,90,2|0,0:0|0:0,0:0:0:0:
227,259,36775,2,0,P|215:215|227:167,1,90,8|0,0:0|0:0,0:0:0:0:
460,295,37175,6,0,P|380:334|292:324,1,180,2|8,0:0|0:0,0:0:0:0:
227,259,37775,1,0,0:0:0:0:
160,200,37975,2,0,P|115:194|75:214,1,90,2|0,0:0|0:0,0:0:0:0:
244,168,38375,2,0,P|288:173|328:153,1,90,8|0,0:0|0:0,0:0:0:0:
294,56,38775,6,0,L|116:80,1,180,6|8,0:0|0:0,0:0:0:0:
44,132,39375,1,0,0:0:0:0:
75,214,39575,2,0,P|82:258|73:301,1,90,2|0,0:0|0:0,0:0:0:0:
160,200,39975,2,0,P|152:155|161:112,1,90,8|0,0:0|0:0,0:0:0:0:
352,184,40375,6,0,P|344:232|315:268,1,90,2|0,0:0|0:0,0:0:0:0:
256,192,40775,1,8,0:0:0:0:
256,104,40975,2,0,L|256:-20,1,90,0|2,0:0|0:0,0:0:0:0:
400,108,41375,1,0,0:0:0:0:
352,184,41575,2,0,P|368:236|432:288,1,135,8|0,0:0|0:0,0:0:0:0:
468,304,41975,6,0,P|404:296|304:352,1,180,6|8,0:0|0:0,0:0:0:0:
256,276,42575,1,0,0:0:0:0:
206,349,42775,2,0,P|132:300|44:304,1,180,2|8,0:0|0:0,0:0:0:0:
140,152,43575,6,0,P|164:196|172:244,1,90,2|0,0:0|0:0,0:0:0:0:
340,234,43975,2,0,P|349:190|372:152,1,90,8|0,0:0|0:0,0:0:0:0:
345,64,44375,2,0,B|256:81|256:81|166:64,1,180,2|8,0:0|0:0,0:0:0:0:
38,191,45175,6,0,B|108:164|140:244|212:216,1,180,6|8,0:0|0:0,0:0:0:0:
256,140,45775,1,0,0:0:0:0:
187,84,45975,2,0,P|235:226|328:193,1,270,2|0,0:0|0:0,0:0:0:0:
344,115,46775,5,0,0:0:0:0:
280,53,46975,1,0,0:0:0:0:
256,140,47175,1,8,0:0:0:0:
256,140,47275,1,0,0:0:0:0:
256,140,47375,1,0,0:0:0:0:
187,84,47575,1,2,0:0:0:0:
118,28,47775,5,0,0:0:0:0:
83,37,47875,1,0,0:0:0:0:
54,57,47975,1,8,0:0:0:0:
33,87,48075,1,0,0:0:0:0:
24,121,48175,1,0,0:0:0:0:
27,157,48275,1,0,0:0:0:0:
40,188,48375,5,6,0:0:0:0:
128,180,48575,1,0,0:0:0:0:
212,216,48775,1,0,0:0:0:0:
300,208,48975,1,0,0:0:0:0:
80,164,49175,5,2,0:0:0:0:
256,204,49375,1,0,0:0:0:0:
40,188,49575,1,0,0:0:0:0:
297,178,49775,1,0,0:0:0:0:
268,92,49975,5,6,0:0:0:0:
256,204,50175,1,0,0:0:0:0:
234,68,50375,1,0,0:0:0:0:
289,227,50575,1,0,0:0:0:0:
215,178,50775,5,2,0:0:0:0:
284,316,50975,1,0,0:0:0:0:
380,192,51175,1,0,0:0:0:0:
215,178,51375,1,0,0:0:0:0:
304,136,51575,5,6,0:0:0:0:
200,276,51775,1,0,0:0:0:0:
384,284,51975,1,0,0:0:0:0:
296,232,52175,1,0,0:0:0:0:
216,352,52375,5,2,0:0:0:0:
360,360,52575,1,0,0:0:0:0:
296,232,52775,1,0,0:0:0:0:
216,352,52975,1,0,0:0:0:0:
116,248,53175,5,6,0:0:0:0:
296,232,53375,1,0,0:0:0:0:
200,192,53575,1,0,0:0:0:0:
380,176,53775,1,0,0:0:0:0:
288,144,53975,5,2,0:0:0:0:
220,272,54175,1,0,0:0:0:0:
376,256,54375,1,0,0:0:0:0:
288,144,54575,1,0,0:0:0:0:
200,96,54775,5,6,0:0:0:0:
288,48,54975,1,0,0:0:0:0:
372,100,55175,1,0,0:0:0:0:
460,52,55375,1,0,0:0:0:0:
288,48,55575,5,2,0:0:0:0:
460,52,55775,1,0,0:0:0:0:
200,96,55975,1,0,0:0:0:0:
372,100,56175,1,0,0:0:0:0:
284,152,56375,5,6,0:0:0:0:
372,100,56575,1,0,0:0:0:0:
428,180,56775,1,0,0:0:0:0:
340,232,56975,1,0,0:0:0:0:
284,152,57175,5,2,0:0:0:0:
428,180,57375,1,0,0:0:0:0:
400,320,57575,1,0,0:0:0:0:
256,292,57775,1,0,0:0:0:0:
340,232,57975,5,6,0:0:0:0:
284,152,58175,1,0,0:0:0:0:
372,100,58375,1,0,0:0:0:0:
428,180,58575,1,0,0:0:0:0:
400,320,58775,5,2,0:0:0:0:
256,292,58975,1,0,0:0:0:0:
428,180,59175,1,0,0:0:0:0:
284,152,59375,1,0,0:0:0:0:
380,162,59575,6,0,L|469:156,1,90,6|0,0:0|0:0,0:0:0:0:
332,240,59975,2,0,L|421:234,1,90,4|0,0:0|0:0,0:0:0:0:
284,318,60375,2,0,L|374:313,1,90,4|0,0:0|0:0,0:0:0:0:
177,122,60775,1,4,0:0:0:0:
68,108,60975,5,0,1:0:0:0:
68,108,61075,1,0,1:0:0:0:
68,108,61175,2,0,P|95:50|168:14,1,107.999996704102,6|0,0:0|0:0,0:0:0:0:
281,121,61575,2,0,P|228:134|176:121,1,107.999996704102,8|0,0:0|0:0,0:0:0:0:
348,36,61975,2,0,P|400:23|452:35,1,107.999996704102,2|0,0:0|0:0,0:0:0:0:
512,108,62375,1,8,0:0:0:0:
428,274,62575,5,0,0:0:0:0:
428,274,62675,1,0,0:0:0:0:
428,274,62775,2,0,P|364:282|308:274,1,107.999996704102,2|0,0:0|0:0,0:0:0:0:
174,125,63175,2,0,P|238:117|294:125,1,107.999996704102,8|0,0:0|0:0,0:0:0:0:
321,277,63575,1,2,0:0:0:0:
228,330,63775,2,0,P|164:338|108:330,1,107.999996704102,0|8,0:0|0:0,0:0:0:0:
52,184,64175,6,0,B|4:84|64:20|64:20|92:80,1,215.999993408203,4|0,0:0|0:0,0:0:0:0:
137,251,64775,2,0,P|145:315|137:371,1,107.999996704102,8|0,0:0|0:0,0:0:0:0:
52,182,65175,2,0,P|147:139|236:200,1,215.999993408203,2|8,0:0|0:0,0:0:0:0:
437,328,65775,6,0,P|342:371|253:310,1,215.999993408203,2|0,0:0|0:0,0:0:0:0:
137,251,66375,1,8,0:0:0:0:
256,192,66575,1,0,0:0:0:0:
375,251,66775,1,2,0:0:0:0:
256,316,66975,1,0,0:0:0:0:
137,251,67175,2,0,P|125:199|137:143,1,107.999996704102,8|0,0:0|0:0,0:0:0:0:
375,251,67575,6,0,P|350:305|226:286,1,161.999995056153,6|0,0:0|0:0,0:0:0:0:
256,316,67975,1,8,0:0:0:0:
206,213,68175,1,0,0:0:0:0:
168,314,68375,1,2,0:0:0:0:
244,112,68575,1,0,0:0:0:0:
307,251,68775,1,8,0:0:0:0:
105,175,68975,1,0,0:0:0:0:
256,316,69175,6,0,P|309:332|372:306,1,107.999996704102,6|0,0:0|0:0,0:0:0:0:
307,251,69575,1,8,0:0:0:0:
406,382,69775,1,0,0:0:0:0:
309,149,69975,2,0,P|293:202|319:265,1,107.999996704102,2|0,0:0|0:0,0:0:0:0:
460,194,70375,2,0,P|474:142|458:92,1,107.999996704102,8|0,0:0|0:0,0:0:0:0:
285,64,70775,6,0,P|266:114|264:168,1,107.999996704102,6|0,0:0|0:0,0:0:0:0:
156,172,71175,2,0,P|182:218|222:254,1,107.999996704102,8|0,0:0|0:0,0:0:0:0:
176,352,71575,2,0,P|228:361|282:354,1,107.999996704102,2|0,0:0|0:0,0:0:0:0:
388,330,71975,1,8,0:0:0:0:
304,260,72175,1,0,0:0:0:0:
176,352,72375,6,0,P|123:338|78:309,1,107.999996704102,6|0,0:0|0:0,0:0:0:0:
12,224,72775,1,8,0:0:0:0:
92,152,72975,1,0,0:0:0:0:
200,172,73175,1,2,0:0:0:0:
304,188,73375,1,0,1:0:0:0:
289,228,73475,1,0,1:0:0:0:
253,249,73575,1,0,1:0:0:0:
211,242,73675,1,0,1:0:0:0:
184,210,73775,6,0,B|280:176|304:248|408:208,1,215.999993408203,6|0,0:0|0:0,0:0:0:0:
488,64,74375,2,0,P|440:40|384:40,1,107.999996704102,8|0,0:0|0:0,0:0:0:0:
328,172,74775,2,0,B|352:328|352:328|397:363,1,215.999993408203,2|8,0:0|0:0,0:0:0:0:
468,284,75375,6,0,P|403:258|292:342,1,215.999993408203,2|0,0:0|0:0,0:0:0:0:
192,372,75975,2,0,B|132:372|132:372|86:347,1,107.999996704102,8|0,0:0|0:0,0:0:0:0:
13,260,76375,1,2,0:0:0:0:
236,236,76575,1,0,0:0:0:0:
40,148,76775,1,8,0:0:0:0:
192,308,76975,6,0,P|296:292|304:193,1,215.999993408203,6|0,0:0|0:0,0:0:0:0:
208,148,77575,2,0,L|100:144,1,107.999996704102,8|0,0:0|0:0,0:0:0:0:
296,84,77975,2,0,L|408:80,1,107.999996704102,2|0,0:0|0:0,0:0:0:0:
500,132,78375,1,8,0:0:0:0:
406,289,78575,2,0,P|381:184|404:79,1,215.999993408203,2|0,0:0|0:0,0:0:0:0:
308,336,79175,6,0,P|254:357|199:353,1,107.999996704102,8|0,0:0|0:0,0:0:0:0:
100,324,79575,1,2,0:0:0:0:
40,232,79775,1,0,0:0:0:0:
160,232,79975,1,8,0:0:0:0:
100,324,80175,1,0,0:0:0:0:
40,124,80375,6,0,P|136:64|247:142,1,215.999993408203,6|8,0:0|0:0,0:0:0:0:
316,180,80975,1,0,0:0:0:0:
130,280,81175,2,0,P|123:227|140:176,1,107.999996704102,2|0,0:0|0:0,0:0:0:0:
325,75,81575,2,0,P|332:128|316:180,1,107.999996704102,8|0,0:0|0:0,0:0:0:0:
189,334,81975,6,0,P|287:371|387:335,1,215.999993408203,6|8,0:0|0:0,0:0:0:0:
456,228,82575,1,0,0:0:0:0:
315,179,82775,2,0,P|308:125|325:74,1,107.999996704102,2|0,0:0|0:0,0:0:0:0:
456,228,83175,2,0,P|463:281|446:332,1,107.999996704102,8|0,0:0|0:0,0:0:0:0:
316,352,83575,5,6,0:0:0:0:
352,252,83775,1,0,0:0:0:0:
244,264,83975,1,4,0:0:0:0:
280,164,84175,1,0,0:0:0:0:
172,176,84375,1,6,0:0:0:0:
208,76,84575,1,0,0:0:0:0:
280,164,84775,1,12,0:0:0:0:
172,176,84975,1,0,0:0:0:0:
64,184,85175,6,0,P|192:323|272:148,1,431.999986816407,6|2,0:0|0:0,0:0:0:0:
208,76,86175,1,0,0:0:0:0:
172,176,86375,1,8,0:0:0:0:
280,164,86575,1,0,0:0:0:0:
388,148,86775,1,6,0:0:0:0:
256,192,86875,12,4,88175,0:0:0:0:
