osu file format v14

[General]
AudioFilename: bravely you.mp3
AudioLeadIn: 500
PreviewTime: 60975
Countdown: 0
SampleSet: Soft
StackLeniency: 0.7
Mode: 0
LetterboxInBreaks: 0
WidescreenStoryboard: 1

[Editor]
DistanceSpacing: 1
BeatDivisor: 4
GridSize: 16
TimelineZoom: 1

[Metadata]
Title:Bravely You (TV Size)
TitleUnicode:Bravely You (TV Size)
Artist:Lia
ArtistUnicode:Lia
Creator:Enon
Version:Easy
Source:Charlotte
Tags:bbj0920 Startrick -Tochi op シャーロット Opening 麻枝准
BeatmapID:753444
BeatmapSetID:338293

[Difficulty]
HPDrainRate:2
CircleSize:3
OverallDifficulty:2
ApproachRate:3
SliderMultiplier:0.999999999999999
SliderTickRate:1

[Events]
//Background and Video events
0,0,"bg.png",0,0
Video,-369,"bga.avi"
//Break Periods
//Storyboard Layer 0 (Background)
//Storyboard Layer 1 (Fail)
//Storyboard Layer 2 (Pass)
//Storyboard Layer 3 (Foreground)
//Storyboard Sound Samples

[TimingPoints]
375,400,4,2,1,50,1,0
48375,-100,4,3,1,25,0,0
61175,-100,4,2,1,60,0,1
73175,-100,4,2,1,60,0,0
73975,-100,4,2,1,60,0,1
86375,-100,4,2,1,50,0,0

[Colours]
Combo1 : 255,255,100
Combo2 : 200,200,255
Combo3 : 50,150,255
Combo4 : 255,100,200

[HitObjects]
64,328,375,6,0,B|152:328|152:328|182:320|182:320|262:320,1,200,4|2,0:0|0:0,0:0:0:0:
352,272,1575,1,8,0:0:0:0:
432,208,1975,2,0,P|349:170|259:229,1,200,2|2,0:0|0:0,0:0:0:0:
168,248,3175,1,8,0:0:0:0:
88,188,3575,6,0,L|80:84,1,99.9999999999999,2|8,0:0|0:0,0:0:0:0:
164,32,4375,2,0,L|172:136,1,99.9999999999999,2|8,0:0|0:0,0:0:0:0:
256,184,5175,2,0,P|320:192|448:128,1,200,2|2,0:0|0:0,0:0:0:0:
456,40,6375,1,8,0:0:0:0:
356,40,6775,6,0,B|276:40|276:40|244:56|244:56|156:56,1,200,6|2,0:0|0:0,0:0:0:0:
77,112,7975,1,8,0:0:0:0:
160,168,8375,2,0,B|232:168|232:168|256:184,1,99.9999999999999,2|8,0:0|0:0,0:0:0:0:
256,280,9175,2,0,B|232:296|232:296|160:296,1,99.9999999999999,2|8,0:0|0:0,0:0:0:0:
79,239,9975,6,0,P|56:136|123:63,1,200,2|2,0:0|0:0,0:0:0:0:
208,48,11175,1,8,0:0:0:0:
304,72,11575,2,0,B|304:230|304:230|280:265,1,200,2|2,0:0|0:0,0:0:0:0:
208,328,12775,1,8,0:0:0:0:
128,268,13175,6,0,L|128:156,1,99.9999999999999,6|8,0:0|0:0,0:0:0:0:
224,140,13975,2,0,L|225:25,1,99.9999999999999,2|8,0:0|0:0,0:0:0:0:
324,48,14775,2,0,P|364:104|356:248,1,200,2|2,0:0|0:0,0:0:0:0:
304,312,15975,1,8,0:0:0:0:
207,337,16375,6,0,P|156:339|96:315,1,99.9999999999999,2|8,0:0|0:0,0:0:0:0:
44,248,17175,2,0,L|40:136,1,99.9999999999999,2|8,0:0|0:0,0:0:0:0:
104,71,17975,2,0,P|160:71|200:200,1,200,2|2,0:0|0:0,0:0:0:0:
140,263,19175,1,8,0:0:0:0:
207,337,19575,6,0,B|299:266|229:253|332:170,1,200,2|2,0:0|0:0,0:0:0:0:
415,141,20775,1,8,0:0:0:0:
398,236,21175,2,0,P|446:238|491:218,1,99.9999999999999,2|8,0:0|0:0,0:0:0:0:
504,119,21975,2,0,L|512:15,1,99.9999999999999,2|8,0:0|0:0,0:0:0:0:
413,36,22775,6,0,L|396:253,1,200,6|2,0:0|0:0,0:0:0:0:
467,307,23975,1,8,0:0:0:0:
376,348,24375,2,0,P|328:360|180:336,1,200,2|2,0:0|0:0,0:0:0:0:
96,284,25575,1,8,0:0:0:0:
96,184,25975,6,0,B|172:152|216:220|296:188,1,200,6|2,0:0|0:0,0:0:0:0:
384,152,27175,1,8,0:0:0:0:
384,52,27575,2,0,L|264:44,1,99.9999999999999,2|8,0:0|0:0,0:0:0:0:
196,92,28375,2,0,L|76:84,1,99.9999999999999,2|8,0:0|0:0,0:0:0:0:
28,160,29175,6,0,P|35:257|120:335,1,200,6|2,0:0|0:0,0:0:0:0:
200,348,30375,1,8,0:0:0:0:
284,292,30775,2,0,L|306:93,1,200,2|2,0:0|0:0,0:0:0:0:
224,36,31975,1,8,0:0:0:0:
138,88,32375,6,0,P|220:137|306:93,1,200,6|2,0:0|0:0,0:0:0:0:
388,36,33575,1,8,0:0:0:0:
476,84,33975,2,0,B|480:148|480:148|464:184,1,99.9999999999999,2|8,0:0|0:0,0:0:0:0:
368,200,34775,2,0,B|364:264|364:264|380:300,1,99.9999999999999,2|8,0:0|0:0,0:0:0:0:
460,356,35575,6,0,B|489:289|489:289|481:162,1,200,6|2,0:0|0:0,0:0:0:0:
400,108,36775,1,8,0:0:0:0:
368,200,37175,2,0,P|328:208|260:192,1,99.9999999999999,2|8,0:0|0:0,0:0:0:0:
184,144,37975,2,0,P|135:133|86:141,1,99.9999999999999,2|8,0:0|0:0,0:0:0:0:
24,220,38775,6,0,L|220:280,1,200,6|2,0:0|0:0,0:0:0:0:
288,344,39975,1,8,0:0:0:0:
364,280,40375,2,0,L|459:250,1,99.9999999999999,2|8,0:0|0:0,0:0:0:0:
460,152,41175,2,0,L|364:122,1,99.9999999999999,2|8,0:0|0:0,0:0:0:0:
300,200,41975,6,0,L|84:200,1,200,6|2,0:0|0:0,0:0:0:0:
36,124,43175,1,8,0:0:0:0:
104,52,43575,2,0,L|304:52,1,200,2|2,0:0|0:0,0:0:0:0:
368,128,44775,1,8,0:0:0:0:
300,200,45175,6,0,L|100:200,1,200,2|2,0:0|0:0,0:0:0:0:
28,268,46375,1,8,0:0:0:0:
96,340,46775,2,0,L|296:340,1,200,2|2,0:0|0:0,0:0:0:0:
368,268,47975,1,8,0:0:0:0:
426,186,48375,6,0,P|282:214|298:342,1,300,6|0,0:0|0:0,0:0:0:0:
396,352,49975,2,0,L|512:344,2,99.9999999999999,6|0|2,0:0|0:0|0:0,0:0:0:0:
295,339,51175,1,0,0:0:0:0:
196,324,51575,6,0,L|96:330,1,99.9999999999999,6|0,0:0|0:0,0:0:0:0:
44,244,52375,2,0,L|143:237,1,99.9999999999999,2|0,0:0|0:0,0:0:0:0:
244,240,53175,2,0,L|230:40,1,200,6|2,0:0|0:0,0:0:0:0:
132,16,54375,1,0,0:0:0:0:
40,60,54775,6,0,L|53:259,1,200,6|2,0:0|0:0,0:0:0:0:
124,328,55975,1,0,0:0:0:0:
224,320,56375,2,0,P|245:222|227:125,1,200,6|2,0:0|0:0,0:0:0:0:
175,39,57575,1,0,0:0:0:0:
133,130,57975,6,0,L|341:118,1,200,6|2,0:0|0:0,0:0:0:0:
428,148,59175,1,0,0:0:0:0:
424,248,59575,2,0,L|324:253,1,99.9999999999999,2|0,0:0|0:0,0:0:0:0:
236,300,60375,2,0,L|136:305,1,99.9999999999999,2|0,0:0|0:0,0:0:0:0:
51,251,61175,6,0,P|43:207|71:135,1,99.9999999999999,4|8,0:0|0:0,0:0:0:0:
144,104,61975,2,0,L|254:96,1,99.9999999999999,2|8,0:0|0:0,0:0:0:0:
324,156,62775,2,0,P|332:200|324:264,1,99.9999999999999,2|8,0:0|0:0,0:0:0:0:
304,352,63575,2,0,L|404:348,1,99.9999999999999,2|8,0:0|0:0,0:0:0:0:
483,286,64375,6,0,P|498:245|498:171,1,99.9999999999999,4|8,0:0|0:0,0:0:0:0:
451,103,65175,2,0,P|404:86|354:86,1,99.9999999999999,0|8,0:0|0:0,0:0:0:0:
353,186,65975,2,0,P|255:204|157:186,1,200,2|2,0:0|0:0,0:0:0:0:
109,99,67175,1,8,0:0:0:0:
24,152,67575,6,0,B|24:235|24:235|15:262|15:262|15:350,1,200,6|2,0:0|0:0,0:0:0:0:
115,350,68775,1,8,0:0:0:0:
115,252,69175,2,0,L|115:133,1,99.9999999999999,2|8,0:0|0:0,0:0:0:0:
213,171,69975,2,0,L|213:290,1,99.9999999999999,2|8,0:0|0:0,0:0:0:0:
264,357,70775,6,0,P|363:364|456:332,1,200,6|2,0:0|0:0,0:0:0:0:
457,232,71975,1,8,0:0:0:0:
360,206,72375,2,0,L|356:106,1,99.9999999999999,2|8,0:0|0:0,0:0:0:0:
453,132,73175,2,0,L|457:232,1,99.9999999999999,2|8,0:0|0:0,0:0:0:0:
417,323,73975,6,0,P|371:344|334:376,1,99.9999999999999,6|8,0:0|0:0,0:0:0:0:
262,308,74775,2,0,P|221:295|158:295,1,99.9999999999999,2|8,0:0|0:0,0:0:0:0:
66,313,75575,2,0,P|79:272|79:209,1,99.9999999999999,2|8,0:0|0:0,0:0:0:0:
52,119,76375,2,0,P|93:132|156:132,1,99.9999999999999,2|8,0:0|0:0,0:0:0:0:
190,225,77175,6,0,L|190:345,1,99.9999999999999,6|8,0:0|0:0,0:0:0:0:
289,311,77975,2,0,L|289:211,1,99.9999999999999,2|8,0:0|0:0,0:0:0:0:
289,111,78775,2,0,B|390:63|402:147|482:115,1,200,2|2,0:0|0:0,0:0:0:0:
482,15,79975,1,8,0:0:0:0:
382,15,80375,6,0,L|398:219,1,200,6|2,0:0|0:0,0:0:0:0:
404,314,81575,1,8,0:0:0:0:
304,314,81975,2,0,B|228:346|180:274|92:318,1,200,2|2,0:0|0:0,0:0:0:0:
31,248,83175,1,8,0:0:0:0:
109,185,83575,6,0,B|184:216|232:144|304:182,1,200,6|2,0:0|0:0,0:0:0:0:
392,227,84775,1,8,0:0:0:0:
400,327,85175,2,0,B|320:375|336:295|256:350|256:350|176:295|192:375|108:320,1,300,6|8,0:0|0:0,0:0:0:0:
256,192,86775,12,4,88175,0:0:0:0:
