osu file format v14

[General]
AudioFilename: BravelyYouTVSize.mp3
AudioLeadIn: 1000
PreviewTime: 61035
Countdown: 0
SampleSet: Soft
StackLeniency: 0.7
Mode: 0
LetterboxInBreaks: 0
WidescreenStoryboard: 0

[Editor]
DistanceSpacing: 1
BeatDivisor: 4
GridSize: 4
TimelineZoom: 1

[Metadata]
Title:Bravely You (TV Size)
TitleUnicode:Bravely You (TV Size)
Artist:Lia
ArtistUnicode:Lia
Creator:Adol Christin
Version:Insane
Source:Charlotte
Tags:シャーロット Key 麻枝准 ANIPLEX ANANT-GARDE EYES p.a.works anime opening
BeatmapID:745165
BeatmapSetID:336736

[Difficulty]
HPDrainRate:6
CircleSize:4.5
OverallDifficulty:7
ApproachRate:8
SliderMultiplier:1.5
SliderTickRate:1

[Events]
//Background and Video events
0,0,"BG.jpg",0,0
Video,0,"opto.flv"
//Break Periods
//Storyboard Layer 0 (Background)
//Storyboard Layer 1 (Fail)
//Storyboard Layer 2 (Pass)
//Storyboard Layer 3 (Foreground)
//Storyboard Sound Samples

[TimingPoints]
630,400,4,2,2,45,1,0
2230,-100,4,2,1,60,0,0
12230,-125,4,2,1,60,0,0
13430,-100,4,2,1,60,0,0
18630,-125,4,2,1,60,0,0
19830,-100,4,2,1,60,0,0
22830,-100,4,2,2,60,0,0
23030,-100,4,2,1,60,0,0
35630,-100,4,2,2,60,0,0
35830,-100,4,2,1,60,0,0
47630,-100,4,2,2,60,0,0
47830,-100,4,2,1,60,0,0
48430,-100,4,2,2,60,0,0
48630,-100,4,2,2,30,0,0
61030,-100,4,2,1,60,0,0

[Colours]
Combo1 : 255,0,0
Combo2 : 255,255,0
Combo3 : 166,166,255
Combo4 : 200,200,200

[HitObjects]
179,202,630,5,4,0:0:0:0:
344,195,830,1,0,0:0:0:0:
344,195,930,1,0,0:0:0:0:
344,195,1030,2,0,P|295:195|265:177,1,75,0|0,0:0|0:0,0:0:0:0:
134,85,1430,2,0,L|207:104,1,75,0|0,0:0|0:0,0:0:0:0:
182,310,1830,2,0,P|168:268|182:195,1,112.5,0|0,0:0|0:0,0:0:0:0:
179,202,2230,5,2,0:0:0:0:
380,282,2430,1,0,0:0:0:0:
211,185,2630,1,2,0:0:0:0:
406,271,2830,1,2,0:0:0:0:
403,77,3230,1,0,0:0:0:0:
403,77,3630,1,0,0:0:0:0:
406,271,3830,5,2,0:0:0:0:
405,308,4430,1,2,0:0:0:0:
177,164,4830,5,0,0:0:0:0:
258,310,5030,1,2,0:0:0:0:
93,310,5230,1,2,0:0:0:0:
93,310,6030,1,0,0:0:0:0:
276,206,7030,6,0,P|268:165|273:132,1,75,4|0,0:0|0:0,0:0:0:0:
374,173,7430,1,8,0:0:0:0:
374,173,7630,1,2,0:0:0:0:
426,271,7830,2,0,P|385:255|345:253,1,75
243,303,8230,1,10,0:0:0:0:
274,156,8430,6,0,P|234:208|174:170,1,150
274,156,9030,2,0,P|283:209|300:230,1,75,10|0,0:0|0:0,0:0:0:0:
427,272,9430,1,0,0:0:0:0:
268,322,9630,1,0,0:0:0:0:
401,115,9830,1,10,0:0:0:0:
401,115,10230,5,0,0:0:0:0:
274,156,10430,1,0,0:0:0:0:
153,106,10630,1,10,0:0:0:0:
274,156,10830,1,0,0:0:0:0:
304,260,11030,2,0,P|264:268|223:254,1,75
274,156,11430,1,10,0:0:0:0:
191,335,11630,6,0,P|262:320|340:339,1,150
125,209,12230,1,10,0:0:0:0:
121,219,12330,1,0,0:0:0:0:
118,229,12430,1,0,0:0:0:0:
115,239,12530,1,0,0:0:0:0:
112,249,12630,1,2,0:0:0:0:
102,126,12830,1,0,0:0:0:0:
112,129,12930,1,0,0:0:0:0:
122,132,13030,2,0,L|159:143,1,30,10|0,0:0|0:0,0:0:0:0:
205,206,13230,2,0,L|245:218,1,30,2|0,0:0|0:0,0:0:0:0:
316,191,13430,6,0,P|353:202|394:202,1,75
317,82,13830,1,8,0:0:0:0:
317,82,14030,1,2,0:0:0:0:
242,202,14230,2,0,P|279:201|315:190,1,75
316,304,14630,1,10,0:0:0:0:
189,261,14830,6,0,P|141:216|86:269,1,150,0|0,0:0|0:0,0:0:0:0:
136,175,15430,2,0,P|148:141|137:103,1,75,10|0,0:0|0:0,0:0:0:0:
51,138,15830,1,0,0:0:0:0:
228,167,16030,1,0,0:0:0:0:
50,0,16230,1,10,0:0:0:0:
301,36,16630,6,0,P|292:74|300:115,1,75
402,109,17030,1,10,0:0:0:0:
297,254,17230,2,0,P|280:188|298:110,1,150
401,183,17830,1,10,0:0:0:0:
289,183,18030,1,0,0:0:0:0:
285,183,18130,1,0,0:0:0:0:
281,183,18230,6,0,L|196:183,1,75
23,261,18630,1,10,0:0:0:0:
41,261,18730,1,0,0:0:0:0:
59,261,18830,1,0,0:0:0:0:
77,261,18930,1,0,0:0:0:0:
95,261,19030,1,2,0:0:0:0:
135,335,19230,1,0,0:0:0:0:
153,334,19330,1,0,0:0:0:0:
171,335,19430,2,0,L|206:335,1,30,10|0,0:0|0:0,0:0:0:0:
234,261,19630,2,0,L|276:261,1,30,2|0,0:0|0:0,0:0:0:0:
292,185,19830,6,0,B|354:185|354:185|391:185|431:144,1,150,0|8,0:0|0:0,0:0:0:0:
207,136,20630,1,0,0:0:0:0:
113,90,20830,1,2,0:0:0:0:
206,39,21030,1,8,0:0:0:0:
292,185,21230,6,0,B|292:249|268:296|268:296|259:281|264:256,1,150
286,91,21830,1,10,0:0:0:0:
286,91,22030,1,0,0:0:0:0:
389,261,22230,1,0,0:0:0:0:
389,261,22430,1,0,0:0:0:0:
254,117,22630,1,10,0:0:0:0:
254,117,22730,1,10,0:0:0:0:
254,117,22830,1,0,0:0:0:0:
137,187,23030,6,0,P|155:256|134:340,1,150,4|8,0:0|0:0,0:0:0:0:
205,256,23630,1,0,0:0:0:0:
348,255,23830,2,0,P|275:274|202:254,1,150,0|10,0:0|0:0,0:0:0:0:
279,118,24430,1,0,0:0:0:0:
279,118,24630,6,0,L|207:85,1,75
402,84,25030,1,8,0:0:0:0:
354,169,25230,2,0,B|313:132|313:94|313:94|313:30,1,150,0|0,0:0|0:0,0:0:0:0:
354,169,25830,1,10,0:0:0:0:
112,248,26230,6,0,P|155:211|108:147,1,150,0|8,0:0|0:0,0:0:0:0:
41,196,26830,1,0,0:0:0:0:
186,196,27030,2,0,P|262:215|341:197,1,150,0|10,0:0|0:0,0:0:0:0:
406,78,27630,1,0,0:0:0:0:
406,78,27830,6,0,L|332:98,1,75,0|0,0:0|0:0,0:0:0:0:
397,165,28230,1,8,0:0:0:0:
248,46,28430,2,0,L|95:80,1,150,0|0,0:0|0:0,0:0:0:0:
34,193,29030,1,10,0:0:0:0:
327,223,29430,6,0,P|275:187|188:190,1,150,0|8,0:0|0:0,0:0:0:0:
234,312,30030,1,0,0:0:0:0:
101,297,30230,2,0,P|123:235|195:187,1,150,0|10,0:0|0:0,0:0:0:0:
327,223,30830,1,0,0:0:0:0:
461,249,31030,6,0,L|437:170,1,75
414,97,31430,1,8,0:0:0:0:
327,223,31630,2,0,B|272:250|212:218|212:218|185:244,1,150
124,340,32230,1,10,0:0:0:0:
94,121,32630,6,0,B|152:94|197:123|197:123|236:100,1,150,0|8,0:0|0:0,0:0:0:0:
185,21,33230,1,0,0:0:0:0:
147,207,33430,1,0,0:0:0:0:
147,207,33630,1,0,0:0:0:0:
330,133,33830,1,10,0:0:0:0:
330,133,34030,1,0,0:0:0:0:
203,277,34230,5,0,0:0:0:0:
321,234,34430,1,0,0:0:0:0:
166,190,34630,1,10,0:0:0:0:
355,151,34830,1,0,0:0:0:0:
235,362,35030,1,0,0:0:0:0:
415,258,35230,1,2,0:0:0:0:
252,102,35430,1,10,0:0:0:0:
252,102,35530,1,10,0:0:0:0:
252,102,35630,1,0,0:0:0:0:
166,190,35830,6,0,P|165:110|121:39,1,150,0|8,0:0|0:0,0:0:0:0:
54,143,36430,1,0,0:0:0:0:
134,277,36630,2,0,L|216:259,1,75,0|0,0:0|0:0,0:0:0:0:
344,163,37030,2,0,L|271:180,1,75,10|0,0:0|0:0,0:0:0:0:
401,89,37430,6,0,P|382:160|402:232,1,150,0|8,0:0|0:0,0:0:0:0:
480,277,38030,1,0,0:0:0:0:
480,277,38230,1,0,0:0:0:0:
326,325,38430,1,0,0:0:0:0:
369,124,38630,1,10,0:0:0:0:
482,193,38830,1,0,0:0:0:0:
402,232,39030,6,0,P|334:206|255:209,1,150,0|8,0:0|0:0,0:0:0:0:
149,315,39630,1,0,0:0:0:0:
149,315,39830,2,0,L|226:298,1,75,0|0,0:0|0:0,0:0:0:0:
162,147,40230,2,0,P|159:191|172:224,1,75,10|0,0:0|0:0,0:0:0:0:
320,214,40630,6,0,P|301:142|312:69,1,150,0|8,0:0|0:0,0:0:0:0:
472,184,41230,1,0,0:0:0:0:
360,283,41430,1,0,0:0:0:0:
512,255,41630,1,0,0:0:0:0:
399,355,41830,1,10,0:0:0:0:
321,215,42030,1,0,0:0:0:0:
176,259,42230,6,0,P|155:191|172:115,1,150,0|8,0:0|0:0,0:0:0:0:
107,52,42830,1,0,0:0:0:0:
107,52,43030,2,0,L|84:132,1,75,0|0,0:0|0:0,0:0:0:0:
244,136,43430,2,0,L|168:115,1,75,10|0,0:0|0:0,0:0:0:0:
333,74,43830,6,0,B|333:124|329:142|329:142|317:202|339:214|362:201|339:172,1,150,0|8,0:0|0:0,0:0:0:0:
412,131,44430,1,0,0:0:0:0:
283,264,44630,1,0,0:0:0:0:
463,229,44830,1,0,0:0:0:0:
241,327,45030,1,10,0:0:0:0:
237,137,45230,1,0,0:0:0:0:
98,267,45430,6,0,B|115:231|155:211|155:211|120:145,1,150,0|8,0:0|0:0,0:0:0:0:
31,189,46030,1,0,0:0:0:0:
82,59,46230,2,0,L|162:74,1,75,0|0,0:0|0:0,0:0:0:0:
222,210,46630,2,0,L|238:130,1,75,10|0,0:0|0:0,0:0:0:0:
295,33,47030,5,0,0:0:0:0:
134,167,47230,1,8,0:0:0:0:
370,281,47430,1,10,0:0:0:0:
370,281,47530,1,10,0:0:0:0:
370,281,47630,1,0,0:0:0:0:
362,91,47830,1,0,0:0:0:0:
209,200,48030,1,8,0:0:0:0:
209,200,48130,1,0,0:0:0:0:
209,200,48230,2,0,L|254:213,1,37.5,10|8,0:0|0:0,0:0:0:0:
318,159,48430,2,0,L|282:149,1,37.5,2|0,0:0|0:0,0:0:0:0:
391,100,48630,6,0,L|309:77,1,75,2|0,0:0|0:0,0:0:0:0:
207,123,49030,2,0,L|125:100,1,75,2|0,0:0|0:0,0:0:0:0:
271,201,49430,2,0,L|343:221,1,75,2|0,0:0|0:0,0:0:0:0:
391,100,49830,2,0,L|463:120,1,75,2|0,0:0|0:0,0:0:0:0:
426,306,50230,5,2,0:0:0:0:
353,363,50430,1,0,0:0:0:0:
259,375,50630,2,0,L|177:352,1,75,2|0,0:0|0:0,0:0:0:0:
48,240,51030,1,2,0:0:0:0:
121,183,51230,1,0,0:0:0:0:
215,171,51430,2,0,L|297:194,1,75,2|0,0:0|0:0,0:0:0:0:
449,260,51830,6,0,L|469:187,1,75,2|0,0:0|0:0,0:0:0:0:
409,38,52230,2,0,L|374:152,1,112.5,2|0,0:0|0:0,0:0:0:0:
363,181,52630,6,0,L|342:253,1,75,2|0,0:0|0:0,0:0:0:0:
197,321,53030,2,0,L|124:300,1,75,2|0,0:0|0:0,0:0:0:0:
165,119,53430,6,0,P|170:169|163:209,1,75,2|0,0:0|0:0,0:0:0:0:
82,69,53830,2,0,P|105:42|151:21,1,75,2|0,0:0|0:0,0:0:0:0:
253,103,54230,1,2,0:0:0:0:
253,103,54430,1,0,0:0:0:0:
378,33,54630,1,2,0:0:0:0:
378,33,54830,1,0,0:0:0:0:
321,174,55030,6,0,L|303:258,1,75,2|0,0:0|0:0,0:0:0:0:
256,315,55430,1,2,0:0:0:0:
166,338,55630,1,0,0:0:0:0:
42,232,55830,6,0,L|60:148,1,75,2|0,0:0|0:0,0:0:0:0:
107,91,56230,1,2,0:0:0:0:
197,68,56430,1,0,0:0:0:0:
321,174,56630,6,0,P|378:170|433:140,1,112.5,2|0,0:0|0:0,0:0:0:0:
454,119,57030,1,2,0:0:0:0:
293,96,57230,2,0,L|271:272,1,150
183,158,57830,1,2,0:0:0:0:
183,158,58030,1,0,0:0:0:0:
278,8,58230,6,0,P|317:10|357:30,1,75,2|0,0:0|0:0,0:0:0:0:
415,97,58630,1,2,0:0:0:0:
503,67,58830,1,0,0:0:0:0:
479,242,59030,2,0,P|443:229|413:207,1,75,2|0,0:0|0:0,0:0:0:0:
332,151,59430,1,2,0:0:0:0:
274,225,59630,1,0,0:0:0:0:
186,261,59830,6,0,B|142:269|142:269|112:256|112:256|65:263,1,112.5,2|0,0:0|0:0,0:0:0:0:
140,183,60230,2,0,B|185:173|185:173|224:184|224:184|261:173,1,112.5,2|0,0:0|0:0,0:0:0:0:
287,94,60630,2,0,B|254:105|254:105|211:95|211:95|170:105,1,112.5,2|0,0:0|0:0,0:0:0:0:
76,85,61030,6,0,L|122:74,1,37.5,2|0,0:0|0:0,0:0:0:0:
64,160,61230,2,0,L|28:170,1,37.5,2|0,0:0|0:0,0:0:0:0:
171,128,61430,6,0,P|212:111|246:111,1,75,4|0,0:0|0:0,0:0:0:0:
389,178,61830,2,0,P|350:188|303:177,1,75,8|0,0:0|0:0,0:0:0:0:
171,128,62230,1,0,0:0:0:0:
347,108,62430,1,0,0:0:0:0:
157,90,62630,1,10,0:0:0:0:
367,144,62830,1,0,0:0:0:0:
165,230,63030,6,0,P|152:193|172:144,1,75,0|0,0:0|0:0,0:0:0:0:
368,230,63430,2,0,P|381:267|361:316,1,75,10|0,0:0|0:0,0:0:0:0:
305,168,63830,1,0,0:0:0:0:
372,300,64030,1,2,0:0:0:0:
165,230,64230,1,10,0:0:0:0:
259,92,64430,6,0,P|279:161|260:239,1,150
97,163,65030,2,0,P|135:154|170:162,1,75,8|0,0:0|0:0,0:0:0:0:
261,235,65430,1,0,0:0:0:0:
135,235,65630,1,0,0:0:0:0:
259,92,65830,1,10,0:0:0:0:
391,236,66030,6,0,P|393:310|327:364,1,150,0|0,0:0|0:0,0:0:0:0:
358,155,66630,2,0,P|326:122|286:111,1,75,10|0,0:0|0:0,0:0:0:0:
114,90,67030,2,0,P|148:87|184:64,1,75
254,0,67430,1,10,0:0:0:0:
373,61,67630,1,0,0:0:0:0:
256,175,67830,6,0,P|254:257|272:340,1,150,0|8,0:0|0:0,0:0:0:0:
210,252,68430,1,0,0:0:0:0:
210,252,68530,1,0,0:0:0:0:
210,252,68630,2,0,L|136:266,1,75,0|0,0:0|0:0,0:0:0:0:
84,192,69030,2,0,L|11:207,1,75,10|0,0:0|0:0,0:0:0:0:
133,117,69430,6,0,L|285:89,1,150,0|8,0:0|0:0,0:0:0:0:
208,207,70030,1,0,0:0:0:0:
208,207,70130,1,0,0:0:0:0:
208,207,70230,2,0,P|208:165|221:129,1,75,0|0,0:0|0:0,0:0:0:0:
309,236,70630,2,0,P|309:278|296:314,1,75,10|0,0:0|0:0,0:0:0:0:
223,367,71030,6,0,L|390:338,1,150,0|8,0:0|0:0,0:0:0:0:
443,213,71630,1,0,0:0:0:0:
443,213,71730,1,0,0:0:0:0:
443,213,71830,2,0,P|401:247|369:252,1,75,0|0,0:0|0:0,0:0:0:0:
224,259,72230,2,0,P|182:251|152:222,1,75,10|0,0:0|0:0,0:0:0:0:
211,92,72630,6,0,P|280:62|358:74,1,150,0|8,0:0|0:0,0:0:0:0:
293,172,73230,1,0,0:0:0:0:
414,136,73430,1,0,0:0:0:0:
211,92,73630,1,0,0:0:0:0:
272,305,73830,1,10,0:0:0:0:
272,305,73930,1,8,0:0:0:0:
272,305,74030,1,10,0:0:0:0:
272,305,74130,1,8,0:0:0:0:
272,305,74230,6,0,P|201:330|124:330,1,150,4|8,0:0|0:0,0:0:0:0:
41,299,74830,1,0,0:0:0:0:
153,193,75030,2,0,P|199:208|229:237,1,75,0|0,0:0|0:0,0:0:0:0:
272,305,75430,1,10,0:0:0:0:
155,275,75630,1,0,0:0:0:0:
272,305,75830,6,0,P|320:313|352:309,1,75,0|0,0:0|0:0,0:0:0:0:
273,205,76230,2,0,P|225:197|193:201,1,75,10|0,0:0|0:0,0:0:0:0:
155,275,76630,1,0,0:0:0:0:
66,277,76830,1,2,0:0:0:0:
13,203,77030,1,10,0:0:0:0:
199,199,77230,6,0,P|276:203|347:178,1,150
428,279,77830,2,0,L|343:271,1,75,8|0,0:0|0:0,0:0:0:0:
173,350,78230,2,0,P|197:310|202:272,1,75,0|0,0:0|0:0,0:0:0:0:
111,152,78630,2,0,L|120:235,1,75,10|0,0:0|0:0,0:0:0:0:
57,72,79030,6,0,L|137:60,1,75
240,120,79430,2,0,P|224:76|224:44,1,75,10|0,0:0|0:0,0:0:0:0:
422,82,79830,2,0,L|349:97,1,75
328,217,80230,2,0,L|403:203,1,75,10|0,0:0|0:0,0:0:0:0:
243,267,80630,6,0,P|228:183|234:109,1,150,0|8,0:0|0:0,0:0:0:0:
305,16,81230,1,0,0:0:0:0:
305,16,81330,1,0,0:0:0:0:
305,16,81430,2,0,L|224:29,1,75
149,78,81830,2,0,L|68:91,1,75,10|0,0:0|0:0,0:0:0:0:
232,118,82230,6,0,P|309:133|386:127,1,150,0|8,0:0|0:0,0:0:0:0:
457,232,82830,1,0,0:0:0:0:
457,232,82930,1,0,0:0:0:0:
457,232,83030,2,0,P|501:204|513:171,1,75
371,273,83430,2,0,P|381:230|373:188,1,75,10|0,0:0|0:0,0:0:0:0:
295,325,83830,6,0,P|230:336|129:321,1,150,0|8,0:0|0:0,0:0:0:0:
15,256,84430,1,0,0:0:0:0:
15,256,84530,1,0,0:0:0:0:
15,256,84630,2,0,P|41:281|87:298,1,75
138,234,85030,2,0,P|177:246|219:243,1,75,10|0,0:0|0:0,0:0:0:0:
354,192,85430,6,0,P|348:142|370:40,1,150,0|8,0:0|0:0,0:0:0:0:
257,85,86030,1,0,0:0:0:0:
257,85,86130,1,0,0:0:0:0:
257,85,86230,2,0,L|269:161,1,75,0|0,0:0|0:0,0:0:0:0:
189,245,86630,2,0,L|201:320,1,75,10|0,0:0|0:0,0:0:0:0:
224,163,87030,5,4,0:0:0:0:
296,226,87230,2,0,L|368:246,1,75,2|0,0:0|0:0,0:0:0:0:
224,163,87630,2,0,L|308:140,1,75,2|0,0:0|0:0,0:0:0:0:
134,227,88030,2,0,L|206:247,1,75,2|0,0:0|0:0,0:0:0:0:
130,145,88430,1,2,0:0:0:0:
