osu file format v14

[General]
AudioFilename: BravelyYouTVSize.mp3
AudioLeadIn: 1000
PreviewTime: 61035
Countdown: 0
SampleSet: Soft
StackLeniency: 0.7
Mode: 0
LetterboxInBreaks: 0
WidescreenStoryboard: 1

[Editor]
DistanceSpacing: 1
BeatDivisor: 2
GridSize: 4
TimelineZoom: 1

[Metadata]
Title:Bravely You (TV Size)
TitleUnicode:Bravely You (TV Size)
Artist:Lia
ArtistUnicode:Lia
Creator:Adol Christin
Version:Easy
Source:Charlotte
Tags:シャーロット Key 麻枝准 ANIPLEX ANANT-GARDE EYES p.a.works anime opening
BeatmapID:1067357
BeatmapSetID:336736

[Difficulty]
HPDrainRate:1
CircleSize:3
OverallDifficulty:1
ApproachRate:2
SliderMultiplier:0.9
SliderTickRate:1

[Events]
//Background and Video events
0,0,"BG.jpg",0,0
Video,0,"opto.flv"
//Break Periods
//Storyboard Layer 0 (Background)
//Storyboard Layer 1 (Fail)
//Storyboard Layer 2 (Pass)
//Storyboard Layer 3 (Foreground)
//Storyboard Sound Samples

[TimingPoints]
630,400,4,2,2,45,1,0
2230,-100,4,2,1,60,0,0
48630,-100,4,2,2,30,0,0
61230,-100,4,2,1,60,0,0

[Colours]
Combo1 : 255,0,0
Combo2 : 255,255,0
Combo3 : 166,166,255
Combo4 : 200,200,200

[HitObjects]
130,261,630,6,0,L|219:277,1,90,6|2,0:0|0:0,0:0:0:0:
290,330,1430,2,0,L|384:310,1,90,2|2,0:0|0:0,0:0:0:0:
467,307,2230,2,0,P|454:249|453:174,1,135,2|2,0:0|0:0,0:0:0:0:
478,85,3230,2,0,P|422:73|343:76,1,135,0|2,0:0|0:0,0:0:0:0:
180,149,4630,6,0,P|132:149|84:136,2,90,0|2|0,0:0|0:0|0:0,0:0:0:0:
212,326,6230,2,0,L|309:306,1,90,0|0,0:0|0:0,0:0:0:0:
387,286,7030,6,0,P|385:238|370:191,1,90,4|8,0:0|0:0,0:0:0:0:
376,108,7830,2,0,P|350:69|299:44,1,90,0|10,0:0|0:0,0:0:0:0:
290,134,8630,2,0,P|199:133|121:95,1,180,0|0,0:0|0:0,0:0:0:0:
70,20,9830,1,10,0:0:0:0:
30,100,10230,6,0,L|17:195,1,90,2|8,0:0|0:0,0:0:0:0:
78,255,11030,2,0,L|98:346,1,90,0|10,0:0|0:0,0:0:0:0:
183,370,11830,2,0,P|247:350|359:350,1,180,0|2,0:0|0:0,0:0:0:0:
447,369,13030,1,10,0:0:0:0:
502,298,13430,6,0,P|458:281|399:291,1,90,0|8,0:0|0:0,0:0:0:0:
348,224,14230,2,0,P|301:236|245:228,1,90,0|10,0:0|0:0,0:0:0:0:
170,241,15030,2,0,B|94:253|32:272|32:272|54:205|55:144,1,270,0|10,0:0|0:0,0:0:0:0:
82,60,16630,6,0,P|121:32|163:17,1,90,0|10,0:0|0:0,0:0:0:0:
238,63,17430,2,0,P|287:61|329:44,1,90,0|10,0:0|0:0,0:0:0:0:
405,5,18230,2,0,L|425:101,1,90,0|8,0:0|0:0,0:0:0:0:
476,165,19030,2,0,L|458:267,1,90,2|10,0:0|0:0,0:0:0:0:
443,341,19830,6,0,P|371:338|274:291,1,180,0|0,0:0|0:0,0:0:0:0:
219,220,21030,1,8,0:0:0:0:
157,154,21430,2,0,P|103:138|58:139,1,90,0|10,0:0|0:0,0:0:0:0:
16,209,22230,2,0,P|-8:261|-3:312,1,90,2|8,0:0|0:0,0:0:0:0:
80,273,23030,6,0,P|162:308|252:311,1,180,6|0,0:0|0:0,0:0:0:0:
338,290,24230,1,8,0:0:0:0:
404,228,24630,2,0,L|391:136,1,90,0|8,0:0|0:0,0:0:0:0:
332,70,25430,2,0,L|242:86,1,90,0|8,0:0|0:0,0:0:0:0:
154,100,26230,6,0,P|100:178|115:271,1,180,0|0,0:0|0:0,0:0:0:0:
125,347,27430,1,8,0:0:0:0:
201,299,27830,2,0,P|247:290|294:291,1,90,2|8,0:0|0:0,0:0:0:0:
376,317,28630,2,0,P|425:329|480:329,1,90,0|8,0:0|0:0,0:0:0:0:
467,240,29430,6,0,B|467:223|467:223|497:203|504:165|492:133|460:127|409:149,1,180,0|0,0:0|0:0,0:0:0:0:
336,201,30630,1,10,0:0:0:0:
249,226,31030,2,0,P|200:217|155:217,1,90,0|10,0:0|0:0,0:0:0:0:
70,229,31830,2,0,L|53:132,1,90,0|10,0:0|0:0,0:0:0:0:
30,53,32630,6,0,B|53:41|91:34|91:34|103:56|122:69|122:69|152:62|188:43,1,180,0|0,0:0|0:0,0:0:0:0:
271,16,33830,1,8,0:0:0:0:
358,36,34230,2,0,P|407:27|460:35,1,90,2|8,0:0|0:0,0:0:0:0:
499,104,35030,2,0,P|511:160|504:199,1,90,0|10,0:0|0:0,0:0:0:0:
505,282,35830,6,0,P|416:266|329:283,1,180,0|0,0:0|0:0,0:0:0:0:
245,317,37030,1,8,0:0:0:0:
161,349,37430,2,0,P|101:349|52:326,1,90,0|8,0:0|0:0,0:0:0:0:
31,259,38230,2,0,L|57:163,1,90,0|10,0:0|0:0,0:0:0:0:
67,82,39030,6,0,B|116:89|185:58|185:58|239:112,1,180
278,172,40230,1,8,0:0:0:0:
250,257,40630,2,0,P|299:271|346:273,1,90,2|8,0:0|0:0,0:0:0:0:
427,279,41430,2,0,P|468:250|491:210,1,90,0|10,0:0|0:0,0:0:0:0:
480,127,42230,6,0,P|431:59|335:58,1,180
264,102,43430,1,8,0:0:0:0:
185,145,43830,2,0,P|137:137|93:145,1,90,0|8,0:0|0:0,0:0:0:0:
19,189,44630,2,0,L|0:285,1,90,0|10,0:0|0:0,0:0:0:0:
2,367,45430,6,0,B|60:360|115:307|115:307|192:336,1,180
243,363,46630,1,8,0:0:0:0:
323,323,47030,2,0,P|373:332|431:320,1,90,2|8,0:0|0:0,0:0:0:0:
490,283,47830,2,0,L|505:349,2,45,2|8|8,0:0|0:0|0:0,0:0:0:0:
429,216,48630,6,0,P|439:173|427:120,1,90,6|2,0:0|0:0,0:0:0:0:
365,66,49430,2,0,P|320:56|271:69,1,90,2|2,0:0|0:0,0:0:0:0:
200,111,50230,2,0,P|147:118|102:104,1,90,2|2,0:0|0:0,0:0:0:0:
41,53,51030,2,0,P|22:109|24:147,1,90,2|2,0:0|0:0,0:0:0:0:
19,229,51830,6,0,L|119:258,1,90,2|2,0:0|0:0,0:0:0:0:
177,307,52630,2,0,L|274:285,1,90,2|2,0:0|0:0,0:0:0:0:
354,290,53430,2,0,L|373:188,1,90,2|2,0:0|0:0,0:0:0:0:
433,137,54230,2,0,L|405:43,1,90,2|2,0:0|0:0,0:0:0:0:
319,70,55030,6,0,P|268:62|220:71,1,90,2|2,0:0|0:0,0:0:0:0:
149,108,55830,2,0,P|98:120|47:109,1,90,2|2,0:0|0:0,0:0:0:0:
1,182,56630,2,0,L|19:272,1,90,2|2,0:0|0:0,0:0:0:0:
91,323,57430,2,0,L|198:295,1,90,2|2,0:0|0:0,0:0:0:0:
261,265,58230,6,0,P|306:256|361:267,1,90,2|2,0:0|0:0,0:0:0:0:
437,278,59030,2,0,P|456:229|457:178,1,90,2|2,0:0|0:0,0:0:0:0:
455,102,59830,2,0,L|363:86,1,90,2|2,0:0|0:0,0:0:0:0:
280,113,60630,2,0,L|188:97,1,90,2|2,0:0|0:0,0:0:0:0:
101,108,61430,6,0,P|86:165|89:209,1,90,4|8,0:0|0:0,0:0:0:0:
86,285,62230,2,0,P|83:330|100:372,1,90,2|8,0:0|0:0,0:0:0:0:
189,371,63030,2,0,B|251:353|338:382|338:382|366:329,1,180,0|0,0:0|0:0,0:0:0:0:
389,275,64230,1,10,0:0:0:0:
370,186,64630,6,0,P|379:138|366:90,1,90,0|8,0:0|0:0,0:0:0:0:
327,19,65430,2,0,P|280:14|234:24,1,90,2|8,0:0|0:0,0:0:0:0:
193,100,66230,2,0,B|112:113|47:91|47:91|35:131,1,180,0|0,0:0|0:0,0:0:0:0:
21,210,67430,1,8,0:0:0:0:
6,298,67830,6,0,B|62:335|62:335|121:303|182:306|182:306|206:340|257:356,1,270,2|8,0:0|0:0,0:0:0:0:
328,320,69430,2,0,B|365:313|411:338|411:338|465:335|488:292|488:292|464:254|463:206,1,270,2|8,0:0|0:0,0:0:0:0:
447,118,71030,6,0,B|400:73|310:95|310:95|305:171|222:202,1,270,2|8,0:0|0:0,0:0:0:0:
158,224,72630,2,0,B|88:239|49:270|49:270|-11:228|3:131,1,270,2|8,0:0|0:0,0:0:0:0:
40,53,74230,6,0,P|82:38|134:39,1,90,4|8,0:0|0:0,0:0:0:0:
197,93,75030,2,0,P|245:106|308:100,1,90,2|8,0:0|0:0,0:0:0:0:
373,87,75830,2,0,B|418:75|462:81|462:81|471:129|460:176,1,180
449,259,77030,1,10,0:0:0:0:
418,343,77430,6,0,P|370:350|319:341,1,90,0|8,0:0|0:0,0:0:0:0:
247,306,78230,2,0,P|201:310|154:324,1,90,2|8,0:0|0:0,0:0:0:0:
71,342,79030,2,0,L|48:248,1,90,0|8,0:0|0:0,0:0:0:0:
5,176,79830,2,0,L|31:83,1,90,0|8,0:0|0:0,0:0:0:0:
40,0,80630,6,0,B|115:7|177:54|177:54|168:141|232:183,1,270,2|8,0:0|0:0,0:0:0:0:
300,167,82230,2,0,B|342:142|333:55|333:55|395:8|470:1,1,270,2|8,0:0|0:0,0:0:0:0:
457,90,83830,6,0,B|451:166|422:225|422:225|369:262|298:268,1,270,2|8,0:0|0:0,0:0:0:0:
211,267,85430,2,0,B|143:261|90:224|90:224|61:165|55:89,1,270,2|8,0:0|0:0,0:0:0:0:
256,192,87030,12,2,88430,0:0:0:0:
