osu file format v14

[General]
AudioFilename: Bravely You.mp3
AudioLeadIn: 2000
PreviewTime: 61348
Countdown: 0
SampleSet: Soft
StackLeniency: 0.7
Mode: 0
LetterboxInBreaks: 0
WidescreenStoryboard: 0

[Editor]
Bookmarks: 7648
DistanceSpacing: 1.2
BeatDivisor: 4
GridSize: 4
TimelineZoom: 1

[Metadata]
Title:Bravely You
TitleUnicode:Bravely You
Artist:Lia
ArtistUnicode:Lia
Creator:CelsiusLK
Version:Desire
Source:Charlotte
Tags:シャーロット opening full version
BeatmapID:772067
BeatmapSetID:350161

[Difficulty]
HPDrainRate:6
CircleSize:4
OverallDifficulty:7.5
ApproachRate:8.5
SliderMultiplier:2
SliderTickRate:2

[Events]
//Background and Video events
0,0,"too-oppppppppp.jpg",0,0
//Break Periods
//Storyboard Layer 0 (Background)
//Storyboard Layer 1 (Fail)
//Storyboard Layer 2 (Pass)
//Storyboard Layer 3 (Foreground)
//Storyboard Sound Samples

[TimingPoints]
848,400,4,2,1,45,1,0
848,-111.111111111111,4,2,1,45,0,0
7648,-111.111111111111,4,2,1,55,0,0
23248,-133.333333333333,4,2,1,55,0,0
48848,-111.111111111111,4,2,1,45,0,0
60048,-111.111111111111,4,2,1,50,0,0
60448,-111.111111111111,4,2,1,55,0,0
60848,-111.111111111111,4,2,1,65,0,0
61248,-111.111111111111,4,2,1,70,0,0
61648,-100,4,2,1,75,0,1
87248,-111.111111111111,4,2,1,60,0,0
116048,-133.333333333333,4,2,1,55,0,0
141648,-111.111111111111,4,2,1,45,0,0
152848,-111.111111111111,4,2,1,50,0,0
153248,-111.111111111111,4,2,1,55,0,0
153648,-111.111111111111,4,2,1,65,0,0
154048,-111.111111111111,4,2,1,70,0,0
154448,-100,4,2,1,75,0,1
180048,-111.111111111111,4,2,1,65,0,0
186448,-133.333333333333,4,2,1,60,0,0
218448,-111.111111111111,4,2,1,65,0,0
244048,-111.111111111111,4,2,1,45,0,0
255248,-111.111111111111,4,2,1,50,0,0
255648,-111.111111111111,4,2,1,55,0,0
256048,-111.111111111111,4,2,1,60,0,0
256448,-111.111111111111,4,2,1,65,0,0
256848,-133.333333333333,4,2,1,50,0,0
257248,-133.333333333333,4,2,1,75,0,0
257648,-100,4,2,1,75,0,1
281248,-100,4,2,1,80,0,1
281448,-100,4,2,1,85,0,1
281648,-100,4,2,1,90,0,1
282048,-100,4,2,1,75,0,0
282448,-100,4,2,1,75,0,1
308048,-100,4,2,1,65,0,0
320848,-100,4,2,0,20,0,0
320948,-100,4,2,1,5,0,0

[Colours]
Combo1 : 255,255,179
Combo2 : 81,168,255
Combo3 : 255,165,121
Combo4 : 255,111,111

[HitObjects]
96,184,848,6,0,P|164:204|240:192,1,134.999995880127,4|0,0:0|0:0,0:0:0:0:
256,188,1248,2,0,L|266:98,1,89.9999972534181,8|0,0:0|0:0,0:0:0:0:
208,288,1648,1,2,0:0:0:0:
364,248,1848,1,0,0:0:0:0:
364,248,1948,1,0,0:0:0:0:
364,248,2048,2,0,L|376:344,1,89.9999972534181,8|0,0:0|0:0,0:0:0:0:
444,180,2448,5,2,0:0:0:0:
336,68,2648,1,2,0:0:0:0:
257,225,2848,1,8,0:0:0:0:
412,100,3048,2,0,P|456:96|512:124,1,89.9999972534181,2|0,0:0|0:0,0:0:0:0:
364,248,3448,1,0,0:0:0:0:
248,112,3648,2,0,L|244:20,1,89.9999972534181,8|0,0:0|0:0,0:0:0:0:
116,176,4048,6,0,L|112:265,1,89.9999972534181,4|0,0:0|0:0,0:0:0:0:
52,312,4348,1,0,0:0:0:0:
52,312,4448,1,8,0:0:0:0:
212,184,4648,2,0,L|312:176,1,89.9999972534181,2|0,0:0|0:0,0:0:0:0:
424,88,5048,1,2,0:0:0:0:
236,32,5248,1,8,0:0:0:0:
384,16,5448,1,2,0:0:0:0:
301,176,5648,6,0,P|293:216|289:284,1,89.9999972534181,4|2,0:0|0:0,0:0:0:0:
344,324,5948,1,0,0:0:0:0:
344,324,6048,2,0,P|296:320|244:344,1,89.9999972534181,2|2,0:0|0:0,0:0:0:0:
184,360,6348,1,0,0:0:0:0:
184,360,6448,2,0,P|160:324|160:268,1,89.9999972534181,2|2,0:0|0:0,0:0:0:0:
188,208,6748,1,0,0:0:0:0:
188,208,6848,2,0,P|216:212|236:220,1,44.999998626709,2|0,0:0|0:0,0:0:0:0:
272,144,7048,2,0,P|296:164|308:184,1,44.999998626709,2|0,0:0|0:0,0:0:0:0:
364,244,7248,6,0,L|360:96,1,134.999995880127,4|0,0:0|0:0,0:0:0:0:
388,92,7648,2,0,L|390:181,1,89.9999972534181,8|0,0:0|0:0,0:0:0:0:
432,352,8048,1,2,0:0:0:0:
432,352,8248,1,0,0:0:0:0:
280,288,8448,2,0,P|239:281|187:277,1,89.9999972534181,8|0,0:0|0:0,0:0:0:0:
36,344,8848,6,0,L|28:228,1,89.9999972534181,2|0,0:0|0:0,0:0:0:0:
88,84,9248,1,8,0:0:0:0:
272,128,9448,2,0,P|216:188|112:184,1,179.999994506836,2|0,0:0|0:0,0:0:0:0:
208,36,10048,1,8,0:0:0:0:
208,36,10248,1,2,0:0:0:0:
376,116,10448,6,0,L|476:108,1,89.9999972534181,4|0,0:0|0:0,0:0:0:0:
312,60,10848,1,8,0:0:0:0:
204,200,11048,2,0,P|196:240|192:300,1,89.9999972534181,2|0,0:0|0:0,0:0:0:0:
336,224,11448,1,2,0:0:0:0:
184,112,11648,1,8,0:0:0:0:
312,60,11848,1,0,0:0:0:0:
160,32,12048,6,0,P|120:56|100:104,1,89.9999972534181,2|0,0:0|0:0,0:0:0:0:
112,268,12448,1,8,0:0:0:0:
144,276,12548,1,2,0:0:0:0:
176,276,12648,1,2,0:0:0:0:
204,264,12748,1,0,0:0:0:0:
228,244,12848,2,0,P|256:248|284:260,1,44.999998626709,8|0,0:0|0:0,0:0:0:0:
340,344,13048,2,0,P|356:316|360:268,1,44.999998626709,2|0,0:0|0:0,0:0:0:0:
448,192,13248,2,0,L|456:281,1,89.9999972534181,8|0,0:0|0:0,0:0:0:0:
303,149,13648,6,0,L|311:59,1,89.9999972534181,4|0,0:0|0:0,0:0:0:0:
336,232,14048,2,0,P|292:236|232:208,1,89.9999972534181,8|0,0:0|0:0,0:0:0:0:
112,124,14448,2,0,P|72:148|40:196,1,89.9999972534181,2|0,0:0|0:0,0:0:0:0:
96,328,14848,1,8,0:0:0:0:
180,200,15048,1,0,0:0:0:0:
336,232,15248,6,0,L|340:356,1,89.9999972534181,2|0,0:0|0:0,0:0:0:0:
476,172,15648,2,0,P|448:144|396:128,1,89.9999972534181,8|0,0:0|0:0,0:0:0:0:
256,240,16048,1,2,0:0:0:0:
208,100,16248,1,2,0:0:0:0:
92,216,16448,2,0,L|-16:208,1,89.9999972534181,8|0,0:0|0:0,0:0:0:0:
192,292,16848,6,0,L|384:280,1,179.999994506836,4|8,0:0|0:0,0:0:0:0:
476,172,17448,1,0,0:0:0:0:
344,100,17648,2,0,L|336:208,1,89.9999972534181,2|0,0:0|0:0,0:0:0:0:
412,40,18048,2,0,P|368:12|304:16,1,89.9999972534181,8|0,0:0|0:0,0:0:0:0:
180,72,18448,6,0,L|72:80,1,89.9999972534181,2|0,0:0|0:0,0:0:0:0:
44,244,18848,1,8,0:0:0:0:
76,240,18948,1,2,0:0:0:0:
108,236,19048,1,0,0:0:0:0:
140,232,19148,1,0,0:0:0:0:
172,228,19248,2,0,L|184:284,1,44.999998626709,8|0,0:0|0:0,0:0:0:0:
256,192,19448,2,0,L|265:147,1,44.999998626709,2|0,0:0|0:0,0:0:0:0:
344,224,19648,2,0,L|360:332,1,89.9999972534181,8|0,0:0|0:0,0:0:0:0:
464,172,20048,6,0,P|476:128|480:72,1,89.9999972534181,4|0,0:0|0:0,0:0:0:0:
328,12,20448,2,0,L|340:116,1,89.9999972534181,8|0,0:0|0:0,0:0:0:0:
364,268,20848,1,2,0:0:0:0:
192,208,21048,1,2,0:0:0:0:
336,116,21248,1,8,0:0:0:0:
268,264,21448,1,2,0:0:0:0:
128,152,21648,6,0,P|168:132|224:128,1,89.9999972534181,4|0,0:0|0:0,0:0:0:0:
380,144,22048,2,0,P|392:192|392:248,1,89.9999972534181,8|0,0:0|0:0,0:0:0:0:
260,328,22448,1,2,0:0:0:0:
260,328,22648,1,2,0:0:0:0:
108,288,22848,2,0,P|84:300|40:328,2,44.999998626709,8|8|8,0:0|0:3|0:3,0:0:0:0:
248,232,23248,6,0,P|332:229|428:232,1,150.000005722046,4|8,0:0|0:0,0:0:0:0:
260,328,23848,1,0,0:0:0:0:
156,200,24048,2,0,P|152:152|184:40,1,150.000005722046,2|8,0:0|0:0,0:0:0:0:
312,12,24648,1,0,0:0:0:0:
436,92,24848,6,0,P|436:128|432:168,1,75.0000028610231,2|0,0:0|0:0,0:0:0:0:
344,280,25248,1,8,0:0:0:0:
226,191,25448,2,0,B|188:192|128:216,1,75.0000028610231,2|0,0:0|0:0,0:0:0:0:
256,328,25848,1,2,0:0:0:0:
332,128,26048,1,8,0:0:0:0:
332,128,26448,6,0,L|492:120,1,150.000005722046,4|8,0:0|0:0,0:0:0:0:
304,44,27048,1,2,0:0:0:0:
372,224,27248,2,0,L|478:218,1,75.0000028610231,2|0,0:0|0:0,0:0:0:0:
300,304,27648,2,0,L|196:296,1,75.0000028610231,8|0,0:0|0:0,0:0:0:0:
72,228,28048,5,4,0:0:0:0:
128,368,28248,2,0,P|138:332|143:294,1,75.0000028610231,2|8,0:0|0:0,0:0:0:0:
132,108,28648,1,2,0:0:0:0:
132,108,29048,1,2,0:0:0:0:
272,200,29248,2,0,L|352:196,1,75.0000028610231,8|0,0:0|0:0,0:0:0:0:
488,60,29648,6,0,B|419:50|419:98|339:78,1,150.000005722046,4|8,0:0|0:0,0:0:0:0:
216,16,30248,1,2,0:0:0:0:
96,152,30448,2,0,L|84:252,1,75.0000028610231,2|0,0:0|0:0,0:0:0:0:
228,344,30848,2,0,L|219:269,1,75.0000028610231,8|0,0:0|0:0,0:0:0:0:
172,92,31248,6,0,P|232:136|316:120,1,150.000005722046,4|8,0:0|0:0,0:0:0:0:
408,44,31848,1,2,0:0:0:0:
476,188,32048,2,0,L|472:288,1,75.0000028610231,2|0,0:0|0:0,0:0:0:0:
308,320,32448,2,0,P|296:280|304:232,1,75.0000028610231,8|0,0:0|0:0,0:0:0:0:
476,188,32848,6,0,P|444:256|364:264,1,150.000005722046,4|8,0:0|0:0,0:0:0:0:
296,140,33448,1,2,0:0:0:0:
204,276,33648,2,0,L|112:264,1,75.0000028610231,2|0,0:0|0:0,0:0:0:0:
48,144,34048,1,8,0:0:0:0:
52,132,34148,2,0,P|76:124|116:116,1,37.5000014305115,2|0,0:0|0:0,0:0:0:0:
232,88,34448,6,0,P|244:128|248:180,1,75.0000028610231,2|0,0:0|0:0,0:0:0:0:
336,320,34848,2,0,P|348:284|372:236,1,75.0000028610231,8|0,0:0|0:0,0:0:0:0:
472,180,35248,1,2,0:0:0:0:
372,96,35448,1,2,0:0:0:0:
268,208,35648,1,8,0:0:0:0:
264,220,35748,2,0,L|272:264,1,37.5000014305115,8|0,0:3|0:0,0:0:0:0:
256,108,36048,6,0,B|200:88|200:88|92:100,1,150.000005722046,4|8,0:0|0:0,0:0:0:0:
36,212,36648,1,0,0:0:0:0:
160,328,36848,2,0,P|176:288|176:236,1,75.0000028610231,2|0,0:0|0:0,0:0:0:0:
256,108,37248,2,0,P|292:116|334:138,1,75.0000028610231,8|0,0:0|0:0,0:0:0:0:
428,288,37648,6,0,P|355:283|268:276,1,150.000005722046,4|8,0:0|0:0,0:0:0:0:
136,128,38248,1,2,0:0:0:0:
136,128,38648,1,2,0:0:0:0:
276,192,38848,2,0,P|312:172|344:124,1,75.0000028610231,8|0,0:0|0:0,0:0:0:0:
184,216,39248,6,0,P|172:284|184:368,1,150.000005722046,4|8,0:0|0:0,0:0:0:0:
304,272,39848,1,0,0:0:0:0:
208,115,40048,2,0,P|168:115|120:139,1,75.0000028610231,2|0,0:0|0:0,0:0:0:0:
40,272,40448,2,0,L|48:368,1,75.0000028610231,8|0,0:0|0:0,0:0:0:0:
96,200,40848,5,2,0:0:0:0:
200,296,41048,2,0,L|284:288,1,75.0000028610231,2|8,0:0|0:0,0:0:0:0:
376,132,41448,2,0,P|300:148|268:232,1,150.000005722046,2|2,0:0|0:0,0:0:0:0:
464,272,42048,1,8,0:0:0:0:
464,272,42448,6,0,P|475:200|480:104,1,150.000005722046,4|8,0:0|0:0,0:0:0:0:
376,264,43048,1,2,0:0:0:0:
296,152,43248,2,0,P|256:144|212:144,1,75.0000028610231,2|0,0:0|0:0,0:0:0:0:
116,256,43648,2,0,P|104:217|104:181,1,75.0000028610231,8|0,0:0|0:0,0:0:0:0:
184,328,44048,6,0,P|112:348|40:320,1,150.000005722046,4|8,0:0|0:0,0:0:0:0:
192,208,44648,1,2,0:0:0:0:
304,332,44848,2,0,L|384:328,1,75.0000028610231,2|0,0:0|0:0,0:0:0:0:
456,176,45248,2,0,L|376:172,1,75.0000028610231,8|0,0:0|0:0,0:0:0:0:
240,56,45648,6,0,B|288:68|288:68|296:140,1,112.500004291535,4|0,0:0|0:0,0:0:0:0:
280,152,46048,2,0,B|248:172|248:172|228:212,1,75.0000028610231,8|0,0:0|0:0,0:0:0:0:
136,96,46448,2,0,L|128:0,1,75.0000028610231,2|0,0:0|0:0,0:0:0:0:
64,168,46848,2,0,L|52:228,1,37.5000014305115,8|2,0:0|0:0,0:0:0:0:
180,348,47248,5,4,0:0:0:0:
280,248,47448,1,8,0:0:0:0:
184,160,47648,1,8,0:0:0:0:
176,168,47748,2,0,P|168:196|176:224,1,37.5000014305115,8|0,0:0|0:0,0:0:0:0:
320,320,48048,2,0,P|356:264|352:212,1,112.500004291535,8|0,0:0|0:0,0:0:0:0:
264,144,48448,2,0,P|284:156|312:164,1,37.5000014305115,8|0,0:0|0:0,0:0:0:0:
412,128,48648,2,0,P|392:132|376:140,1,37.5000014305115,2|0,0:0|0:0,0:0:0:0:
452,40,48848,6,0,L|348:24,1,89.9999972534181,4|0,0:0|0:0,0:0:0:0:
208,72,49248,2,0,L|104:88,1,89.9999972534181,2|0,0:0|0:0,0:0:0:0:
40,228,49648,2,0,P|40:280|60:332,1,89.9999972534181,2|0,0:0|0:0,0:0:0:0:
200,252,50048,2,0,P|212:208|211:164,1,89.9999972534181,2|0,0:0|0:0,0:0:0:0:
140,328,50448,5,2,0:0:0:0:
280,284,50648,1,0,0:0:0:0:
124,192,50848,1,2,0:0:0:0:
208,72,51048,1,0,0:0:0:0:
292,196,51248,2,0,L|296:312,1,89.9999972534181,2|0,0:0|0:0,0:0:0:0:
412,148,51648,2,0,L|415:58,1,89.9999972534181,2|0,0:0|0:0,0:0:0:0:
488,224,52048,5,2,0:0:0:0:
488,224,52248,1,0,0:0:0:0:
376,344,52448,2,0,P|332:352|280:340,1,89.9999972534181,2|0,0:0|0:0,0:0:0:0:
136,288,52848,1,2,0:0:0:0:
136,288,53048,1,0,0:0:0:0:
264,192,53248,2,0,L|272:96,1,89.9999972534181,2|0,0:0|0:0,0:0:0:0:
224,272,53648,5,2,0:0:0:0:
356,220,53848,1,0,0:0:0:0:
172,148,54048,1,2,0:0:0:0:
136,288,54248,1,0,0:0:0:0:
44,164,54448,2,0,L|56:64,1,89.9999972534181,2|0,0:0|0:0,0:0:0:0:
216,76,54848,2,0,P|244:108|248:164,1,89.9999972534181,2|0,0:0|0:0,0:0:0:0:
136,288,55248,5,2,0:0:0:0:
136,288,55448,1,0,0:0:0:0:
288,344,55648,2,0,L|392:340,1,89.9999972534181,2|0,0:0|0:0,0:0:0:0:
480,212,56048,1,2,0:0:0:0:
480,212,56248,1,0,0:0:0:0:
344,128,56448,2,0,P|298:124|254:124,1,89.9999972534181,2|0,0:0|0:0,0:0:0:0:
92,204,56848,6,0,P|72:160|68:104,1,89.9999972534181,2|0,0:0|0:0,0:0:0:0:
184,32,57248,1,2,0:0:0:0:
224,204,57448,2,0,L|217:293,1,89.9999972534181,0|2,0:0|0:0,0:0:0:0:
164,128,57848,1,0,0:0:0:0:
324,216,58048,2,0,L|424:208,1,89.9999972534181,2|0,0:0|0:0,0:0:0:0:
456,36,58448,6,0,P|410:13|366:9,1,89.9999972534181,2|0,0:0|0:0,0:0:0:0:
252,116,58848,2,0,P|214:128|162:128,1,89.9999972534181,2|0,0:0|0:0,0:0:0:0:
40,24,59248,2,0,P|28:60|24:124,1,89.9999972534181,2|0,0:0|0:0,0:0:0:0:
80,264,59648,2,0,L|176:252,1,89.9999972534181,2|0,0:0|0:0,0:0:0:0:
320,164,60048,6,0,L|328:260,1,89.9999972534181,4|0,0:0|0:0,0:0:0:0:
436,128,60448,2,0,L|443:38,1,89.9999972534181,4|0,0:0|0:0,0:0:0:0:
368,20,60748,1,0,0:0:0:0:
368,20,60848,2,0,P|352:52|296:72,1,89.9999972534181,4|0,0:0|0:0,0:0:0:0:
164,28,61248,1,2,0:0:0:0:
96,160,61448,2,0,L|100:228,1,44.999998626709,8|8,0:0|0:0,0:0:0:0:
144,300,61648,6,0,P|172:248|224:216,1,100,4|0,0:0|0:0,0:0:0:0:
344,312,62048,2,0,L|452:304,1,100,8|0,0:0|0:0,0:0:0:0:
380,144,62448,2,0,L|272:136,1,100,2|0,0:0|0:0,0:0:0:0:
76,64,62848,1,8,0:0:0:0:
180,184,63048,1,0,0:0:0:0:
296,40,63248,6,0,P|352:32|420:28,1,100,4|0,0:0|0:0,0:0:0:0:
460,184,63648,1,8,0:0:0:0:
280,68,63848,2,0,P|280:188|304:276,1,200,2|2,0:0|0:0,0:0:0:0:
464,280,64448,2,0,P|416:288|368:308,1,100,8|0,0:0|0:0,0:0:0:0:
192,352,64848,6,0,P|140:344|88:304,1,100,4|0,0:0|0:0,0:0:0:0:
183,148,65248,2,0,L|180:248,1,100,8|0,0:0|0:0,0:0:0:0:
280,68,65648,2,0,P|380:76|480:124,1,200,2|8,0:0|0:0,0:0:0:0:
232,160,66248,6,0,P|324:224|376:308,1,200,2|2,0:0|0:0,0:0:0:0:
192,352,66848,1,8,0:0:0:0:
56,234,67048,2,0,L|64:132,1,100,0|2,0:0|0:0,0:0:0:0:
208,44,67448,1,0,0:0:0:0:
244,244,67648,2,0,P|188:232|148:188,1,100,8|0,0:0|0:0,0:0:0:0:
328,100,68048,6,0,P|330:207|332:308,1,200,4|8,0:0|0:0,0:0:0:0:
468,200,68648,1,2,0:0:0:0:
408,28,68848,2,0,B|348:12|348:12|176:24,1,200,2|8,0:0|0:0,0:0:0:0:
64,112,69448,1,0,0:0:0:0:
212,212,69648,6,0,P|240:172|236:108,1,100,4|0,0:0|0:0,0:0:0:0:
88,220,70048,1,8,0:0:0:0:
260,308,70248,2,0,P|344:316|460:324,1,200,2|2,0:0|0:0,0:0:0:0:
296,224,70848,2,0,P|354:229|435:235,1,100,8|0,0:0|0:0,0:0:0:0:
432,36,71248,6,0,P|380:32|324:44,1,100,4|0,0:0|0:0,0:0:0:0:
216,192,71648,2,0,L|208:290,1,100,8|0,0:0|0:0,0:0:0:0:
68,180,72048,2,0,L|60:81,1,100,2|2,0:0|0:0,0:0:0:0:
128,40,72348,1,2,0:0:0:0:
128,40,72448,2,0,P|156:92|200:112,1,100,8|0,0:0|0:0,0:0:0:0:
412,56,72848,6,0,L|416:168,1,100,4|0,0:0|0:0,0:0:0:0:
352,320,73248,2,0,P|308:312|240:308,1,100,8|0,0:0|0:0,0:0:0:0:
80,352,73648,1,2,0:0:0:0:
184,236,73848,1,2,0:0:0:0:
32,136,74048,1,8,0:0:0:0:
36,144,74148,1,8,0:0:0:0:
40,152,74248,2,0,L|104:156,1,50,8|0,0:0|0:0,0:0:0:0:
200,100,74448,6,0,P|252:92|328:92,1,100,4|0,0:0|0:0,0:0:0:0:
404,232,74848,2,0,P|356:220|312:180,1,100,8|0,0:0|0:0,0:0:0:0:
492,200,75248,2,0,L|484:320,1,100,2|0,0:0|0:0,0:0:0:0:
404,140,75648,1,8,0:0:0:0:
404,140,75848,1,0,0:0:0:0:
292,296,76048,6,0,L|160:292,1,100,2|0,0:0|0:0,0:0:0:0:
68,168,76448,1,8,0:0:0:0:
232,20,76648,2,0,P|264:124|216:224,1,200,2|2,0:0|0:0,0:0:0:0:
68,168,77248,2,0,L|52:56,1,100,8|0,0:0|0:0,0:0:0:0:
232,205,77648,6,0,L|217:303,1,100,4|0,0:0|0:0,0:0:0:0:
176,128,78048,2,0,P|232:116|304:132,1,100,8|0,0:0|0:0,0:0:0:0:
440,280,78448,2,0,P|344:280|316:188,1,200,2|8,0:0|0:0,0:0:0:0:
444,84,79048,1,0,0:0:0:0:
264,24,79248,6,0,L|156:16,1,100,2|0,0:0|0:0,0:0:0:0:
316,100,79648,1,8,0:0:0:0:
152,208,79848,2,0,L|28:192,1,100,0|2,0:0|0:0,0:0:0:0:
208,120,80248,1,0,0:0:0:0:
324,260,80448,2,0,P|328:308|328:392,1,100,8|0,0:0|0:0,0:0:0:0:
464,192,80848,6,0,P|464:100|452:-8,1,200,4|8,0:0|0:0,0:0:0:0:
376,176,81448,1,2,0:0:0:0:
248,24,81648,2,0,P|148:24|20:28,1,200,2|8,0:0|0:0,0:0:0:0:
96,208,82248,1,0,0:0:0:0:
284,112,82448,6,0,P|296:216|248:312,1,200,4|8,0:0|0:0,0:0:0:0:
172,136,83048,1,0,0:0:0:0:
352,36,83248,2,0,P|400:64|436:112,1,100,2|0,0:0|0:0,0:0:0:0:
472,280,83648,2,0,L|344:268,1,100,8|0,0:0|0:0,0:0:0:0:
172,356,84048,6,0,P|160:308|162:256,1,100,4|0,0:0|0:0,0:0:0:0:
344,220,84448,2,0,P|348:172|340:120,1,100,8|0,0:0|0:0,0:0:0:0:
185,40,84848,2,0,P|166:92|177:148,1,100,2|0,0:0|0:0,0:0:0:0:
272,300,85248,2,0,L|380:304,1,100,8|0,0:0|0:0,0:0:0:0:
460,128,85648,5,2,0:0:0:0:
272,52,85848,1,2,0:0:0:0:
343,220,86048,2,0,P|352:172|355:120,1,100,8|0,0:0|0:0,0:0:0:0:
208,216,86448,1,2,0:0:0:0:
371,303,86648,1,8,0:0:0:0:
376,312,86748,2,8,L|436:304,1,50
376,136,87048,1,2,0:0:0:0:
376,136,87148,1,2,0:0:0:0:
376,136,87248,6,0,P|324:136|280:160,1,89.9999972534181,4|0,0:0|0:0,0:0:0:0:
176,276,87648,2,0,L|168:148,1,89.9999972534181,2|0,0:0|0:0,0:0:0:0:
40,100,88048,2,0,L|47:10,1,89.9999972534181,2|0,0:0|0:0,0:0:0:0:
236,28,88448,2,0,L|240:132,1,89.9999972534181,12|0,0:0|0:0,0:0:0:0:
276,280,88848,5,2,0:0:0:0:
408,208,89048,1,0,0:0:0:0:
248,144,89248,2,0,P|208:152|140:176,1,89.9999972534181,2|0,0:0|0:0,0:0:0:0:
276,280,89648,1,2,0:0:0:0:
344,124,89848,1,0,0:0:0:0:
464,280,90048,2,0,L|456:388,1,89.9999972534181,2|0,0:0|0:0,0:0:0:0:
288,364,90448,6,0,P|244:356|200:320,1,89.9999972534181,4|0,0:0|0:0,0:0:0:0:
308,200,90848,1,8,0:0:0:0:
132,168,91048,1,2,0:0:0:0:
276,40,91248,2,0,L|392:32,1,89.9999972534181,2|0,0:0|0:0,0:0:0:0:
440,168,91648,1,2,0:0:0:0:
412,184,91748,1,0,0:0:0:0:
392,208,91848,1,0,0:0:0:0:
380,236,91948,1,0,0:0:0:0:
380,268,92048,6,0,P|356:272|320:288,1,44.999998626709,2|0,0:0|0:0,0:0:0:0:
232,344,92248,2,0,P|202:337|176:328,1,44.999998626709,2|0,0:0|0:0,0:0:0:0:
100,248,92448,1,2,0:0:0:0:
120,224,92548,1,0,0:0:0:0:
144,204,92648,1,0,0:0:0:0:
172,192,92748,1,0,0:0:0:0:
204,184,92848,2,0,P|248:176|308:176,1,89.9999972534181,4|0,0:0|0:0,0:0:0:0:
469,277,93248,2,0,L|353:265,1,89.9999972534181,8|0,0:0|0:0,0:0:0:0:
288,80,93648,6,0,L|472:64,1,179.999994506836,4|8,0:0|0:0,0:0:0:0:
348,184,94248,1,2,0:0:0:0:
192,96,94448,2,0,P|176:64|172:0,1,89.9999972534181,2|0,0:0|0:0,0:0:0:0:
216,184,94848,1,8,0:0:0:0:
60,144,95048,1,2,0:0:0:0:
128,304,95248,6,0,L|221:292,1,89.9999972534181,4|0,0:0|0:0,0:0:0:0:
348,184,95648,1,2,0:0:0:0:
456,288,95848,1,2,0:0:0:0:
264,208,96048,1,2,0:0:0:0:
440,192,96248,1,2,0:0:0:0:
296,288,96448,2,0,P|272:328|264:388,1,89.9999972534181,8|0,0:0|0:0,0:0:0:0:
456,288,96848,5,4,0:0:0:0:
304,192,97048,2,0,L|204:200,1,89.9999972534181,2|8,0:0|0:0,0:0:0:0:
52,292,97448,1,2,0:0:0:0:
52,292,97548,1,2,0:0:0:0:
51,291,97648,2,0,P|52:248|61:202,1,89.9999972534181,2|0,0:0|0:0,0:0:0:0:
128,60,98048,2,0,L|136:152,1,89.9999972534181,8|0,0:0|0:0,0:0:0:0:
196,296,98448,5,2,0:0:0:0:
368,256,98648,1,0,0:0:0:0:
232,144,98848,2,0,P|240:104|260:58,1,89.9999972534181,2|0,0:0|0:0,0:0:0:0:
336,40,99148,1,0,0:0:0:0:
336,40,99248,2,0,B|372:64|372:64|432:60,1,89.9999972534181,2|0,0:0|0:0,0:0:0:0:
512,184,99648,2,0,L|390:188,1,89.9999972534181,8|0,0:0|0:0,0:0:0:0:
328,379,100048,6,0,P|360:331|360:227,1,134.999995880127,4|0,0:0|0:0,0:0:0:0:
352,236,100448,2,0,P|340:184|352:136,1,89.9999972534181,8|0,0:0|0:0,0:0:0:0:
480,48,100848,2,0,L|368:52,1,89.9999972534181,2|0,0:0|0:0,0:0:0:0:
224,136,101248,1,8,0:0:0:0:
124,8,101448,1,0,0:0:0:0:
72,176,101648,6,0,P|65:218|60:280,1,89.9999972534181,2|0,0:0|0:0,0:0:0:0:
128,312,101948,1,0,0:0:0:0:
128,312,102048,2,0,P|168:296|216:292,1,89.9999972534181,8|0,0:0|0:0,0:0:0:0:
376,344,102448,1,2,0:0:0:0:
288,228,102648,1,2,0:0:0:0:
376,104,102848,2,0,L|492:100,1,89.9999972534181,8|0,0:0|0:0,0:0:0:0:
288,228,103248,6,0,L|84:204,1,179.999994506836,4|8,0:0|0:0,0:0:0:0:
32,60,103848,1,0,0:0:0:0:
100,200,104048,2,0,P|152:180|200:152,1,89.9999972534181,2|0,0:0|0:0,0:0:0:0:
296,68,104448,1,8,0:0:0:0:
152,24,104648,1,0,0:0:0:0:
272,160,104848,6,0,P|274:197|276:264,1,89.9999972534181,2|0,0:0|0:0,0:0:0:0:
416,336,105248,1,8,0:0:0:0:
496,180,105448,1,0,0:0:0:0:
496,180,105548,1,0,0:0:0:0:
496,180,105648,2,0,L|392:176,1,89.9999972534181,2|2,0:0|0:0,0:0:0:0:
302,332,106048,2,0,P|278:288|272:236,1,89.9999972534181,8|0,0:0|0:0,0:0:0:0:
252,52,106448,6,0,P|232:156|176:208,1,179.999994506836,4|8,0:0|0:0,0:0:0:0:
28,144,107048,1,0,0:0:0:0:
96,292,107248,2,0,L|200:288,1,89.9999972534181,2|0,0:0|0:0,0:0:0:0:
328,204,107648,2,0,P|376:224|416:260,1,89.9999972534181,8|0,0:0|0:0,0:0:0:0:
232,176,108048,6,0,L|228:80,1,89.9999972534181,2|0,0:0|0:0,0:0:0:0:
412,40,108448,2,0,L|408:136,1,89.9999972534181,8|0,0:0|0:0,0:0:0:0:
328,292,108848,1,2,0:0:0:0:
328,292,109048,1,2,0:0:0:0:
168,248,109248,2,0,L|44:244,1,89.9999972534181,8|0,0:0|0:0,0:0:0:0:
252,328,109648,6,0,P|340:328|444:332,1,179.999994506836,4|8,0:0|0:0,0:0:0:0:
260,240,110248,2,0,P|348:236|452:240,1,179.999994506836,2|2,0:0|0:0,0:0:0:0:
264,152,110848,1,8,0:0:0:0:
264,152,111048,1,0,0:0:0:0:
420,88,111248,6,0,L|440:-8,1,89.9999972534181,4|0,0:0|0:0,0:0:0:0:
248,68,111648,2,0,P|200:68|152:48,1,89.9999972534181,8|0,0:0|0:0,0:0:0:0:
340,28,112048,1,2,0:0:0:0:
264,152,112248,1,2,0:0:0:0:
376,276,112448,2,0,L|496:268,1,89.9999972534181,8|0,0:0|0:0,0:0:0:0:
280,244,112848,6,0,B|224:220|176:240|176:240|144:224|144:224|88:240,1,179.999994506836,4|8,0:0|0:0,0:0:0:0:
212,360,113448,1,2,0:0:0:0:
376,276,113648,2,0,L|384:168,1,89.9999972534181,2|0,0:0|0:0,0:0:0:0:
476,28,114048,2,0,L|469:117,1,89.9999972534181,8|0,0:0|0:0,0:0:0:0:
376,276,114448,5,2,0:0:0:0:
264,152,114648,1,0,0:0:0:0:
264,152,114748,1,0,0:0:0:0:
264,152,114848,2,0,B|220:140|220:140|152:140,1,89.9999972534181,8|0,0:0|0:0,0:0:0:0:
256,260,115248,1,2,0:0:0:0:
380,168,115448,1,2,0:0:0:0:
284,40,115648,1,8,0:0:0:0:
272,48,115748,2,0,L|212:52,1,44.999998626709,8|0,0:3|0:0,0:0:0:0:
68,32,116048,6,0,P|78:93|76:180,1,150.000005722046,4|8,0:0|0:0,0:0:0:0:
16,312,116648,1,2,0:0:0:0:
172,248,116848,2,0,P|208:247|264:248,1,75.0000028610231,2|0,0:0|0:0,0:0:0:0:
420,296,117248,2,0,P|428:276|436:244,1,37.5000014305115,8|2,0:0|0:0,0:0:0:0:
368,84,117648,6,0,L|344:256,1,150.000005722046,4|8,0:0|0:0,0:0:0:0:
352,88,118248,2,0,P|272:92|180:120,1,150.000005722046,2|2,0:0|0:0,0:0:0:0:
276,300,118848,1,8,0:0:0:0:
276,300,119248,6,0,B|288:336|320:352|320:352|360:332|368:260,1,150.000005722046,4|8,0:0|0:0,0:0:0:0:
208,216,119848,1,2,0:0:0:0:
336,124,120048,2,0,P|372:128|424:144,1,75.0000028610231,2|0,0:0|0:0,0:0:0:0:
208,216,120448,2,0,L|108:220,1,75.0000028610231,8|0,0:0|0:0,0:0:0:0:
304,208,120848,5,2,0:0:0:0:
172,304,121048,2,0,L|180:392,1,75.0000028610231,2|8,0:0|0:0,0:0:0:0:
336,288,121448,2,0,P|384:228|368:152,1,150.000005722046,2|2,0:0|0:0,0:0:0:0:
172,72,122048,1,8,0:0:0:0:
172,72,122448,6,0,B|216:60|216:60|244:72|244:72|328:64,1,150.000005722046,4|8,0:0|0:0,0:0:0:0:
468,24,123048,1,2,0:0:0:0:
376,192,123248,2,0,P|372:224|376:268,1,75.0000028610231,2|0,0:0|0:0,0:0:0:0:
504,356,123648,2,0,L|512:292,1,37.5000014305115,8|2,0:0|0:0,0:0:0:0:
376,192,124048,6,0,P|312:184|212:192,1,150.000005722046,4|8,0:0|0:0,0:0:0:0:
80,296,124648,1,2,0:0:0:0:
152,152,124848,2,0,P|160:120|168:56,1,75.0000028610231,2|0,0:0|0:0,0:0:0:0:
8,160,125248,2,0,L|24:252,1,75.0000028610231,8|0,0:0|0:0,0:0:0:0:
196,252,125648,6,0,B|232:252|232:252|270:260,1,75.0000028610231,4|2,0:0|0:0,0:0:0:0:
328,312,125948,1,2,0:0:0:0:
328,312,126048,1,8,0:0:0:0:
456,232,126248,1,2,0:0:0:0:
332,104,126448,2,0,L|336:188,1,75.0000028610231,2|0,0:0|0:0,0:0:0:0:
440,64,126848,1,8,0:0:0:0:
448,72,126948,2,0,L|440:108,1,37.5000014305115,8|2,0:0|0:0,0:0:0:0:
364,276,127248,6,0,P|324:272|289:281,1,75.0000028610231,4|0,0:0|0:0,0:0:0:0:
112,328,127648,2,0,P|84:312|52:272,1,75.0000028610231,8|0,0:0|0:0,0:0:0:0:
104,112,128048,1,2,0:0:0:0:
216,224,128248,1,2,0:0:0:0:
40,164,128448,2,0,L|-8:160,1,37.5000014305115,8|0,0:0|0:0,0:0:0:0:
136,244,128648,2,0,L|173:247,1,37.5000014305115,2|0,0:0|0:0,0:0:0:0:
312,172,128848,6,0,P|289:274|281:318,1,150.000005722046,4|8,0:0|0:0,0:0:0:0:
420,220,129448,1,2,0:0:0:0:
240,132,129648,2,0,L|80:148,1,150.000005722046,2|8,0:0|0:0,0:0:0:0:
196,40,130248,1,2,0:0:0:0:
384,76,130448,6,0,P|412:144|416:248,1,150.000005722046,4|8,0:0|0:0,0:0:0:0:
264,340,131048,2,0,L|280:248,1,75.0000028610231,2|0,0:0|0:0,0:0:0:0:
344,104,131448,1,2,0:0:0:0:
204,216,131648,2,0,L|104:224,1,75.0000028610231,8|0,0:0|0:0,0:0:0:0:
40,68,132048,6,0,B|116:52|112:88|204:80,1,150.000005722046,4|8,0:0|0:0,0:0:0:0:
328,24,132648,1,2,0:0:0:0:
336,240,132848,2,0,P|292:184|292:100,1,150.000005722046,2|8,0:0|0:0,0:0:0:0:
424,208,133448,1,2,0:0:0:0:
284,324,133648,6,0,L|176:332,1,75.0000028610231,2|0,0:0|0:0,0:0:0:0:
88,220,134048,1,8,0:0:0:0:
228,104,134248,2,0,P|236:176|216:256,1,150.000005722046,2|2,0:0|0:0,0:0:0:0:
112,104,134848,1,8,0:0:0:0:
248,20,135048,1,2,0:0:0:0:
275,188,135248,6,0,L|427:208,1,150.000005722046,4|8,0:0|0:0,0:0:0:0:
320,96,135848,1,2,0:0:0:0:
192,204,136048,2,0,L|92:188,1,75.0000028610231,2|0,0:0|0:0,0:0:0:0:
256,288,136448,2,0,L|348:280,1,75.0000028610231,8|0,0:0|0:0,0:0:0:0:
424,136,136848,6,0,P|399:193|462:191,1,150.000005722046,4|8,0:0|0:0,0:0:0:0:
400,48,137448,1,2,0:0:0:0:
284,184,137648,2,0,L|296:268,1,75.0000028610231,2|0,0:0|0:0,0:0:0:0:
272,40,138048,1,8,0:0:0:0:
272,40,138448,6,0,B|236:32|236:32|208:44|208:44|172:28|116:36,1,150.000005722046,4|8,0:0|0:0,0:0:0:0:
28,148,139048,1,2,0:0:0:0:
140,268,139248,2,0,L|152:176,1,75.0000028610231,2|0,0:0|0:0,0:0:0:0:
316,128,139648,2,0,L|325:202,1,75.0000028610231,8|0,0:0|0:0,0:0:0:0:
440,344,140048,5,2,0:0:0:0:
292,296,140248,1,2,0:0:0:0:
292,296,140348,1,2,0:0:0:0:
292,296,140448,2,0,L|308:240,1,37.5000014305115,8|0,0:0|0:0,0:0:0:0:
252,184,140648,1,2,0:0:0:0:
140,268,140848,2,0,L|240:260,1,75.0000028610231,2|0,0:0|0:0,0:0:0:0:
376,184,141248,1,8,0:0:0:0:
368,176,141348,2,0,L|324:180,1,37.5000014305115,8|0,0:0|0:0,0:0:0:0:
176,352,141648,6,0,L|60:336,1,89.9999972534181,4|0,0:0|0:0,0:0:0:0:
16,176,142048,2,0,L|105:163,1,89.9999972534181,2|0,0:0|0:0,0:0:0:0:
276,220,142448,2,0,P|288:256|288:320,1,89.9999972534181,2|0,0:0|0:0,0:0:0:0:
200,152,142848,2,0,P|216:108|256:72,1,89.9999972534181,2|0,0:0|0:0,0:0:0:0:
444,124,143248,5,2,0:0:0:0:
356,271,143448,1,0,0:0:0:0:
188,252,143648,2,0,L|80:256,1,89.9999972534181,2|0,0:0|0:0,0:0:0:0:
264,356,144048,2,0,L|372:360,1,89.9999972534181,2|0,0:0|0:0,0:0:0:0:
452,216,144448,1,2,0:0:0:0:
452,216,144648,1,0,0:0:0:0:
304,112,144848,6,0,P|288:160|280:216,1,89.9999972534181,2|0,0:0|0:0,0:0:0:0:
336,16,145248,2,0,L|246:24,1,89.9999972534181,2|0,0:0|0:0,0:0:0:0:
72,124,145648,1,2,0:0:0:0:
188,252,145848,1,0,0:0:0:0:
164,72,146048,1,2,0:0:0:0:
72,228,146248,1,0,0:0:0:0:
236,156,146448,6,0,L|332:172,1,89.9999972534181,2|0,0:0|0:0,0:0:0:0:
424,352,146848,2,0,P|372:344|332:316,1,89.9999972534181,2|0,0:0|0:0,0:0:0:0:
460,180,147248,1,2,0:0:0:0:
296,256,147448,1,0,0:0:0:0:
400,120,147648,2,0,L|416:32,1,89.9999972534181,2|0,0:0|0:0,0:0:0:0:
228,66,148048,6,0,P|227:108|239:168,1,89.9999972534181,2|0,0:0|0:0,0:0:0:0:
392,240,148448,1,2,0:0:0:0:
312,104,148648,1,0,0:0:0:0:
192,240,148848,2,0,L|176:332,1,89.9999972534181,2|0,0:0|0:0,0:0:0:0:
56,176,149248,2,0,L|40:84,1,89.9999972534181,2|0,0:0|0:0,0:0:0:0:
235,155,149648,6,0,L|324:163,1,89.9999972534181,2|0,0:0|0:0,0:0:0:0:
468,76,150048,1,2,0:0:0:0:
392,240,150248,2,0,P|392:292|404:332,1,89.9999972534181,0|2,0:0|0:0,0:0:0:0:
480,172,150648,1,0,0:0:0:0:
328,60,150848,1,2,0:0:0:0:
292,236,151048,1,0,0:0:0:0:
416,100,151248,6,0,P|372:96|316:104,1,89.9999972534181,2|0,0:0|0:0,0:0:0:0:
184,216,151648,2,0,L|176:96,1,89.9999972534181,2|0,0:0|0:0,0:0:0:0:
44,248,152048,2,0,L|38:337,1,89.9999972534181,2|0,0:0|0:0,0:0:0:0:
220,315,152448,2,0,P|260:304|308:296,1,89.9999972534181,2|0,0:0|0:0,0:0:0:0:
448,176,152848,6,0,L|340:160,1,89.9999972534181,4|0,0:0|0:0,0:0:0:0:
184,126,153248,2,0,P|180:174|186:231,1,89.9999972534181,4|0,0:0|0:0,0:0:0:0:
260,232,153548,1,0,0:0:0:0:
260,232,153648,2,0,P|304:224|368:220,1,89.9999972534181,4|0,0:0|0:0,0:0:0:0:
480,332,154048,1,2,0:0:0:0:
356,232,154248,2,0,L|348:288,1,44.999998626709,8|8,0:0|0:0,0:0:0:0:
448,176,154448,6,0,P|448:124|436:72,1,100,4|0,0:0|0:0,0:0:0:0:
252,36,154848,2,0,P|239:90|235:134,1,100,8|0,0:0|0:0,0:0:0:0:
280,308,155248,2,0,P|240:304|168:316,1,100,2|0,0:0|0:0,0:0:0:0:
0,372,155648,1,8,0:0:0:0:
172,336,155848,1,0,0:0:0:0:
48,184,156048,6,0,L|172:172,1,100,4|0,0:0|0:0,0:0:0:0:
336,216,156448,1,8,0:0:0:0:
408,52,156648,2,0,B|341:41|285:61|285:61|254:45|254:45|218:65,1,200,2|2,0:0|0:0,0:0:0:0:
336,216,157248,2,0,P|376:195|412:135,1,100,8|0,0:0|0:0,0:0:0:0:
248,272,157648,6,0,P|252:332|276:380,1,100,4|0,0:0|0:0,0:0:0:0:
452,320,158048,1,8,0:0:0:0:
407,151,158248,1,0,0:0:0:0:
248,272,158448,2,0,L|144:260,1,100,2|0,0:0|0:0,0:0:0:0:
32,112,158848,1,8,0:0:0:0:
204,184,159048,6,0,P|208:144|204:84,1,100,2|0,0:0|0:0,0:0:0:0:
68,204,159448,1,2,0:0:0:0:
244,276,159648,1,8,0:0:0:0:
393,128,159848,2,0,B|344:96|344:96|288:80|201:84,1,200,2|2,0:0|0:0,0:0:0:0:
40,184,160448,2,0,L|144:180,1,100,8|0,0:0|0:0,0:0:0:0:
320,300,160848,6,0,P|256:368|164:328,1,200,4|8,0:0|0:0,0:0:0:0:
284,184,161448,1,2,0:0:0:0:
472,264,161648,2,0,L|464:376,1,100,2|0,0:0|0:0,0:0:0:0:
380,216,162048,2,0,L|372:116,1,100,8|0,0:0|0:0,0:0:0:0:
220,264,162448,6,0,B|84:260|84:260|24:240,1,200,4|8,0:0|0:0,0:0:0:0:
80,68,163048,2,0,P|168:64|296:76,1,200,2|2,0:0|0:0,0:0:0:0:
380,216,163648,1,8,0:0:0:0:
208,160,163848,1,0,0:0:0:0:
392,112,164048,6,0,L|512:108,1,100,4|0,0:0|0:0,0:0:0:0:
420,288,164448,2,0,P|375:297|311:269,1,100,8|0,0:0|0:0,0:0:0:0:
160,224,164848,2,0,L|152:323,1,100,2|2,0:0|0:0,0:0:0:0:
216,368,165148,1,2,0:0:0:0:
216,368,165248,1,8,0:0:0:0:
268,220,165448,1,0,0:0:0:0:
132,120,165648,6,0,P|188:112|252:116,1,100,4|0,0:0|0:0,0:0:0:0:
396,192,166048,2,0,P|424:192|448:188,1,50,8|0,0:0|0:0,0:0:0:0:
484,112,166248,1,2,0:0:0:0:
288,208,166448,2,0,L|296:308,1,100,2|2,0:0|0:0,0:0:0:0:
232,368,166748,1,2,0:0:0:0:
232,368,166848,2,0,P|196:348|160:332,1,50,8|0,0:0|0:0,0:0:0:0:
96,256,167048,2,0,P|80:285|80:309,1,50,2|0,0:0|0:0,0:0:0:0:
188,236,167248,6,0,L|184:136,1,100,4|0,0:0|0:0,0:0:0:0:
36,40,167648,2,0,L|32:139,1,100,8|0,0:0|0:0,0:0:0:0:
212,48,168048,2,0,B|264:28|264:28|328:72|324:156,1,200,2|8,0:0|0:0,0:0:0:0:
212,312,168648,6,0,P|124:288|132:176,1,200,2|2,0:0|0:0,0:0:0:0:
296,232,169248,1,8,0:0:0:0:
184,112,169448,1,0,0:0:0:0:
352,76,169648,2,0,L|456:72,1,100,2|0,0:0|0:0,0:0:0:0:
420,232,170048,2,0,L|312:224,1,100,8|0,0:0|0:0,0:0:0:0:
264,160,170348,1,0,0:0:0:0:
264,160,170448,6,0,P|224:192|200:248,1,100,4|0,0:0|0:0,0:0:0:0:
364,328,170848,1,8,0:0:0:0:
416,144,171048,1,0,0:0:0:0:
240,64,171248,2,0,P|192:64|104:72,1,100,2|0,0:0|0:0,0:0:0:0:
24,212,171648,1,8,0:0:0:0:
175,330,171848,6,0,P|239:260|263:148,1,200,2|2,0:0|0:0,0:0:0:0:
112,256,172448,1,8,0:0:0:0:
284,336,172648,2,0,P|328:340|383:338,1,100,2|0,0:0|0:0,0:0:0:0:
448,180,173048,1,2,0:0:0:0:
296,72,173248,2,0,P|276:128|264:176,1,100,8|0,0:0|0:0,0:0:0:0:
175,330,173648,6,0,P|163:222|127:126,1,200,4|8,0:0|0:0,0:0:0:0:
256,300,174248,2,0,P|356:296|464:256,1,200,2|2,0:0|0:0,0:0:0:0:
400,88,174848,1,8,0:0:0:0:
400,88,175048,1,2,0:0:0:0:
240,176,175248,6,0,B|180:192|144:148|144:148|104:180|116:236,1,200,2|8,0:0|0:0,0:0:0:0:
256,300,175848,1,2,0:0:0:0:
384,180,176048,2,0,L|379:80,1,100,2|0,0:0|0:0,0:0:0:0:
208,32,176448,2,0,P|168:44|80:48,1,100,8|0,0:0|0:0,0:0:0:0:
40,228,176848,6,0,P|83:261|103:313,1,100,4|0,0:0|0:0,0:0:0:0:
272,332,177248,2,0,L|380:316,1,100,8|0,0:0|0:0,0:0:0:0:
240,196,177648,2,0,L|132:180,1,100,2|0,0:0|0:0,0:0:0:0:
312,88,178048,2,0,L|420:72,1,100,8|0,0:0|0:0,0:0:0:0:
480,260,178448,5,2,0:0:0:0:
340,172,178648,1,2,0:0:0:0:
192,280,178848,2,0,L|200:384,1,100,8|2,0:0|0:0,0:0:0:0:
284,360,179148,1,2,0:0:0:0:
284,360,179248,2,0,P|296:332|300:296,1,50,8|0,0:0|0:0,0:0:0:0:
388,232,179448,2,0,P|380:212|372:160,1,50,2|0,0:0|0:0,0:0:0:0:
442,85,179648,1,8,0:0:0:0:
410,73,179748,1,2,0:0:0:0:
374,69,179848,1,2,0:0:0:0:
342,77,179948,1,2,0:0:0:0:
314,89,180048,6,0,B|240:96|196:44|196:44|192:68|168:96,1,179.999994506836,4|2,0:0|0:0,0:0:0:0:
88,244,180848,5,2,0:0:0:0:
248,208,181048,1,2,0:0:0:0:
56,128,181248,1,8,0:0:0:0:
56,128,181648,5,2,0:0:0:0:
212,36,182048,1,2,0:0:0:0:
372,116,182448,2,0,P|380:161|364:236,1,89.9999972534181,2|0,0:0|0:0,0:0:0:0:
264,296,182848,2,0,L|244:188,1,89.9999972534181,8|0,0:0|0:0,0:0:0:0:
144,96,183248,6,0,L|116:304,1,179.999994506836,4|8,0:0|0:0,0:0:0:0:
232,140,183848,1,2,0:0:0:0:
112,24,184048,2,0,P|80:48|60:104,1,89.9999972534181,2|0,0:0|0:0,0:0:0:0:
208,220,184448,2,0,L|308:216,1,89.9999972534181,8|0,0:0|0:0,0:0:0:0:
392,84,184848,6,0,P|404:132|400:200,1,89.9999972534181,2|0,0:0|0:0,0:0:0:0:
328,328,185248,1,8,0:0:0:0:
208,220,185448,1,2,0:0:0:0:
400,260,185648,1,2,0:0:0:0:
236,304,185848,1,2,0:0:0:0:
312,140,186048,2,0,L|308:28,1,89.9999972534181,8|0,0:0|0:0,0:0:0:0:
124,68,186448,6,0,B|104:144|148:144|132:228,1,150.000005722046,4|8,0:0|0:0,0:0:0:0:
16,352,187248,1,2,0:0:0:0:
184,292,187648,1,8,0:0:0:0:
352,352,188048,5,2,0:0:0:0:
256,200,188448,1,8,0:0:0:0:
408,180,188848,5,2,0:0:0:0:
408,180,189048,1,2,0:0:0:0:
220,100,189248,1,8,0:0:0:0:
220,100,189648,5,4,0:0:0:0:
396,60,190048,1,8,0:0:0:0:
224,8,190448,1,2,0:0:0:0:
300,172,190848,1,8,0:0:0:0:
132,248,191248,5,2,0:0:0:0:
20,108,191648,1,8,0:0:0:0:
196,144,192048,5,2,0:0:0:0:
196,144,192248,1,2,0:0:0:0:
12,228,192448,1,8,0:0:0:0:
116,80,192848,5,2,0:0:0:0:
292,108,193248,1,8,0:0:0:0:
456,36,193648,5,2,0:0:0:0:
456,36,193848,1,2,0:0:0:0:
468,208,194048,2,0,L|368:196,1,75.0000028610231,8|0,0:0|0:0,0:0:0:0:
196,144,194448,5,2,0:0:0:0:
316,276,194848,1,8,0:0:0:0:
328,104,195248,5,2,0:0:0:0:
328,104,195448,1,2,0:0:0:0:
200,264,195648,1,8,0:0:0:0:
52,160,196048,5,2,0:0:0:0:
188,44,196448,1,8,0:0:0:0:
292,192,196848,1,2,0:0:0:0:
128,264,197248,1,8,0:0:0:0:
236,120,197648,5,2,0:0:0:0:
340,268,198048,1,8,0:0:0:0:
180,348,198448,1,2,0:0:0:0:
152,168,198848,1,8,0:0:0:0:
324,108,199248,6,0,B|300:160|300:160|308:264,1,150.000005722046,4|8,0:0|0:0,0:0:0:0:
456,152,200048,1,2,0:0:0:0:
276,176,200448,1,8,0:0:0:0:
328,4,200848,5,2,0:0:0:0:
188,116,201248,1,8,0:0:0:0:
344,208,201648,5,2,0:0:0:0:
344,208,201848,1,2,0:0:0:0:
152,268,202048,1,8,0:0:0:0:
304,164,202448,5,2,0:0:0:0:
144,84,202848,1,8,0:0:0:0:
52,240,203248,1,2,0:0:0:0:
208,160,203648,1,8,0:0:0:0:
32,116,204048,5,2,0:0:0:0:
156,248,204448,1,8,0:0:0:0:
232,84,204848,5,2,0:0:0:0:
232,84,205048,1,2,0:0:0:0:
336,260,205248,1,8,0:0:0:0:
472,144,205648,5,2,0:0:0:0:
292,172,206048,1,8,0:0:0:0:
432,284,206448,1,2,0:0:0:0:
264,348,206848,1,8,0:0:0:0:
132,224,207248,5,2,0:0:0:0:
308,264,207648,1,8,0:0:0:0:
252,92,208048,5,2,0:0:0:0:
252,92,208248,1,2,0:0:0:0:
208,288,208448,1,8,0:0:0:0:
72,172,208848,5,2,0:0:0:0:
120,344,209248,1,8,0:0:0:0:
220,192,209648,1,2,0:0:0:0:
368,292,210048,2,0,L|352:196,1,75.0000028610231,8|0,0:0|0:0,0:0:0:0:
440,68,210448,5,2,0:0:0:0:
260,44,210848,1,8,0:0:0:0:
360,192,211248,1,2,0:0:0:0:
208,288,211648,2,0,L|204:352,1,37.5000014305115,8|8,0:0|0:0,0:0:0:0:
284,156,212048,1,4,0:0:0:0:
112,112,212448,5,8,0:0:0:0:
260,44,212648,1,2,0:0:0:0:
60,16,212848,1,2,0:0:0:0:
60,16,213248,1,8,0:0:0:0:
208,120,213648,5,2,0:0:0:0:
380,72,214048,1,8,0:0:0:0:
296,232,214448,1,2,0:0:0:0:
448,328,214848,5,2,0:0:0:0:
408,176,215048,1,2,0:0:0:0:
316,356,215248,5,4,0:0:0:0:
316,356,215648,1,8,0:0:0:0:
140,284,216048,1,2,0:0:0:0:
272,164,216448,5,8,0:0:0:0:
112,124,216648,1,2,0:0:0:0:
304,64,216848,5,4,0:0:0:0:
304,64,217248,1,8,0:0:0:0:
424,200,217648,1,2,0:0:0:0:
300,332,218048,6,0,L|292:268,1,37.5000014305115,8|0,0:0|0:0,0:0:0:0:
332,204,218248,2,0,L|340:132,1,37.5000014305115,8|0,0:0|0:0,0:0:0:0:
236,228,218448,6,0,P|169:230|76:232,1,134.999995880127,4|0,0:0|0:0,0:0:0:0:
88,224,218848,1,8,0:0:0:0:
44,68,219048,2,0,P|88:76|140:96,1,89.9999972534181,2|0,0:0|0:0,0:0:0:0:
284,136,219448,1,2,0:0:0:0:
284,136,219548,1,2,0:0:0:0:
284,136,219648,2,0,P|296:108|296:80,1,44.999998626709,8|0,0:0|0:0,0:0:0:0:
220,20,219848,1,2,0:0:0:0:
392,64,220048,6,0,P|440:60|488:48,1,89.9999972534181,4|0,0:0|0:0,0:0:0:0:
392,176,220448,2,0,P|436:184|504:180,1,89.9999972534181,8|0,0:0|0:0,0:0:0:0:
316,244,220848,1,2,0:0:0:0:
188,328,221048,1,2,0:0:0:0:
188,328,221148,1,2,0:0:0:0:
188,328,221248,1,8,0:0:0:0:
108,196,221448,2,0,L|116:264,1,44.999998626709,2|2,0:0|0:0,0:0:0:0:
208,168,221648,6,0,P|212:100|212:20,1,134.999995880127,4|0,0:0|0:0,0:0:0:0:
200,24,222048,1,8,0:0:0:0:
52,100,222248,1,2,0:0:0:0:
52,100,222348,1,2,0:0:0:0:
52,100,222448,2,0,P|56:148|64:192,1,89.9999972534181,2|0,0:0|0:0,0:0:0:0:
236,248,222848,1,8,0:0:0:0:
172,104,223048,2,0,L|180:156,1,44.999998626709,2|2,0:0|0:0,0:0:0:0:
236,248,223248,6,0,B|340:256|340:256|324:216,1,134.999995880127,4|0,0:0|0:0,0:0:0:0:
292,116,223648,2,0,B|268:104|268:104|264:180,1,89.9999972534181,8|0,0:0|0:0,0:0:0:0:
460,128,224048,1,2,0:0:0:0:
308,24,224248,1,2,0:0:0:0:
408,200,224448,1,8,0:0:0:0:
408,200,224648,1,2,0:0:0:0:
276,324,224848,6,0,P|240:332|184:320,1,89.9999972534181,4|0,0:0|0:0,0:0:0:0:
124,276,225148,1,0,0:0:0:0:
124,276,225248,1,8,0:0:0:0:
200,120,225448,2,0,B|248:96|248:96|284:160|244:224,1,179.999994506836,2|2,0:0|0:0,0:0:0:0:
88,152,226048,2,0,L|84:56,1,89.9999972534181,8|0,0:0|0:0,0:0:0:0:
172,208,226448,5,2,0:0:0:0:
320,144,226648,1,0,0:0:0:0:
320,144,226748,1,0,0:0:0:0:
320,144,226848,2,0,L|320:248,1,89.9999972534181,8|0,0:0|0:0,0:0:0:0:
400,96,227248,1,2,0:0:0:0:
232,140,227448,1,2,0:0:0:0:
400,208,227648,1,8,0:0:0:0:
400,208,227848,1,2,0:0:0:0:
292,368,228048,6,0,P|268:332|260:276,1,89.9999972534181,4|2,0:0|0:0,0:0:0:0:
320,234,228348,1,2,0:0:0:0:
320,234,228448,1,8,0:0:0:0:
172,316,228648,2,0,L|56:304,1,89.9999972534181,2|0,0:0|0:0,0:0:0:0:
136,148,229048,1,2,0:0:0:0:
136,148,229148,1,2,0:0:0:0:
136,148,229248,2,0,P|152:204|160:252,1,89.9999972534181,8|2,0:0|0:0,0:0:0:0:
232,252,229548,1,2,0:0:0:0:
232,252,229648,6,0,P|292:284|304:356,1,134.999995880127,4|2,0:0|0:0,0:0:0:0:
316,352,230048,2,0,L|332:252,1,89.9999972534181,8|0,0:0|0:0,0:0:0:0:
380,80,230448,1,2,0:0:0:0:
480,192,230648,1,2,0:0:0:0:
480,192,230748,1,2,0:0:0:0:
480,192,230848,2,0,P|448:192|424:184,1,44.999998626709,8|0,0:0|0:0,0:0:0:0:
332,148,231048,2,0,P|311:142|272:140,1,44.999998626709,8|0,0:0|0:0,0:0:0:0:
184,176,231248,6,0,P|148:152|136:52,1,134.999995880127,4|0,0:0|0:0,0:0:0:0:
140,56,231648,1,8,0:0:0:0:
312,64,231848,2,0,L|300:172,1,89.9999972534181,2|0,0:0|0:0,0:0:0:0:
220,296,232248,1,2,0:0:0:0:
388,248,232448,2,0,P|428:260|472:280,1,89.9999972534181,8|0,0:0|0:0,0:0:0:0:
296,356,232848,5,4,0:0:0:0:
248,216,233048,2,0,L|236:140,1,44.999998626709,2|0,0:0|0:0,0:0:0:0:
168,112,233248,1,8,0:0:0:0:
108,264,233448,2,0,B|28:236|28:236|32:184|76:152,1,179.999994506836,2|2,0:0|0:0,0:0:0:0:
248,216,234048,2,0,P|248:268|236:324,1,89.9999972534181,8|0,0:0|0:0,0:0:0:0:
176,136,234448,5,4,0:0:0:0:
340,192,234648,2,0,L|404:188,1,44.999998626709,2|0,0:0|0:0,0:0:0:0:
476,220,234848,1,8,0:0:0:0:
504,40,235048,1,2,0:0:0:0:
504,40,235448,1,2,0:0:0:0:
384,189,235648,2,0,P|372:225|360:281,1,89.9999972534181,8|2,0:0|0:0,0:0:0:0:
328,348,235948,1,2,0:0:0:0:
328,348,236048,6,0,P|280:324|240:320,1,89.9999972534181,4|0,0:0|0:0,0:0:0:0:
92,356,236448,2,0,L|79:278,1,44.999998626709,8|2,0:0|0:0,0:0:0:0:
128,212,236648,1,2,0:0:0:0:
52,84,236848,2,0,P|40:157|28:244,1,134.999995880127,4|0,0:0|0:0,0:0:0:0:
0,288,237248,2,0,L|6:243,1,44.999998626709,8|0,0:0|0:0,0:0:0:0:
80,324,237448,2,0,L|120:280,1,44.999998626709,8|0,0:0|0:0,0:0:0:0:
196,360,237648,6,0,L|332:348,1,134.999995880127,4|0,0:0|0:0,0:0:0:0:
344,344,238048,1,8,0:0:0:0:
280,216,238248,2,0,P|276:240|284:284,1,44.999998626709,2|0,0:0|0:0,0:0:0:0:
376,196,238448,2,0,L|384:80,1,89.9999972534181,2|0,0:0|0:0,0:0:0:0:
216,16,238848,2,0,P|212:60|217:112,1,89.9999972534181,8|2,0:0|0:0,0:0:0:0:
288,136,239148,1,2,0:0:0:0:
288,136,239248,5,4,0:0:0:0:
120,80,239448,1,2,0:0:0:0:
200,204,239648,1,8,0:0:0:0:
296,52,239848,2,0,P|388:60|488:72,1,179.999994506836,2|2,0:0|0:0,0:0:0:0:
360,204,240448,2,0,P|328:216|284:256,1,89.9999972534181,8|2,0:0|0:0,0:0:0:0:
248,332,240748,1,2,0:0:0:0:
248,332,240848,6,0,L|124:324,1,89.9999972534181,4|0,0:0|0:0,0:0:0:0:
40,216,241248,2,0,L|100:212,1,44.999998626709,8|0,0:0|0:0,0:0:0:0:
212,200,241448,2,0,P|152:240|160:156,1,179.999994506836,2|2,0:0|0:0,0:0:0:0:
296,104,242048,2,0,P|300:136|292:160,1,44.999998626709,8|0,0:0|0:0,0:0:0:0:
204,88,242248,2,0,L|196:36,1,44.999998626709,8|0,0:0|0:0,0:0:0:0:
300,16,242448,6,0,L|389:19,1,89.9999972534181,4|2,0:0|0:0,0:0:0:0:
488,160,242848,2,0,L|443:163,1,44.999998626709,8|0,0:0|0:0,0:0:0:0:
384,100,243048,1,8,0:0:0:0:
308,248,243248,2,0,L|300:296,1,44.999998626709,8|0,0:0|0:0,0:0:0:0:
372,192,243448,1,8,0:0:0:0:
344,176,243548,1,8,0:0:0:0:
312,172,243648,2,0,P|272:180|236:224,1,89.9999972534181,8|0,0:0|0:0,0:0:0:0:
140,360,244048,6,0,L|48:356,1,89.9999972534181,4|0,0:0|0:0,0:0:0:0:
0,184,244448,2,0,P|44:168|100:160,1,89.9999972534181,2|0,0:0|0:0,0:0:0:0:
232,268,244848,2,0,P|260:236|268:152,1,89.9999972534181,2|0,0:0|0:0,0:0:0:0:
228,20,245248,2,0,P|203:65|199:105,1,89.9999972534181,2|0,0:0|0:0,0:0:0:0:
376,80,245648,6,0,L|465:91,1,89.9999972534181,2|0,0:0|0:0,0:0:0:0:
476,264,246048,1,2,0:0:0:0:
348,160,246248,1,0,0:0:0:0:
304,332,246448,1,2,0:0:0:0:
412,216,246648,1,0,0:0:0:0:
240,260,246848,2,0,P|200:264|148:264,1,89.9999972534181,2|0,0:0|0:0,0:0:0:0:
128,88,247248,6,0,P|140:140|137:181,1,89.9999972534181,2|0,0:0|0:0,0:0:0:0:
68,344,247648,1,2,0:0:0:0:
68,344,247848,1,0,0:0:0:0:
240,312,248048,2,0,L|336:308,1,89.9999972534181,2|0,0:0|0:0,0:0:0:0:
436,160,248448,2,0,P|456:208|452:247,1,89.9999972534181,2|0,0:0|0:0,0:0:0:0:
292,164,248848,5,2,0:0:0:0:
440,80,249048,1,0,0:0:0:0:
260,24,249248,1,2,0:0:0:0:
384,144,249448,1,0,0:0:0:0:
212,104,249648,2,0,L|116:116,1,89.9999972534181,2|0,0:0|0:0,0:0:0:0:
200,272,250048,2,0,L|289:283,1,89.9999972534181,2|0,0:0|0:0,0:0:0:0:
468,248,250448,6,0,P|472:308|468:344,1,89.9999972534181,2|0,0:0|0:0,0:0:0:0:
356,220,250848,1,2,0:0:0:0:
356,220,251048,1,0,0:0:0:0:
248,352,251248,2,0,L|136:356,1,89.9999972534181,2|0,0:0|0:0,0:0:0:0:
52,224,251648,1,2,0:0:0:0:
52,224,251848,1,0,0:0:0:0:
184,104,252048,6,0,P|204:156|204:204,1,89.9999972534181,2|0,0:0|0:0,0:0:0:0:
68,108,252448,1,2,0:0:0:0:
216,24,252648,2,0,P|268:36|308:60,1,89.9999972534181,0|2,0:0|0:0,0:0:0:0:
404,176,253048,1,0,0:0:0:0:
276,280,253248,2,0,L|279:369,1,89.9999972534181,2|0,0:0|0:0,0:0:0:0:
452,316,253648,6,0,P|472:272|472:212,1,89.9999972534181,2|0,0:0|0:0,0:0:0:0:
416,60,254048,2,0,L|324:68,1,89.9999972534181,2|0,0:0|0:0,0:0:0:0:
212,196,254448,2,0,P|252:180|300:132,1,89.9999972534181,2|0,0:0|0:0,0:0:0:0:
112,184,254848,2,0,L|116:288,1,89.9999972534181,2|0,0:0|0:0,0:0:0:0:
276,340,255248,6,0,P|320:320|380:304,1,89.9999972534181,4|0,0:0|0:0,0:0:0:0:
492,192,255648,2,0,P|448:172|388:156,1,89.9999972534181,4|0,0:0|0:0,0:0:0:0:
252,80,256048,2,0,P|296:60|356:44,1,89.9999972534181,4|0,0:0|0:0,0:0:0:0:
340,220,256448,1,2,0:0:0:0:
212,152,256648,1,0,0:0:0:0:
92,276,256848,6,0,L|81:382,1,75.0000028610231,4|0,0:0|0:0,0:0:0:0:
68,196,257248,2,0,L|56:300,1,75.0000028610231,8|0,0:0|0:0,0:0:0:0:
236,340,257648,6,0,P|264:296|304:264,1,100,4|0,0:0|0:0,0:0:0:0:
456,188,258048,1,2,0:0:0:0:
316,76,258248,1,2,0:0:0:0:
316,76,258348,1,2,0:0:0:0:
316,76,258448,6,0,L|204:84,1,100,2|0,0:0|0:0,0:0:0:0:
128,248,258848,1,8,0:0:0:0:
300,232,259048,2,0,P|304:284|296:332,1,100,0|2,0:0|0:0,0:0:0:0:
232,164,259448,1,2,0:0:0:0:
232,164,259548,1,2,0:0:0:0:
232,164,259648,1,8,0:0:0:0:
408,116,259848,1,2,0:0:0:0:
236,32,260048,6,0,L|128:20,1,100,4|0,0:0|0:0,0:0:0:0:
64,60,260348,1,0,0:0:0:0:
64,60,260448,2,0,P|36:112|16:168,1,100,8|0,0:0|0:0,0:0:0:0:
52,332,260848,2,0,B|92:272|144:268|144:268|168:304|216:316,1,200,2|8,0:0|0:0,0:0:0:0:
360,224,261448,1,0,0:0:0:0:
216,120,261648,6,0,L|224:236,1,100,2|0,0:0|0:0,0:0:0:0:
324,68,262048,1,8,0:0:0:0:
156,20,262248,1,2,0:0:0:0:
128,200,262448,2,0,L|112:96,1,100,2|0,0:0|0:0,0:0:0:0:
296,56,262848,2,0,P|291:110|288:168,1,100,8|0,0:0|0:0,0:0:0:0:
356,352,263248,6,0,P|256:324|148:296,1,200,4|8,0:0|0:0,0:0:0:0:
0,256,263848,1,2,0:0:0:0:
180,208,264048,2,0,P|204:164|216:88,1,100,2|0,0:0|0:0,0:0:0:0:
372,36,264448,2,0,P|372:88|392:144,1,100,8|0,0:0|0:0,0:0:0:0:
484,296,264848,5,4,0:0:0:0:
308,256,265048,2,0,L|304:156,1,100,0|8,0:0|0:0,0:0:0:0:
144,56,265448,2,0,B|120:108|120:108|128:272,1,200,2|2,0:0|0:0,0:0:0:0:
276,352,266048,1,8,0:0:0:0:
276,352,266248,1,0,0:0:0:0:
388,208,266448,6,0,P|348:172|288:164,1,100,4|0,0:0|0:0,0:0:0:0:
164,272,266848,2,0,L|168:392,1,100,8|0,0:0|0:0,0:0:0:0:
220,188,267248,2,0,L|216:64,1,100,2|0,0:0|0:0,0:0:0:0:
80,224,267648,2,0,L|56:340,1,100,8|0,0:0|0:0,0:0:0:0:
264,268,268048,6,0,P|312:276|360:308,1,100,4|0,0:0|0:0,0:0:0:0:
468,152,268448,2,0,L|358:140,1,100,8|0,0:0|0:0,0:0:0:0:
208,64,268848,1,2,0:0:0:0:
308,196,269048,1,2,0:0:0:0:
372,52,269248,1,8,0:0:0:0:
376,44,269348,1,8,0:0:0:0:
380,36,269448,2,0,L|460:28,1,50,8|0,0:0|0:0,0:0:0:0:
296,104,269648,6,0,B|264:112|264:112|183:108,1,100,4|0,0:0|0:0,0:0:0:0:
116,84,269948,1,0,0:0:0:0:
116,84,270048,2,0,P|96:128|88:180,1,100,8|0,0:0|0:0,0:0:0:0:
192,324,270448,2,0,B|293:295|289:351|389:311,1,200,2|8,0:0|0:0,0:0:0:0:
476,156,271048,1,2,0:0:0:0:
296,104,271248,6,0,P|244:120|184:148,1,100,4|0,0:0|0:0,0:0:0:0:
372,212,271648,1,8,0:0:0:0:
432,48,271848,1,2,0:0:0:0:
288,192,272048,2,0,P|264:240|240:296,1,100,2|0,0:0|0:0,0:0:0:0:
444,336,272448,2,0,L|456:216,1,100,8|0,0:0|0:0,0:0:0:0:
352,48,272848,6,0,P|264:88|144:84,1,200,4|8,0:0|0:0,0:0:0:0:
8,24,273448,1,2,0:0:0:0:
116,176,273648,2,0,P|120:224|112:288,1,100,2|0,0:0|0:0,0:0:0:0:
40,112,274048,1,8,0:0:0:0:
224,192,274248,6,0,P|271:199|323:195,1,100,2|0,0:0|0:0,0:0:0:0:
456,88,274648,1,2,0:0:0:0:
276,40,274848,1,8,0:0:0:0:
412,176,275048,2,0,P|426:217|430:297,1,100,2|0,0:0|0:0,0:0:0:0:
272,344,275448,1,2,0:0:0:0:
136,212,275648,2,0,L|148:88,1,100,8|0,0:0|0:0,0:0:0:0:
292,244,276048,6,0,P|208:188|140:104,1,200,4|8,0:0|0:0,0:0:0:0:
312,32,276648,1,2,0:0:0:0:
412,176,276848,2,0,L|396:312,1,100,2|0,0:0|0:0,0:0:0:0:
301,131,277248,2,0,L|313:15,1,100,8|0,0:0|0:0,0:0:0:0:
292,244,277648,6,0,P|213:256|76:284,1,200,4|8,0:0|0:0,0:0:0:0:
16,112,278248,2,0,P|95:124|232:152,1,200,2|2,0:0|0:0,0:0:0:0:
384,200,278848,1,8,0:0:0:0:
384,200,279048,1,2,0:0:0:0:
297,31,279248,6,0,L|301:159,1,100,4|0,0:0|0:0,0:0:0:0:
344,328,279648,2,0,P|300:304|244:288,1,100,8|0,0:0|0:0,0:0:0:0:
80,352,280048,1,2,0:0:0:0:
180,212,280248,1,2,0:0:0:0:
40,112,280448,2,0,L|52:-4,1,100,8|0,0:0|0:0,0:0:0:0:
84,196,280848,5,4,0:0:0:0:
236,104,281048,1,2,0:0:0:0:
272,108,281148,1,2,0:0:0:0:
308,112,281248,1,2,0:0:0:0:
344,116,281348,1,2,0:0:0:0:
380,120,281448,1,2,0:0:0:0:
356,144,281548,1,2,0:0:0:0:
340,176,281648,1,2,0:0:0:0:
328,208,281748,1,2,0:0:0:0:
320,240,281848,1,2,0:0:0:0:
316,276,281948,1,2,0:0:0:0:
328,308,282048,6,0,P|296:300|248:296,1,50,8|0,0:0|0:0,0:0:0:0:
416,360,282248,2,0,P|444:360|465:350,1,50,8|8,0:0|0:0,0:0:0:0:
464,200,282448,6,0,L|476:80,1,100,4|0,0:0|0:0,0:0:0:0:
289,21,282848,2,0,P|257:57|233:117,1,100,8|0,0:0|0:0,0:0:0:0:
316,276,283248,2,0,P|208:260|100:252,1,200,2|8,0:0|0:0,0:0:0:0:
28,104,283848,1,2,0:0:0:0:
208,144,284048,6,0,P|260:136|324:128,1,100,4|0,0:0|0:0,0:0:0:0:
464,44,284448,1,8,0:0:0:0:
443,227,284648,2,0,P|367:227|307:127,1,200,2|2,0:0|0:0,0:0:0:0:
164,240,285248,2,0,L|152:352,1,100,8|0,0:0|0:0,0:0:0:0:
48,180,285648,6,0,P|72:144|132:108,1,100,4|0,0:0|0:0,0:0:0:0:
268,216,286048,1,8,0:0:0:0:
268,216,286248,1,0,0:0:0:0:
204,40,286448,2,0,L|212:152,1,100,2|0,0:0|0:0,0:0:0:0:
284,328,286848,1,8,0:0:0:0:
463,229,287048,6,0,B|399:205|399:205|255:217,1,200,4|2,0:0|0:0,0:0:0:0:
400,328,287648,1,8,0:0:0:0:
492,148,287848,2,0,L|488:48,1,100,2|0,0:0|0:0,0:0:0:0:
463,229,288248,1,2,0:0:0:0:
320,108,288448,2,0,P|274:100|214:100,1,100,8|0,0:0|0:0,0:0:0:0:
124,272,288848,6,0,L|101:73,1,200,4|8,0:0|0:0,0:0:0:0:
24,224,289448,1,2,0:0:0:0:
212,184,289648,2,0,L|336:200,1,100,2|0,0:0|0:0,0:0:0:0:
452,316,290048,1,8,0:0:0:0:
452,316,290248,1,0,0:0:0:0:
311,196,290448,6,0,P|319:92|391:4,1,200,4|8,0:0|0:0,0:0:0:0:
396,232,291048,2,0,P|316:288|228:240,1,200,2|2,0:0|0:0,0:0:0:0:
400,128,291648,1,8,0:0:0:0:
400,128,291848,1,0,0:0:0:0:
216,72,292048,6,0,L|96:60,1,100,4|0,0:0|0:0,0:0:0:0:
32,220,292448,1,8,0:0:0:0:
208,156,292648,2,0,P|248:248|272:356,1,200,2|2,0:0|0:0,0:0:0:0:
80,316,293248,2,0,P|116:264|156:228,1,100,8|0,0:0|0:0,0:0:0:0:
348,216,293648,5,4,0:0:0:0:
216,72,293848,1,2,0:0:0:0:
400,128,294048,2,0,L|506:121,1,100,8|0,0:0|0:0,0:0:0:0:
312,64,294448,2,0,P|300:88|295:111,1,50,8|0,0:0|0:0,0:0:0:0:
348,216,294648,2,0,P|356:240|360:284,1,50,8|0,0:0|0:0,0:0:0:0:
276,352,294848,1,2,0:0:0:0:
240,352,294948,1,2,0:0:0:0:
204,344,295048,1,2,0:0:0:0:
172,328,295148,1,2,0:0:0:0:
148,300,295248,6,0,L|136:184,1,100,4|0,0:0|0:0,0:0:0:0:
180,128,295548,1,0,0:0:0:0:
180,128,295648,2,0,P|132:148|64:144,1,100,8|0,0:0|0:0,0:0:0:0:
212,36,296048,2,0,P|248:56|280:116,1,100,2|0,0:0|0:0,0:0:0:0:
352,296,296448,1,8,0:0:0:0:
204,208,296648,1,0,0:0:0:0:
376,112,296848,6,0,L|484:100,1,100,4|0,0:0|0:0,0:0:0:0:
348,216,297248,1,8,0:0:0:0:
240,84,297448,1,2,0:0:0:0:
240,84,297548,1,2,0:0:0:0:
240,84,297648,1,2,0:0:0:0:
84,116,297848,1,2,0:0:0:0:
196,264,298048,2,0,L|190:364,1,100,8|0,0:0|0:0,0:0:0:0:
348,216,298448,6,0,L|353:115,1,100,4|0,0:0|0:0,0:0:0:0:
424,68,298748,1,0,0:0:0:0:
424,68,298848,1,8,0:0:0:0:
260,16,299048,1,0,0:0:0:0:
140,148,299248,2,0,L|256:144,1,100,2|0,0:0|0:0,0:0:0:0:
68,80,299648,1,8,0:0:0:0:
168,232,299848,6,0,L|280:236,1,100,2|0,0:0|0:0,0:0:0:0:
420,152,300248,1,2,0:0:0:0:
368,324,300448,1,8,0:0:0:0:
308,128,300648,2,0,B|272:76|208:56|208:56|160:132,1,200,2|2,0:0|0:0,0:0:0:0:
240,327,301248,2,0,P|264:291|264:223,1,100,8|0,0:0|0:0,0:0:0:0:
48,168,301648,6,0,L|68:368,1,200,4|8,0:0|0:0,0:0:0:0:
176,232,302248,1,2,0:0:0:0:
100,64,302448,2,0,L|-28:80,1,100,2|0,0:0|0:0,0:0:0:0:
192,128,302848,2,0,L|320:144,1,100,8|0,0:0|0:0,0:0:0:0:
488,112,303248,6,0,P|396:156|352:256,1,200,4|8,0:0|0:0,0:0:0:0:
404,48,303848,2,0,P|304:40|204:40,1,200,2|2,0:0|0:0,0:0:0:0:
259,199,304448,2,0,P|229:158|177:119,1,100,8|0,0:0|0:0,0:0:0:0:
104,300,304848,5,4,0:0:0:0:
276,284,305048,1,2,0:0:0:0:
96,204,305248,1,8,0:0:0:0:
200,340,305448,1,2,0:0:0:0:
259,199,305648,2,0,P|268:160|296:96,1,100,2|0,0:0|0:0,0:0:0:0:
456,152,306048,2,0,P|452:224|448:272,1,100,8|0,0:0|0:0,0:0:0:0:
332,376,306448,6,0,P|296:368|252:364,1,50,8|0,0:0|0:0,0:0:0:0:
200,340,306648,1,2,0:0:0:0:
340,216,306848,2,0,P|320:256|259:287,1,100,8|0,0:0|0:0,0:0:0:0:
104,212,307248,1,8,0:0:0:0:
96,204,307348,2,0,P|64:212|40:224,1,50,8|0,0:0|0:0,0:0:0:0:
128,288,307548,1,0,0:0:0:0:
160,272,307648,1,8,0:0:0:0:
180,244,307748,1,2,0:0:0:0:
188,212,307848,1,2,0:0:0:0:
180,176,307948,1,2,0:0:0:0:
160,148,308048,6,0,P|216:180|272:188,1,100,4|0,0:0|0:0,0:0:0:0:
384,80,308448,1,2,0:0:0:0:
468,244,308648,2,0,L|460:356,1,100,0|2,0:0|0:0,0:0:0:0:
376,188,309048,1,0,0:0:0:0:
252,328,309248,2,0,L|140:332,1,100,2|0,0:0|0:0,0:0:0:0:
28,192,309648,6,0,L|127:195,1,100,2|0,0:0|0:0,0:0:0:0:
256,60,310048,2,0,L|156:63,1,100,2|0,0:0|0:0,0:0:0:0:
292,184,310448,1,2,0:0:0:0:
456,120,310648,1,0,0:0:0:0:
284,40,310848,1,2,0:0:0:0:
284,40,311048,1,2,0:0:0:0:
384,192,311248,6,0,P|384:240|376:308,1,100,4|0,0:0|0:0,0:0:0:0:
216,232,311648,1,2,0:0:0:0:
368,108,311848,2,0,P|420:116|464:156,1,100,0|2,0:0|0:0,0:0:0:0:
392,312,312248,1,0,0:0:0:0:
216,232,312448,2,0,L|96:224,1,100,2|0,0:0|0:0,0:0:0:0:
300,208,312848,5,2,0:0:0:0:
192,52,313048,1,0,0:0:0:0:
192,52,313248,2,0,P|184:112|200:168,1,100,2|0,0:0|0:0,0:0:0:0:
216,232,313548,1,0,0:0:0:0:
216,232,313648,1,2,0:0:0:0:
384,192,313848,1,0,0:0:0:0:
280,48,314048,1,2,0:0:0:0:
440,96,314248,1,0,0:0:0:0:
260,144,314448,6,0,L|160:137,1,100,4|0,0:0|0:0,0:0:0:0:
32,24,314848,1,2,0:0:0:0:
152,152,315048,2,0,P|136:204|112:260,1,100,0|2,0:0|0:0,0:0:0:0:
136,60,315448,2,0,L|252:56,1,100,0|2,0:0|0:0,0:0:0:0:
332,207,315848,6,0,P|284:179|254:129,1,100,0|2,0:0|0:0,0:0:0:0:
424,68,316248,2,0,L|428:180,1,100,0|2,0:0|0:0,0:0:0:0:
452,344,316648,1,0,0:0:0:0:
288,316,316848,1,2,0:0:0:0:
456,252,317048,1,0,0:0:0:0:
300,124,317248,2,0,P|248:125|200:129,1,100,2|0,0:0|0:0,0:0:0:0:
60,256,317648,6,0,L|50:355,1,100,4|0,0:0|0:0,0:0:0:0:
164,212,318048,1,2,0:0:0:0:
72,64,318248,2,0,L|80:172,1,100,0|2,0:0|0:0,0:0:0:0:
160,316,318648,1,0,0:0:0:0:
324,220,318848,1,2,0:0:0:0:
188,120,319048,1,0,0:0:0:0:
344,40,319248,6,0,P|372:76|392:128,1,100,2|0,0:0|0:0,0:0:0:0:
272,308,319648,2,0,P|244:272|224:220,1,100,2|0,0:0|0:0,0:0:0:0:
391,126,320048,1,2,0:0:0:0:
391,126,320248,1,0,0:0:0:0:
168,144,320448,1,2,0:0:0:0:
168,144,320848,5,2,0:0:0:0:
256,192,320948,12,0,324648,0:0:0:0:
