osu file format v14

[General]
AudioFilename: audio.mp3
AudioLeadIn: 0
PreviewTime: 40471
Countdown: 0
SampleSet: Soft
StackLeniency: 0.7
Mode: 0
LetterboxInBreaks: 0
WidescreenStoryboard: 0

[Editor]
DistanceSpacing: 0.5
BeatDivisor: 4
GridSize: 32
TimelineZoom: 2.699998

[Metadata]
Title:Birthday Song,Requiem
TitleUnicode:Birthday Song,Requiem
Artist:Lia
ArtistUnicode:Lia
Creator:itay
Version:Euphoria
Source:
Tags:麻枝准 前田純 pop j-pop jpop magome togoshi maeda jun key sounds label studio japanese
BeatmapID:3423486
BeatmapSetID:1675797

[Difficulty]
HPDrainRate:5
CircleSize:5
OverallDifficulty:8.7
ApproachRate:8.5
SliderMultiplier:1.4
SliderTickRate:1

[Events]
//Background and Video events
0,0,"HOMURA AKEMI.jpg",0,0
//Break Periods
2,71568,80759
2,159456,172057
//Storyboard Layer 0 (Background)
//Storyboard Layer 1 (Fail)
//Storyboard Layer 2 (Pass)
//Storyboard Layer 3 (Foreground)
//Storyboard Layer 4 (Overlay)
//Storyboard Sound Samples

[TimingPoints]
383,422.535211267606,4,2,4,40,1,0
13904,-125,4,2,4,45,0,0
24044,-250,4,2,4,45,0,0
27425,-125,4,2,4,45,0,0
30594,-250,4,2,4,45,0,0
34185,-125,4,2,4,45,0,0
39256,-125,4,2,4,46,0,0
39890,-125,4,2,4,48,0,0
40523,-125,4,2,4,50,0,0
40946,-100,4,2,4,55,0,0
81509,-100,4,2,4,50,0,0
108552,-100,4,2,4,55,0,0
136228,-83.3333333333333,4,2,4,55,0,0
154185,-83.3333333333333,4,2,4,60,0,0
155664,-76.9230769230769,4,2,4,65,0,0
156509,-71.4285714285714,4,2,4,70,0,0
159256,-71.4285714285714,4,2,4,55,0,0
172777,-83.3333333333333,4,2,4,40,0,0
174467,-83.3333333333333,4,2,4,45,0,0
176157,-83.3333333333333,4,2,4,50,0,0
177847,-83.3333333333333,4,2,4,55,0,0
181228,-83.3333333333333,4,2,4,50,0,0
182918,-83.3333333333333,4,2,4,45,0,0
184608,-83.3333333333333,4,2,4,55,0,0
186298,-83.3333333333333,4,2,4,60,0,0
187988,-100,4,2,4,55,0,0
215030,-62.5,4,2,4,70,0,1
216615,-62.5,4,2,4,70,0,1
216932,-83.3333333333333,4,2,4,70,0,1
221791,-83.3333333333333,4,2,4,70,0,1
228552,-62.5,4,2,4,75,0,1
230136,-62.5,4,2,4,75,0,1
230453,-71.4285714285714,4,2,4,75,0,1
242073,-144.927536231884,4,2,4,55,0,0
247988,-144.927536231884,4,2,4,35,0,0
269115,-303.030303030303,4,2,4,20,0,0

[Colours]
Combo1 : 232,183,163
Combo2 : 60,212,243
Combo3 : 214,212,199
Combo4 : 229,87,91

[HitObjects]
34,70,383,5,0,0:0:0:0:
34,70,594,1,0,0:0:0:0:
102,34,805,1,0,0:0:0:0:
97,110,1016,1,2,0:0:0:0:
34,70,1439,1,0,0:0:0:0:
184,32,1861,1,0,0:0:0:0:
234,181,2073,5,0,0:0:0:0:
234,181,2284,1,0,0:0:0:0:
166,145,2495,1,0,0:0:0:0:
171,221,2706,1,2,0:0:0:0:
234,181,3129,1,0,0:0:0:0:
84,143,3552,1,0,0:0:0:0:
34,292,3763,5,0,0:0:0:0:
34,292,3975,1,0,0:0:0:0:
102,256,4186,1,0,0:0:0:0:
97,332,4397,1,2,0:0:0:0:
34,292,4819,1,0,0:0:0:0:
184,254,5242,1,0,0:0:0:0:
322,147,5453,5,0,0:0:0:0:
322,147,5664,1,0,0:0:0:0:
288,85,5875,1,0,0:0:0:0:
409,158,6087,1,2,0:0:0:0:
382,223,6509,1,2,0:0:0:0:
254,329,6932,1,0,0:0:0:0:
119,250,7143,5,0,0:0:0:0:
119,250,7354,1,0,0:0:0:0:
208,226,7565,1,0,0:0:0:0:
287,273,7777,1,2,0:0:0:0:
307,362,8199,1,0,0:0:0:0:
119,250,8622,1,0,0:0:0:0:
240,135,8833,5,0,0:0:0:0:
240,135,9044,1,0,0:0:0:0:
151,111,9255,1,0,0:0:0:0:
72,158,9467,1,2,0:0:0:0:
52,247,9889,1,0,0:0:0:0:
240,135,10312,1,0,0:0:0:0:
125,38,10523,5,0,0:0:0:0:
125,38,10734,1,0,0:0:0:0:
214,14,10945,1,0,0:0:0:0:
293,61,11157,1,2,0:0:0:0:
313,150,11579,1,0,0:0:0:0:
88,151,12002,6,0,P|175:100|182:96,1,105,2|0,0:0|0:0,0:0:0:0:
175,83,12425,1,0,0:0:0:0:
187,63,12635,1,0,0:0:0:0:
216,56,12847,1,0,0:0:0:0:
253,63,13058,1,2,0:0:0:0:
292,87,13270,1,0,0:0:0:0:
345,95,13481,1,0,0:0:0:0:
391,62,13692,1,0,0:0:0:0:
377,20,13904,6,0,P|372:39|355:123,1,84
338,124,14326,2,0,P|372:138|390:170,1,56,2|0,0:0|0:0,0:0:0:0:
382,246,14749,2,0,P|418:217|476:196,1,84,2|0,0:0|0:0,0:0:0:0:
453,202,15171,1,0,0:0:0:0:
352,322,15383,2,0,P|299:297|223:281,1,112,2|0,0:0|0:0,0:0:0:0:
70,173,16016,6,0,P|74:205|75:233,1,56,2|0,0:0|0:0,0:0:0:0:
130,358,16439,2,0,P|131:330|134:302,1,56,2|0,0:0|0:0,0:0:0:0:
11,271,16861,1,2,0:0:0:0:
211,254,17073,2,0,P|173:246|66:167,1,168,2|0,0:0|0:0,0:0:0:0:
0,354,17918,2,0,P|131:303|323:245,1,336,2|0,0:0|0:0,0:0:0:0:
317,246,19608,5,0,0:0:0:0:
378,285,19819,1,2,0:0:0:0:
378,285,20030,1,0,0:0:0:0:
339,346,20242,1,2,0:0:0:0:
339,346,20453,1,2,0:0:0:0:
250,306,20664,6,0,P|239:280|208:191,1,112,2|0,0:0|0:0,0:0:0:0:
54,124,21298,2,0,P|36:177|15:228,1,112
53,321,21932,2,0,P|88:310|124:301,1,56,2|0,0:0|0:0,0:0:0:0:
103,318,22249,1,0,0:0:0:0:
99,328,22354,2,0,P|174:344|166:268,1,168,2|0,0:0|0:0,0:0:0:0:
66,157,23199,2,0,P|85:189|119:197,1,56,2|0,0:0|0:0,0:0:0:0:
174,274,23622,2,0,P|201:249|237:243,1,56,2|0,0:0|0:0,0:0:0:0:
164,140,24044,6,0,P|107:61|16:28,1,196,2|0,0:0|0:0,0:0:0:0:
0,191,25735,2,0,P|54:188|89:146,1,112,2|0,0:0|0:0,0:0:0:0:
110,72,26791,1,0,0:0:0:0:
171,44,27002,1,2,0:0:0:0:
110,72,27213,1,2,0:0:0:0:
258,154,27425,6,0,P|297:139|337:126,1,84,2|0,0:0|0:0,0:0:0:0:
354,146,27847,2,0,B|320:151|312:178,1,56,2|0,0:0|0:0,0:0:0:0:
163,245,28270,2,0,P|201:260|233:287,1,84,2|0,0:0|0:0,0:0:0:0:
233,287,28692,1,0,0:0:0:0:
336,365,28904,2,0,P|310:289|301:233,1,112,2|0,0:0|0:0,0:0:0:0:
363,140,29537,2,0,P|321:100|310:101,1,56,2|0,0:0|0:0,0:0:0:0:
256,25,29960,2,0,P|227:43|213:81,1,56,2|0,0:0|0:0,0:0:0:0:
138,146,30383,1,2,0:0:0:0:
141,27,30594,6,0,P|171:48|226:62,1,84,2|0,0:0|0:0,0:0:0:0:
357,46,31439,1,2,0:0:0:0:
357,46,31650,2,0,P|299:88|233:168,1,168,2|0,0:0|0:0,0:0:0:0:
237,161,33129,1,0,0:0:0:0:
181,194,33340,1,2,0:0:0:0:
181,194,33552,1,0,0:0:0:0:
148,138,33762,1,2,0:0:0:0:
148,138,33974,1,2,0:0:0:0:
196,329,34185,6,0,P|243:299|297:286,1,112,2|0,0:0|0:0,0:0:0:0:
271,201,34819,2,0,P|322:213|378:247,1,112,2|0,0:0|0:0,0:0:0:0:
430,303,35453,1,2,0:0:0:0:
460,151,35664,2,0,P|380:155|260:232,1,224,2|0,0:0|0:0,0:0:0:0:
113,84,36721,2,0,P|186:84|219:163,1,168,2|0,0:0|0:0,0:0:0:0:
178,226,37566,5,2,0:0:0:0:
178,226,37988,1,2,0:0:0:0:
228,298,38199,2,0,P|251:267|288:248,1,56,2|0,0:0|0:0,0:0:0:0:
331,223,38622,2,0,P|336:250|333:278,1,56,2|0,0:0|0:0,0:0:0:0:
169,349,39044,2,0,P|152:328|129:313,1,56,2|2,0:0|0:0,0:0:0:0:
7,223,39467,5,2,0:0:0:0:
86,242,39678,1,2,0:0:0:0:
176,197,39890,1,2,0:0:0:0:
236,110,40101,1,2,0:0:0:0:
336,60,40312,1,2,0:0:0:0:
453,99,40523,1,6,1:2:0:0:
453,99,40946,6,0,P|413:106|358:155,1,105,6|0,1:2|0:0,0:0:0:0:
372,211,41368,1,10,0:0:0:0:
210,234,41580,2,0,P|229:241|245:254,1,35,2|0,0:0|0:0,0:0:0:0:
298,337,41791,1,2,1:2:0:0:
288,322,41897,1,2,0:0:0:0:
290,304,42002,1,2,0:0:0:0:
394,378,42213,1,10,0:0:0:0:
215,316,42425,5,2,0:0:0:0:
187,301,42530,1,2,0:0:0:0:
167,325,42636,6,0,L|60:358,1,105,2|0,1:2|0:0,0:0:0:0:
8,321,43059,1,10,0:0:0:0:
146,245,43270,2,0,P|127:237|111:224,1,35,2|0,0:0|0:0,0:0:0:0:
58,138,43481,1,2,1:2:0:0:
45,126,43587,1,2,0:0:0:0:
45,108,43692,1,2,0:0:0:0:
0,213,43904,1,10,0:0:0:0:
27,227,44009,1,2,0:0:0:0:
50,247,44115,1,2,0:0:0:0:
67,273,44221,1,2,0:0:0:0:
77,302,44326,6,0,B|93:323|93:323|166:354,1,105,2|0,1:2|0:0,0:0:0:0:
221,323,44749,1,10,0:0:0:0:
335,225,44960,2,0,L|323:264,1,35,2|0,0:0|0:0,0:0:0:0:
359,314,45171,1,2,1:2:0:0:
264,144,45383,2,0,P|249:152|233:158,2,35,2|2|10,0:0|0:0|0:0,0:0:0:0:
382,86,45805,1,2,0:0:0:0:
406,105,45911,1,2,0:0:0:0:
397,135,46016,6,0,L|354:156,1,35,2|0,1:2|0:0,0:0:0:0:
465,75,46228,1,2,0:0:0:0:
232,158,46439,2,0,P|193:141|141:124,1,70,10|0,0:0|0:0,0:0:0:0:
157,115,46756,1,2,0:0:0:0:
141,123,46861,1,2,1:2:0:0:
0,44,47073,1,2,0:0:0:0:
17,68,47178,1,2,0:0:0:0:
32,96,47284,1,10,0:0:0:0:
46,122,47390,1,2,0:0:0:0:
57,151,47495,1,2,0:0:0:0:
66,181,47601,1,2,0:0:0:0:
70,212,47706,6,0,P|34:276|14:350,2,140,6|10|2,1:2|0:0|1:2,0:0:0:0:
0,196,48763,1,0,0:0:0:0:
159,282,48974,2,0,P|127:296|100:319,1,70,10|0,0:0|0:0,0:0:0:0:
89,332,49291,1,2,0:0:0:0:
97,347,49397,5,2,1:2:0:0:
214,238,49608,2,0,P|219:219|227:197,1,35,2|0,0:0|0:0,0:0:0:0:
188,146,49819,1,10,0:0:0:0:
305,45,50030,2,0,P|314:61|324:83,1,35,2|0,0:0|0:0,0:0:0:0:
382,134,50242,1,2,1:2:0:0:
391,119,50347,1,2,0:0:0:0:
406,110,50453,1,2,0:0:0:0:
511,171,50664,1,10,0:0:0:0:
359,242,50875,1,2,0:0:0:0:
330,227,50981,1,2,0:0:0:0:
315,255,51087,6,0,B|280:277|280:277|276:284|276:284|211:326,1,105,2|0,1:2|0:0,0:0:0:0:
173,351,51509,1,10,0:0:0:0:
100,184,51721,2,0,P|113:194|122:209,1,35,2|0,0:0|0:0,0:0:0:0:
184,232,51932,1,2,1:2:0:0:
40,300,52143,2,0,L|-2:318,2,35,2|2|10,0:0|0:0|0:0,0:0:0:0:
184,232,52566,1,2,0:0:0:0:
205,209,52671,1,2,0:0:0:0:
235,218,52777,6,0,L|293:199,1,35,2|0,1:2|0:0,0:0:0:0:
324,171,52988,1,0,0:0:0:0:
461,285,53199,2,0,L|404:268,1,35,10|0,0:0|0:0,0:0:0:0:
365,300,53411,1,0,0:0:0:0:
268,207,53622,1,2,1:2:0:0:
337,86,53833,1,2,0:0:0:0:
471,124,54044,1,10,0:0:0:0:
444,140,54150,1,2,0:0:0:0:
423,163,54256,1,2,0:0:0:0:
413,192,54361,1,2,0:0:0:0:
407,226,54467,6,0,P|382:270|313:332,2,140,6|10|2,1:2|0:0|1:2,0:0:0:0:
467,281,55523,1,0,0:0:0:0:
288,172,55735,2,0,P|320:183|355:183,1,70,10|0,0:0|0:0,0:0:0:0:
368,170,56052,1,2,0:0:0:0:
361,153,56157,5,2,1:2:0:0:
223,227,56368,2,0,L|214:264,1,35,2|0,0:0|0:0,0:0:0:0:
160,300,56580,1,10,0:0:0:0:
303,357,56791,2,0,L|294:322,1,35,2|0,0:0|0:0,0:0:0:0:
416,241,57002,1,2,1:2:0:0:
384,242,57108,1,2,0:0:0:0:
369,270,57213,1,2,0:0:0:0:
378,300,57319,1,2,0:0:0:0:
404,317,57425,2,0,P|430:323|442:337,1,35,10|0,0:0|0:0,0:0:0:0:
512,239,57636,2,0,P|490:250|469:268,1,35,2|0,0:0|0:0,0:0:0:0:
294,323,57847,6,0,P|243:292|175:275,1,105,2|0,1:2|0:0,0:0:0:0:
162,221,58270,1,10,0:0:0:0:
43,166,58481,2,0,P|28:156|11:151,1,35,2|0,0:0|0:0,0:0:0:0:
102,133,58692,1,2,1:2:0:0:
239,84,58904,2,0,P|253:74|269:70,1,35,2|0,0:0|0:0,0:0:0:0:
180,51,59115,1,10,0:0:0:0:
254,183,59326,1,2,0:0:0:0:
276,205,59432,1,2,0:0:0:0:
258,230,59537,6,0,P|242:238|206:265,1,35,2|0,1:2|0:0,0:0:0:0:
177,291,59749,1,0,0:0:0:0:
291,354,59960,2,0,P|334:370|365:399,1,70,10|0,0:0|0:0,0:0:0:0:
367,375,60277,1,2,0:0:0:0:
382,365,60383,1,2,1:2:0:0:
495,317,60594,1,2,0:0:0:0:
469,298,60699,1,2,0:0:0:0:
445,277,60805,1,10,0:0:0:0:
423,253,60911,1,2,0:0:0:0:
406,226,61016,1,2,0:0:0:0:
393,196,61122,1,2,0:0:0:0:
386,165,61228,6,0,P|398:84|436:33,2,140,6|10|2,1:2|0:0|1:2,0:0:0:0:
456,142,62284,1,0,0:0:0:0:
312,197,62495,2,0,P|284:209|243:257,1,70,10|0,0:0|0:0,0:0:0:0:
237,232,62812,1,2,0:0:0:0:
228,247,62918,5,2,1:2:0:0:
33,299,63129,2,0,P|53:308|76:329,1,35,2|0,0:0|0:0,0:0:0:0:
112,361,63340,1,10,0:0:0:0:
77,203,63552,2,0,P|84:223|86:254,1,35,2|0,0:0|0:0,0:0:0:0:
33,299,63763,1,2,1:2:0:0:
139,159,63974,2,0,B|140:161|143:149|140:137|153:118,2,35,2|2|10,0:0|0:0|0:0,0:0:0:0:
25,55,64397,1,2,0:0:0:0:
52,69,64502,1,2,0:0:0:0:
70,43,64608,6,0,P|88:35|114:19,1,35,2|0,1:2|0:0,0:0:0:0:
159,0,64819,1,2,0:0:0:0:
288,111,65030,2,0,P|270:103|244:87,1,35,10|0,0:0|0:0,0:0:0:0:
199,68,65241,1,2,0:0:0:0:
362,154,65453,2,0,P|338:172|327:193,1,35,2|0,1:2|0:0,0:0:0:0:
233,223,65664,1,2,0:0:0:0:
264,220,65770,1,2,0:0:0:0:
281,246,65875,2,0,L|268:287,1,35,10|0,0:0|0:0,0:0:0:0:
194,339,66087,2,0,L|183:305,1,35,2|0,0:0|0:0,0:0:0:0:
354,243,66298,5,2,1:2:0:0:
415,273,66509,1,2,0:0:0:0:
239,151,66721,2,0,P|261:144|277:136,1,35,10|0,0:0|0:0,0:0:0:0:
325,90,66932,1,2,0:0:0:0:
146,204,67143,1,2,1:2:0:0:
31,24,67354,1,2,0:0:0:0:
61,31,67459,1,2,0:0:0:0:
89,44,67565,1,10,0:0:0:0:
113,62,67671,1,2,0:0:0:0:
137,85,67776,1,2,0:0:0:0:
153,111,67882,1,2,0:0:0:0:
167,138,67988,1,6,1:2:0:0:
256,192,68094,12,2,71368,1:2:0:0:
58,79,81509,6,0,P|99:97|122:143,1,70,6|0,1:2|0:0,0:0:0:0:
164,257,81932,1,10,0:0:0:0:
104,180,82143,1,0,0:0:0:0:
0,261,82354,2,0,P|23:235|55:223,1,70,2|0,1:2|0:0,0:0:0:0:
275,176,82777,1,10,0:0:0:0:
205,193,82988,1,2,0:0:0:0:
205,193,83094,1,2,0:0:0:0:
205,193,83199,6,0,P|217:138|229:71,1,105,2|0,1:2|0:0,0:0:0:0:
206,29,83622,1,10,0:0:0:0:
295,0,83833,1,0,0:0:0:0:
121,20,84044,2,0,P|127:38|143:102,1,70,2|0,1:2|0:0,0:0:0:0:
168,252,84467,1,10,0:0:0:0:
240,235,84678,1,2,0:0:0:0:
240,235,84784,1,2,0:0:0:0:
240,235,84890,6,0,P|228:290|216:357,1,105,2|0,1:2|0:0,0:0:0:0:
165,371,85312,1,8,0:0:0:0:
307,307,85523,2,0,P|323:313|345:326,1,35,2|0,0:0|0:0,0:0:0:0:
390,358,85735,1,2,1:2:0:0:
363,259,85946,2,0,P|347:250|331:244,1,35,2|0,0:0|0:0,0:0:0:0:
241,148,86157,1,10,0:0:0:0:
277,90,86368,1,2,0:0:0:0:
277,90,86474,1,2,0:0:0:0:
277,90,86580,6,0,P|312:73|383:50,1,105,2|0,1:2|0:0,0:0:0:0:
435,33,87002,1,10,0:0:0:0:
322,176,87213,1,0,0:0:0:0:
377,146,87425,1,2,1:2:0:0:
254,230,87636,1,2,0:0:0:0:
244,210,87742,1,2,0:0:0:0:
227,196,87847,2,0,P|208:188|172:188,1,35,10|0,0:0|0:0,0:0:0:0:
198,111,88059,2,0,P|181:116|161:126,1,35,2|0,0:0|0:0,0:0:0:0:
16,135,88270,6,0,P|76:111|118:62,1,105,6|0,1:2|0:0,0:0:0:0:
122,22,88692,1,10,0:0:0:0:
58,194,88904,2,0,P|72:213|79:230,1,35,2|0,0:0|0:0,0:0:0:0:
57,283,89115,1,2,1:2:0:0:
150,134,89326,2,0,P|139:147|131:163,1,35,2|0,0:0|0:0,0:0:0:0:
57,283,89537,1,10,0:0:0:0:
108,339,89749,1,2,0:0:0:0:
108,339,89854,1,2,0:0:0:0:
108,339,89960,6,0,P|150:358|213:389,1,105,2|0,1:2|0:0,0:0:0:0:
265,360,90383,1,10,0:0:0:0:
373,309,90594,1,0,0:0:0:0:
282,212,90805,2,0,P|304:238|314:271,1,70,2|0,1:2|0:0,0:0:0:0:
364,99,91228,2,0,P|341:125|331:158,1,70,10|0,0:0|0:0,0:0:0:0:
240,274,91544,1,0,0:0:0:0:
240,274,91650,6,0,P|207:254|121:229,1,105,2|0,1:2|0:0,0:0:0:0:
82,217,92073,1,10,0:0:0:0:
157,139,92284,1,0,0:0:0:0:
42,282,92495,2,0,P|35:268|15:247,1,35,2|0,1:2|0:0,0:0:0:0:
0,191,92706,1,2,0:0:0:0:
13,177,92812,1,2,0:0:0:0:
23,161,92918,1,10,0:0:0:0:
31,144,93023,1,2,0:0:0:0:
38,126,93129,1,2,0:0:0:0:
43,108,93235,1,2,0:0:0:0:
45,89,93340,6,0,P|32:82|13:75,1,35,2|0,1:2|0:0,0:0:0:0:
0,11,93552,1,2,0:0:0:0:
130,160,93763,2,0,L|163:150,1,35,10|0,0:0|0:0,0:0:0:0:
302,92,93974,1,2,0:0:0:0:
122,164,94185,1,0,1:2:0:0:
257,222,94397,1,2,0:0:0:0:
226,213,94502,1,2,0:0:0:0:
195,221,94608,1,10,0:0:0:0:
173,243,94713,1,2,0:0:0:0:
166,273,94819,1,2,0:0:0:0:
172,303,94925,1,2,0:0:0:0:
192,326,95030,6,0,P|221:338|286:384,1,105,6|0,1:2|0:0,0:0:0:0:
339,352,95453,1,10,0:0:0:0:
257,222,95664,1,0,0:0:0:0:
116,284,95875,1,2,1:2:0:0:
166,342,96087,1,2,0:0:0:0:
166,342,96192,1,2,0:0:0:0:
166,342,96298,1,10,0:0:0:0:
357,248,96509,1,2,0:0:0:0:
357,248,96615,1,2,0:0:0:0:
357,248,96721,6,0,P|348:290|338:359,1,105,2|0,1:2|0:0,0:0:0:0:
278,315,97143,1,10,0:0:0:0:
224,175,97354,1,0,0:0:0:0:
152,97,97566,2,0,P|162:111|170:126,1,35,2|0,1:2|0:0,0:0:0:0:
224,175,97777,1,2,0:0:0:0:
299,17,97988,1,10,0:0:0:0:
241,53,98199,1,2,0:0:0:0:
241,53,98305,1,2,0:0:0:0:
241,53,98411,6,0,P|190:33|132:5,1,105,2|0,1:2|0:0,0:0:0:0:
86,36,98833,1,10,0:0:0:0:
167,166,99044,1,0,0:0:0:0:
310,109,99256,1,2,1:2:0:0:
246,90,99467,1,2,0:0:0:0:
246,90,99573,1,2,0:0:0:0:
246,90,99678,1,10,0:0:0:0:
214,255,99890,1,2,0:0:0:0:
214,255,99995,1,2,0:0:0:0:
214,255,100101,6,0,P|206:292|188:369,1,105,2|0,1:2|0:0,0:0:0:0:
263,344,100523,1,10,0:0:0:0:
173,193,100735,1,0,0:0:0:0:
213,135,100946,1,2,1:2:0:0:
46,206,101157,1,2,0:0:0:0:
65,214,101263,1,2,0:0:0:0:
81,226,101368,2,0,P|101:241|115:276,1,35,10|0,0:0|0:0,0:0:0:0:
142,320,101580,2,0,P|154:307|168:297,1,35,2|0,0:0|0:0,0:0:0:0:
265,201,101791,6,0,P|315:185|388:164,1,105,6|0,1:2|0:0,0:0:0:0:
416,133,102213,1,10,0:0:0:0:
456,190,102425,1,0,0:0:0:0:
416,133,102636,1,2,1:2:0:0:
312,263,102848,1,2,0:0:0:0:
312,263,102953,1,2,0:0:0:0:
312,263,103059,1,10,0:0:0:0:
252,100,103270,1,2,0:0:0:0:
252,100,103375,1,2,0:0:0:0:
252,100,103481,6,0,P|236:49|221:0,1,105,6|0,1:2|0:0,0:0:0:0:
170,54,103904,1,10,0:0:0:0:
73,8,104115,1,0,0:0:0:0:
155,146,104326,1,2,1:2:0:0:
252,100,104537,1,0,0:0:0:0:
140,238,104749,1,10,0:0:0:0:
67,145,104960,1,2,0:0:0:0:
67,145,105066,1,2,0:0:0:0:
67,145,105171,6,0,L|0:125,1,70,6|0,1:2|0:0,0:0:0:0:
216,168,105594,1,10,0:0:0:0:
73,301,105805,2,0,L|140:281,1,70,2|6,0:0|1:2,0:0:0:0:
321,157,106228,1,0,0:0:0:0:
177,224,106439,1,10,0:0:0:0:
255,351,106650,1,2,0:0:0:0:
255,351,106756,1,2,0:0:0:0:
255,351,106861,6,0,P|247:299|239:247,1,105,6|0,1:2|0:0,0:0:0:0:
231,182,107284,1,10,0:0:0:0:
212,34,107495,1,0,0:0:0:0:
83,220,107706,1,10,3:2:0:0:
91,189,107812,1,10,3:2:0:0:
100,158,107918,1,10,3:2:0:0:
109,128,108023,1,10,3:2:0:0:
89,114,108129,1,10,3:2:0:0:
78,76,108235,1,10,3:2:0:0:
65,39,108340,1,10,3:2:0:0:
55,1,108446,1,10,3:2:0:0:
91,14,108552,6,0,P|128:33|210:42,1,105,6|0,1:2|0:0,0:0:0:0:
194,108,108974,1,10,0:0:0:0:
357,32,109185,2,0,L|345:0,1,35,2|0,0:0|0:0,0:0:0:0:
278,108,109397,1,2,1:2:0:0:
293,116,109502,1,2,0:0:0:0:
295,133,109608,1,2,0:0:0:0:
174,191,109819,1,10,0:0:0:0:
273,334,110030,1,2,0:0:0:0:
254,308,110136,1,2,0:0:0:0:
277,286,110242,6,0,P|317:273|392:251,1,105,2|0,1:2|0:0,0:0:0:0:
423,212,110664,1,8,0:0:0:0:
306,94,110875,2,0,P|323:116|331:136,1,35,2|0,0:0|0:0,0:0:0:0:
370,52,111087,1,2,1:2:0:0:
378,36,111192,1,2,0:0:0:0:
389,23,111298,1,2,0:0:0:0:
295,187,111509,1,10,0:0:0:0:
271,166,111615,1,2,0:0:0:0:
245,147,111721,1,2,0:0:0:0:
217,131,111826,1,2,0:0:0:0:
189,116,111932,6,0,P|162:122|66:154,1,105,2|0,1:2|0:0,0:0:0:0:
29,169,112354,1,10,0:0:0:0:
149,19,112566,2,0,P|161:42|166:54,1,35,2|0,0:0|0:0,0:0:0:0:
189,116,112777,1,2,1:2:0:0:
332,51,112988,2,0,L|368:37,2,35,2|2|10,0:0|0:0|0:0,0:0:0:0:
189,116,113411,1,2,0:0:0:0:
214,134,113516,1,2,0:0:0:0:
201,162,113622,6,0,L|142:194,1,35,2|0,1:2|0:0,0:0:0:0:
101,121,113833,1,2,0:0:0:0:
239,245,114044,2,0,P|260:202|292:182,1,70,10|0,0:0|0:0,0:0:0:0:
291,180,114361,1,2,0:0:0:0:
308,180,114467,1,2,1:2:0:0:
203,4,114678,1,2,0:0:0:0:
239,8,114784,1,2,0:0:0:0:
268,18,114890,1,10,0:0:0:0:
295,34,114996,1,2,0:0:0:0:
317,55,115101,1,2,0:0:0:0:
335,80,115206,1,2,0:0:0:0:
346,109,115312,6,0,P|402:83|453:17,2,140,6|8|2,1:2|0:0|1:2,0:0:0:0:
295,60,116368,1,0,0:0:0:0:
176,137,116580,2,0,P|168:116|112:98,1,70,10|0,0:0|0:0,0:0:0:0:
110,100,116897,1,2,0:0:0:0:
100,114,117002,5,2,1:2:0:0:
231,205,117213,2,0,P|238:187|250:165,1,35,2|0,0:0|0:0,0:0:0:0:
294,127,117425,1,10,0:0:0:0:
119,227,117636,2,0,P|126:242|133:258,1,35,2|0,0:0|0:0,0:0:0:0:
153,323,117847,1,2,1:2:0:0:
23,275,118059,1,2,0:0:0:0:
40,271,118164,1,2,0:0:0:0:
52,282,118270,1,10,0:0:0:0:
215,359,118481,1,2,0:0:0:0:
233,384,118587,1,2,0:0:0:0:
263,377,118692,6,0,P|281:371|368:347,1,105,2|0,1:2|0:0,0:0:0:0:
429,331,119115,1,10,0:0:0:0:
289,224,119326,2,0,P|305:239|321:249,1,35,2|0,0:0|0:0,0:0:0:0:
369,205,119537,1,2,1:2:0:0:
277,345,119749,2,0,P|271:359|251:401,2,35,2|2|10,0:0|0:0|0:0,0:0:0:0:
83,206,120171,1,2,0:0:0:0:
99,233,120277,1,2,0:0:0:0:
128,222,120383,6,0,L|175:203,1,35,2|0,1:2|0:0,0:0:0:0:
210,165,120594,1,2,0:0:0:0:
289,295,120805,2,0,L|242:276,1,35,10|0,0:0|0:0,0:0:0:0:
197,313,121016,1,0,0:0:0:0:
359,366,121228,1,2,1:2:0:0:
313,225,121439,1,2,0:0:0:0:
433,171,121650,1,10,0:0:0:0:
435,139,121756,1,2,0:0:0:0:
444,109,121861,1,2,0:0:0:0:
456,80,121967,1,2,0:0:0:0:
471,52,122073,6,0,P|418:19|338:1,2,140,6|8|2,1:2|0:0|1:2,0:0:0:0:
512,0,123129,1,0,0:0:0:0:
391,142,123340,2,0,P|373:94|359:72,1,70,10|0,0:0|0:0,0:0:0:0:
347,70,123657,1,2,0:0:0:0:
330,75,123763,5,2,1:2:0:0:
239,191,123974,2,0,L|249:224,1,35,2|0,0:0|0:0,0:0:0:0:
308,259,124185,1,10,0:0:0:0:
155,347,124397,2,0,L|165:313,1,35,2|0,0:0|0:0,0:0:0:0:
84,213,124608,1,2,1:2:0:0:
57,230,124713,1,2,0:0:0:0:
50,260,124819,1,2,0:0:0:0:
72,286,124925,1,2,0:0:0:0:
103,286,125030,2,0,P|113:272|127:257,1,35,10|0,0:0|0:0,0:0:0:0:
17,142,125242,2,0,P|28:154|39:169,1,35,2|0,0:0|0:0,0:0:0:0:
164,313,125453,6,0,P|206:293|291:270,1,105,2|0,1:2|0:0,0:0:0:0:
310,234,125875,1,10,0:0:0:0:
395,354,126087,2,0,P|377:343|356:316,1,35,2|0,0:0|0:0,0:0:0:0:
310,234,126298,1,2,1:2:0:0:
402,151,126509,2,0,P|386:173|360:189,1,35,2|0,0:0|0:0,0:0:0:0:
310,234,126721,1,10,0:0:0:0:
197,144,126932,1,2,0:0:0:0:
215,118,127037,1,2,0:0:0:0:
200,90,127143,6,0,L|149:107,1,35,2|0,1:2|0:0,0:0:0:0:
114,58,127354,1,2,0:0:0:0:
261,190,127566,2,0,P|281:137|305:99,1,70,10|0,0:0|0:0,0:0:0:0:
297,111,127883,1,2,0:0:0:0:
309,98,127989,1,2,1:2:0:0:
141,196,128199,1,2,0:0:0:0:
160,219,128305,1,2,0:0:0:0:
162,250,128411,1,10,0:0:0:0:
151,279,128516,1,2,0:0:0:0:
123,296,128622,1,2,0:0:0:0:
92,298,128728,1,2,0:0:0:0:
66,283,128833,6,0,P|99:305|167:381,2,140,6|8|2,1:2|0:0|1:2,0:0:0:0:
1,308,129890,1,0,0:0:0:0:
127,212,130101,2,0,P|152:182|165:123,1,70,10|0,0:0|0:0,0:0:0:0:
157,136,130418,1,2,0:0:0:0:
144,124,130523,5,2,1:2:0:0:
20,42,130735,2,0,P|42:34|67:5,1,35,2|0,0:0|0:0,0:0:0:0:
115,0,130946,1,10,0:0:0:0:
62,137,131157,2,0,P|53:115|24:90,1,35,2|0,0:0|0:0,0:0:0:0:
20,42,131368,1,2,1:2:0:0:
215,97,131580,1,2,0:0:0:0:
215,97,131685,1,2,0:0:0:0:
215,97,131791,1,10,0:0:0:0:
135,233,132002,1,2,0:0:0:0:
157,255,132108,1,2,0:0:0:0:
141,282,132213,6,0,L|93:306,1,35,2|0,1:2|0:0,0:0:0:0:
52,325,132425,1,0,0:0:0:0:
190,192,132636,1,10,0:0:0:0:
251,218,132847,1,0,0:0:0:0:
328,347,133059,2,0,P|342:336|358:328,1,35,2|0,1:2|0:0,0:0:0:0:
465,321,133270,1,0,0:0:0:0:
438,304,133375,1,2,0:0:0:0:
425,274,133481,2,0,P|432:249|451:230,1,35,10|0,0:0|0:0,0:0:0:0:
328,347,133692,2,0,P|342:336|358:328,1,35,2|0,0:0|0:0,0:0:0:0:
509,245,133904,5,2,1:2:0:0:
406,126,134115,1,0,0:0:0:0:
512,236,134326,2,0,L|495:282,1,35,10|0,0:0|0:0,0:0:0:0:
471,331,134537,1,0,0:0:0:0:
320,198,134749,1,2,1:2:0:0:
181,366,134960,1,2,0:0:0:0:
210,349,135065,1,2,0:0:0:0:
242,334,135171,1,10,0:0:0:0:
273,319,135276,1,2,0:0:0:0:
305,306,135382,1,2,0:0:0:0:
338,294,135488,1,2,0:0:0:0:
371,281,135594,6,0,P|291:273|223:226,1,140,6|8,1:2|0:0,0:0:0:0:
62,73,136228,2,0,P|53:97|44:127,1,41.9999987182618,2|0,0:0|0:0,0:0:0:0:
83,211,136439,2,0,P|109:130|138:52,1,167.999994873047,2|8,1:2|0:0,0:0:0:0:
223,86,137073,1,2,0:0:0:0:
246,103,137178,1,2,0:0:0:0:
227,79,137284,6,0,L|278:96,1,41.9999987182618,2|0,1:2|0:0,0:0:0:0:
293,155,137495,1,2,0:0:0:0:
316,137,137601,1,2,0:0:0:0:
343,146,137706,1,10,0:0:0:0:
367,130,137812,1,2,0:0:0:0:
390,111,137918,2,0,P|399:162|423:240,1,125.999996154785,2|0,0:0|0:0,0:0:0:0:
477,268,138340,1,0,0:0:0:0:
353,362,138552,1,10,0:0:0:0:
257,234,138763,5,2,0:0:0:0:
262,239,138833,5,2,0:0:0:0:
266,246,138904,5,2,0:0:0:0:
269,253,138974,6,0,L|260:298,1,41.9999987182618,2|0,1:2|0:0,0:0:0:0:
330,230,139185,1,2,0:0:0:0:
191,361,139397,2,0,P|159:335|147:329,1,41.9999987182618,10|0,0:0|0:0,0:0:0:0:
26,339,139608,2,0,P|100:298|141:232,1,125.999996154785,2|0,0:0|0:0,0:0:0:0:
160,210,140030,1,0,0:0:0:0:
121,76,140242,1,10,0:0:0:0:
217,267,140453,1,2,0:0:0:0:
235,233,140559,1,2,0:0:0:0:
272,229,140664,5,2,1:2:0:0:
389,118,140875,2,0,P|368:104|355:85,1,41.9999987182618,2|0,0:0|0:0,0:0:0:0:
225,125,141087,2,0,P|245:138|258:157,1,41.9999987182618,10|0,0:0|0:0,0:0:0:0:
430,228,141298,2,0,B|374:255|321:210|360:173|300:133|226:171,1,209.999993591309,2|0,0:0|0:0,0:0:0:0:
199,200,141932,1,10,0:0:0:0:
243,1,142143,2,0,P|260:23|260:41,1,41.9999987182618,2|2,0:0|0:0,0:0:0:0:
65,202,142354,6,0,B|-53:188|-65:43|113:-65|176:52|106:202|305:146|323:22|265:-7|235:-18,1,503.999984619141,6|10,1:2|0:0,0:0:0:0:
177,155,143833,2,0,P|240:157|295:128,1,125.999996154785,2|0,0:0|0:0,0:0:0:0:
334,73,144256,1,2,0:0:0:0:
170,162,144467,1,10,0:0:0:0:
331,183,144678,2,0,P|350:162|361:138,1,41.9999987182618,2|0,0:0|0:0,0:0:0:0:
334,73,144890,1,2,1:2:0:0:
258,216,145101,1,2,0:0:0:0:
266,220,145206,1,2,0:0:0:0:
273,227,145312,2,0,P|294:248|307:268,1,41.9999987182618,10|0,0:0|0:0,0:0:0:0:
305,365,145523,1,2,0:0:0:0:
323,342,145629,1,2,0:0:0:0:
348,326,145735,6,0,P|411:296|436:293,1,83.9999974365235,6|0,1:2|0:0,0:0:0:0:
263,313,146157,1,10,0:0:0:0:
484,251,146368,2,0,P|421:221|396:218,1,83.9999974365235,2|0,0:0|1:2,0:0:0:0:
263,313,146791,1,0,0:0:0:0:
180,147,147002,1,8,0:0:0:0:
249,182,147213,1,2,0:0:0:0:
249,182,147319,1,2,0:0:0:0:
249,182,147425,5,2,1:2:0:0:
130,38,147636,1,2,0:0:0:0:
1,100,147847,1,10,0:0:0:0:
130,38,148059,1,2,0:0:0:0:
262,114,148270,1,2,1:2:0:0:
326,134,148481,1,0,0:0:0:0:
434,20,148692,1,10,0:0:0:0:
422,90,148904,1,2,0:0:0:0:
422,90,149009,1,2,0:0:0:0:
422,90,149115,5,6,1:2:0:0:
269,177,149326,2,0,L|282:225,2,27.9999991455078,2|2|2,0:0|0:0|0:0,0:0:0:0:
326,134,149537,1,10,0:0:0:0:
146,235,149749,1,2,0:0:0:0:
276,274,149960,1,2,1:2:0:0:
146,235,150171,1,2,0:0:0:0:
146,235,150277,1,2,0:0:0:0:
146,235,150383,1,10,0:0:0:0:
220,378,150594,1,2,0:0:0:0:
220,378,150699,1,2,0:0:0:0:
220,378,150805,5,2,1:2:0:0:
343,280,151016,2,0,L|353:320,1,41.9999987182618,2|0,0:0|0:0,0:0:0:0:
337,291,151228,2,0,L|347:331,1,41.9999987182618,10|0,0:0|0:0,0:0:0:0:
433,354,151439,2,0,L|401:232,1,125.999996154785,2|0,0:0|0:0,0:0:0:0:
344,196,151861,1,2,0:0:0:0:
354,164,151967,1,2,0:0:0:0:
364,132,152073,1,10,0:0:0:0:
374,100,152178,1,2,0:0:0:0:
384,67,152284,1,2,0:0:0:0:
393,34,152390,1,2,0:0:0:0:
402,2,152495,6,0,P|410:38|302:54,1,167.999994873047,6|10,1:2|0:0,0:0:0:0:
294,150,153129,2,0,P|251:126|234:40,1,125.999996154785,2|0,0:0|0:0,0:0:0:0:
282,5,153552,1,2,0:0:0:0:
301,158,153763,1,10,0:0:0:0:
112,151,153974,1,2,0:0:0:0:
112,151,154080,1,2,0:0:0:0:
112,151,154185,6,0,P|155:175|172:261,1,125.999996154785,6|0,1:2|0:0,0:0:0:0:
137,301,154608,1,10,0:0:0:0:
80,81,154819,2,0,P|124:79|201:116,1,125.999996154785,2|0,0:0|0:0,0:0:0:0:
239,165,155242,1,2,0:0:0:0:
57,225,155453,1,10,0:0:0:0:
2,62,155664,6,0,P|47:20|126:9,1,136.499993751526,6|0,0:0|0:0,0:0:0:0:
181,25,156087,1,2,0:0:0:0:
44,116,156298,1,10,0:0:0:0:
277,203,156509,2,0,P|238:138|158:123,1,146.999995513916,6|0,0:0|0:0,0:0:0:0:
44,116,156932,1,2,0:0:0:0:
117,299,157143,1,10,0:0:0:0:
117,299,157354,1,0,0:0:0:0:
277,203,157566,5,10,0:0:0:0:
277,203,157671,1,10,0:0:0:0:
277,203,157777,1,10,0:0:0:0:
415,262,157988,1,10,0:0:0:0:
415,262,158094,1,10,0:0:0:0:
415,262,158199,1,10,0:0:0:0:
304,349,158411,1,10,0:0:0:0:
347,287,158622,1,2,0:0:0:0:
297,358,158833,2,0,L|279:312,1,48.9999985046387,10|0,0:0|0:0,0:0:0:0:
415,262,159044,2,0,L|433:308,1,48.9999985046387,2|0,0:0|0:0,0:0:0:0:
219,249,159256,5,6,0:0:0:0:
392,208,172777,5,6,1:2:0:0:
392,208,172883,2,0,L|433:198,2,41.9999987182618
304,277,173199,1,2,1:2:0:0:
304,277,173305,2,0,L|263:266,2,41.9999987182618
402,197,173622,1,2,1:2:0:0:
402,197,173728,2,0,L|442:186,2,41.9999987182618
291,283,174044,1,2,1:2:0:0:
291,283,174150,2,0,L|250:272,2,41.9999987182618
426,327,174467,5,2,1:2:0:0:
428,301,174573,2,0,P|420:282|401:261,2,41.9999987182618,0|0|0,0:0|0:0|0:0,0:0:0:0:
459,226,174890,1,2,1:2:0:0:
442,207,174996,2,0,P|422:199|394:197,2,41.9999987182618,0|0|0,0:0|0:0|0:0,0:0:0:0:
414,133,175312,1,2,1:2:0:0:
388,131,175418,2,0,P|369:138|348:157,2,41.9999987182618,0|0|0,0:0|0:0|0:0,0:0:0:0:
324,89,175735,1,2,1:2:0:0:
133,173,175946,5,2,0:0:0:0:
135,183,176052,1,2,0:0:0:0:
137,193,176157,2,0,B|142:213|142:213|141:219|141:219|146:241,3,41.9999987182618,2|0|0|0,1:2|0:0|0:0|0:0,0:0:0:0:
242,266,176580,2,0,B|237:286|237:286|238:292|238:292|233:314,3,41.9999987182618,2|0|0|0,1:2|0:0|0:0|0:0,0:0:0:0:
407,296,177002,2,0,B|412:316|412:316|411:322|411:322|416:344,3,41.9999987182618,2|0|0|0,1:2|0:0|0:0|0:0,0:0:0:0:
319,375,177425,1,2,1:2:0:0:
291,181,177636,5,2,0:0:0:0:
287,166,177742,1,2,0:0:0:0:
283,151,177847,2,0,L|224:140,3,41.9999987182618,2|0|0|0,1:2|0:0|0:0|0:0,0:0:0:0:
176,198,178270,1,2,1:2:0:0:
159,219,178375,2,0,L|100:230,2,41.9999987182618
80,105,178692,1,2,1:2:0:0:
58,77,178798,2,0,L|17:69,2,41.9999987182618
113,0,179115,5,2,1:2:0:0:
149,15,179221,1,2,1:2:0:0:
187,30,179326,1,2,1:2:0:0:
223,44,179432,1,2,1:2:0:0:
257,57,179537,2,0,L|349:29,1,83.9999974365235,6|0,1:2|0:0,0:0:0:0:
472,69,179960,5,2,1:2:0:0:
444,80,180066,1,2,0:0:0:0:
417,92,180171,2,0,L|399:156,1,41.9999987182618
253,128,180383,5,2,1:2:0:0:
275,139,180488,1,2,0:0:0:0:
297,149,180594,2,0,L|315:213,1,41.9999987182618
451,207,180805,5,2,1:2:0:0:
432,217,180911,1,2,0:0:0:0:
413,226,181017,2,0,L|395:290,1,41.9999987182618,0|0,0:0|0:0,0:0:0:0:
402,354,181228,5,2,1:2:0:0:
387,361,181333,1,2,0:0:0:0:
372,368,181439,2,0,L|308:350,1,41.9999987182618,0|0,0:0|0:0,0:0:0:0:
290,284,181650,5,2,1:2:0:0:
284,272,181755,1,2,0:0:0:0:
278,260,181861,2,0,L|237:271,1,41.9999987182618,0|0,0:0|0:0,0:0:0:0:
193,352,182073,5,2,1:2:0:0:
189,359,182178,1,2,0:0:0:0:
185,366,182284,2,0,L|121:348,1,41.9999987182618,0|0,0:0|0:0,0:0:0:0:
87,301,182495,5,2,1:2:0:0:
83,303,182600,1,2,0:0:0:0:
79,305,182706,2,0,L|38:316,1,41.9999987182618
157,238,182918,5,2,1:2:0:0:
153,221,183023,1,2,0:0:0:0:
149,205,183129,1,2,0:0:0:0:
144,189,183234,1,2,0:0:0:0:
139,173,183340,1,2,1:2:0:0:
133,157,183446,1,2,0:0:0:0:
127,141,183551,1,2,0:0:0:0:
120,126,183657,1,2,0:0:0:0:
112,111,183763,2,0,P|100:90|79:65,3,41.9999987182618,2|2|2|2,1:2|0:0|0:0|0:0,0:0:0:0:
149,36,184185,2,0,P|160:55|172:72,3,41.9999987182618,2|2|2|2,1:2|0:0|0:0|0:0,0:0:0:0:
219,167,184608,5,2,1:2:0:0:
247,183,184713,1,2,0:0:0:0:
280,186,184819,1,2,0:0:0:0:
311,174,184924,1,2,0:0:0:0:
334,149,185030,1,2,1:2:0:0:
343,117,185136,1,2,0:0:0:0:
338,84,185241,1,2,0:0:0:0:
319,57,185347,1,2,0:0:0:0:
289,40,185453,2,2,P|273:46|252:73,3,41.9999987182618,2|2|2|2,1:2|0:0|0:0|0:0,0:0:0:0:
314,132,185875,2,0,P|329:126|351:99,3,41.9999987182618,2|2|2|2,1:2|0:0|0:0|0:0,0:0:0:0:
108,57,186298,5,8,3:2:0:0:
124,96,186403,1,8,3:2:0:0:
139,136,186509,1,8,3:2:0:0:
280,185,186721,5,8,3:2:0:0:
264,224,186826,1,8,3:2:0:0:
249,264,186932,1,8,3:2:0:0:
44,384,187143,5,8,3:2:0:0:
81,356,187248,1,8,3:2:0:0:
121,334,187354,1,8,3:2:0:0:
159,315,187459,1,8,3:2:0:0:
201,297,187565,1,8,3:2:0:0:
243,283,187671,1,8,3:2:0:0:
287,273,187776,1,8,3:2:0:0:
332,265,187883,1,8,3:2:0:0:
381,268,187988,6,0,P|320:250|265:216,1,105,6|0,1:2|0:0,0:0:0:0:
230,190,188411,1,10,0:0:0:0:
164,59,188622,2,0,P|170:38|184:20,1,35,2|0,0:0|0:0,0:0:0:0:
144,131,188833,1,2,1:2:0:0:
255,43,189044,1,0,0:0:0:0:
96,0,189256,1,10,0:0:0:0:
230,190,189467,1,2,0:0:0:0:
249,164,189573,1,2,0:0:0:0:
279,171,189678,6,0,P|327:156|411:135,1,105,2|0,1:2|0:0,0:0:0:0:
443,111,190101,1,10,0:0:0:0:
507,219,190312,1,0,0:0:0:0:
371,340,190523,1,2,1:2:0:0:
400,248,190735,2,0,L|444:262,1,35,2|0,0:0|0:0,0:0:0:0:
334,205,190946,1,10,0:0:0:0:
301,218,191052,1,2,0:0:0:0:
268,231,191157,1,2,0:0:0:0:
235,243,191263,1,2,0:0:0:0:
203,257,191368,6,0,P|154:245|69:228,1,105,2|0,1:2|0:0,0:0:0:0:
82,298,191791,1,10,0:0:0:0:
15,182,192002,2,0,L|33:134,1,35,2|0,0:0|0:0,0:0:0:0:
0,88,192213,1,2,1:2:0:0:
166,176,192425,2,0,L|226:158,2,35,2|2|10,0:0|0:0|0:0,0:0:0:0:
71,226,192847,1,2,0:0:0:0:
100,237,192953,1,2,0:0:0:0:
89,266,193059,6,0,P|71:275|47:308,1,35,2|0,1:2|0:0,0:0:0:0:
6,199,193270,1,2,0:0:0:0:
125,343,193481,2,0,P|153:303|200:300,1,70,10|0,0:0|0:0,0:0:0:0:
188,298,193798,1,2,0:0:0:0:
200,310,193904,1,2,1:2:0:0:
377,246,194115,1,2,0:0:0:0:
393,273,194220,1,2,0:0:0:0:
394,308,194326,1,10,0:0:0:0:
372,341,194431,1,2,0:0:0:0:
338,356,194537,1,2,0:0:0:0:
300,347,194643,1,2,0:0:0:0:
274,322,194749,6,0,P|291:263|319:187,2,140,6|10|2,1:2|0:0|1:2,0:0:0:0:
357,273,195805,1,2,0:0:0:0:
224,103,196016,2,0,P|238:139|250:173,1,70,10|0,0:0|0:0,0:0:0:0:
237,182,196333,1,2,0:0:0:0:
228,197,196439,5,2,1:2:0:0:
286,53,196650,2,0,P|292:37|300:21,1,35,2|0,0:0|0:0,0:0:0:0:
236,6,196861,1,10,1:2:0:0:
132,100,197073,2,0,P|140:115|146:131,1,35,2|0,0:0|0:0,0:0:0:0:
107,186,197284,1,2,1:2:0:0:
313,125,197495,1,2,0:0:0:0:
313,125,197601,1,2,0:0:0:0:
313,125,197706,1,10,0:0:0:0:
179,253,197918,1,2,0:0:0:0:
164,225,198023,1,2,0:0:0:0:
191,208,198129,6,0,L|307:257,1,105,2|0,1:2|0:0,0:0:0:0:
341,205,198552,1,10,0:0:0:0:
189,355,198763,2,0,P|183:338|157:310,1,35,2|0,0:0|0:0,0:0:0:0:
262,322,198974,1,2,1:2:0:0:
101,372,199185,2,0,L|51:392,2,35,2|2|10,0:0|0:0|0:0,0:0:0:0:
262,322,199608,1,2,0:0:0:0:
279,348,199713,1,2,0:0:0:0:
308,336,199819,6,0,L|370:354,1,35,2|0,1:2|0:0,0:0:0:0:
405,365,200030,1,2,0:0:0:0:
329,233,200242,2,0,L|267:251,1,35,10|0,1:2|0:0,0:0:0:0:
226,266,200453,1,0,0:0:0:0:
400,210,200664,1,2,1:2:0:0:
220,269,200875,1,0,0:0:0:0:
87,162,201087,1,10,0:0:0:0:
106,137,201192,1,2,0:0:0:0:
120,108,201298,1,2,0:0:0:0:
128,77,201404,1,2,0:0:0:0:
130,45,201509,6,0,P|86:18|1:0,2,140,6|10|2,1:2|0:0|1:2,0:0:0:0:
193,90,202566,1,2,0:0:0:0:
117,256,202777,2,0,P|109:222|92:177,1,70,10|0,0:0|0:0,0:0:0:0:
81,179,203094,1,2,0:0:0:0:
64,172,203199,5,2,1:2:0:0:
217,280,203411,2,0,P|207:300|188:324,1,35,2|0,0:0|0:0,0:0:0:0:
157,361,203622,1,10,0:0:0:0:
281,234,203833,2,0,P|299:238|324:260,1,35,2|0,0:0|0:0,0:0:0:0:
449,346,204044,1,2,1:2:0:0:
458,314,204150,1,2,0:0:0:0:
438,288,204256,1,2,0:0:0:0:
408,285,204361,1,2,0:0:0:0:
385,305,204467,2,0,P|367:316|333:326,1,35,10|0,0:0|0:0,0:0:0:0:
441,215,204678,2,0,P|459:223|481:236,1,35,2|0,0:0|0:0,0:0:0:0:
296,367,204890,6,0,P|248:346|198:330,1,105,2|0,1:2|0:0,0:0:0:0:
131,344,205312,1,10,0:0:0:0:
40,233,205523,2,0,P|60:241|82:276,1,35,2|0,0:0|0:0,0:0:0:0:
131,344,205735,1,2,1:2:0:0:
226,178,205946,2,0,P|206:170|184:135,1,35,2|0,0:0|0:0,0:0:0:0:
138,88,206157,1,10,0:0:0:0:
6,136,206368,1,2,0:0:0:0:
37,128,206474,1,2,0:0:0:0:
54,157,206580,6,0,L|96:172,1,35,2|0,1:2|0:0,0:0:0:0:
138,88,206791,1,0,0:0:0:0:
74,285,207002,2,0,P|64:241|30:221,1,70,10|0,0:0|0:0,0:0:0:0:
28,224,207319,1,2,0:0:0:0:
14,234,207425,1,2,1:2:0:0:
183,339,207636,1,2,0:0:0:0:
190,307,207742,1,2,0:0:0:0:
202,278,207847,1,10,0:0:0:0:
223,252,207953,1,2,0:0:0:0:
247,232,208059,1,2,0:0:0:0:
275,219,208164,1,2,0:0:0:0:
306,214,208270,6,0,P|356:246|426:295,2,140,6|10|2,1:2|0:0|1:2,0:0:0:0:
271,152,209326,1,2,0:0:0:0:
191,35,209537,2,0,L|103:72,1,70,10|0,0:0|0:0,0:0:0:0:
112,52,209854,1,2,0:0:0:0:
97,42,209960,5,2,1:2:0:0:
217,112,210171,2,0,L|195:162,1,35,2|0,0:0|0:0,0:0:0:0:
178,206,210383,1,10,0:0:0:0:
60,128,210594,2,0,L|37:78,1,35,2|0,0:0|0:0,0:0:0:0:
20,33,210806,1,2,1:2:0:0:
189,52,211016,1,2,0:0:0:0:
205,45,211122,1,2,0:0:0:0:
221,39,211228,1,10,0:0:0:0:
380,150,211439,1,2,0:0:0:0:
352,138,211544,1,2,0:0:0:0:
322,127,211650,6,0,L|273:153,1,35,2|0,1:2|0:0,0:0:0:0:
236,177,211861,1,0,0:0:0:0:
292,17,212073,1,10,0:0:0:0:
359,43,212284,1,2,0:0:0:0:
236,177,212495,2,0,L|183:153,1,35,2|0,1:2|0:0,0:0:0:0:
134,77,212706,1,0,0:0:0:0:
105,90,212812,1,2,0:0:0:0:
76,104,212918,2,0,L|37:120,1,35,10|0,0:0|0:0,0:0:0:0:
236,177,213129,2,0,L|183:153,1,35,2|0,0:0|0:0,0:0:0:0:
133,320,213340,5,2,1:2:0:0:
59,179,213552,1,0,0:0:0:0:
136,328,213763,2,0,L|189:304,1,35,10|0,1:2|0:0,0:0:0:0:
235,288,213974,1,2,0:0:0:0:
11,229,214185,1,10,3:2:0:0:
51,246,214290,1,10,3:2:0:0:
97,245,214396,1,10,3:2:0:0:
136,220,214501,1,10,3:2:0:0:
165,185,214607,1,10,3:2:0:0:
195,149,214713,1,10,3:2:0:0:
234,127,214818,1,10,3:2:0:0:
279,127,214924,1,10,3:2:0:0:
317,146,215030,6,0,B|278:211|146:209|248:120|71:86|129:80|306:171|187:13|-5:-88|-81:-58|-125:0|-126:146|30:268|91:150|47:117|82:66|82:58|78:62|86:62|114:-12|129:-8|177:-54|282:-14|281:84|243:110,1,784,6|0,1:2|0:0,0:0:0:0:
264,88,216615,1,2,0:0:0:0:
254,101,216721,1,2,1:2:0:0:
127,173,216932,2,0,P|157:174|170:209,1,41.9999987182618,2|0,0:0|0:0,0:0:0:0:
215,245,217143,1,10,0:0:0:0:
248,345,217354,2,0,P|222:327|225:295,1,41.9999987182618
215,245,217566,1,2,1:2:0:0:
355,154,217777,1,2,0:0:0:0:
288,236,217988,1,10,0:0:0:0:
281,266,218093,1,2,0:0:0:0:
294,295,218199,1,2,0:0:0:0:
319,313,218304,1,2,0:0:0:0:
350,314,218411,6,0,P|384:298|441:282,1,83.9999974365235,2|0,1:2|0:0,0:0:0:0:
492,266,218728,1,2,0:0:0:0:
492,266,218833,1,10,0:0:0:0:
426,379,219044,1,2,0:0:0:0:
410,372,219150,1,2,0:0:0:0:
394,364,219256,1,2,1:2:0:0:
272,247,219467,2,0,L|333:221,1,41.9999987182618
354,284,219678,1,10,0:0:0:0:
235,384,219890,1,2,0:0:0:0:
220,355,219995,1,2,0:0:0:0:
188,357,220101,6,0,L|141:339,1,41.9999987182618,2|0,1:2|0:0,0:0:0:0:
78,314,220312,1,2,0:0:0:0:
230,256,220523,2,0,P|245:201|263:155,1,83.9999974365235,10|0,0:0|0:0,0:0:0:0:
261,160,220840,1,2,0:0:0:0:
270,146,220946,1,2,1:2:0:0:
92,27,221157,1,2,0:0:0:0:
76,56,221263,1,2,0:0:0:0:
77,89,221368,1,10,0:0:0:0:
92,119,221474,1,2,0:0:0:0:
120,138,221580,1,2,0:0:0:0:
153,141,221685,1,2,0:0:0:0:
184,129,221791,6,0,P|218:109|354:58,2,167.999994873047,6|10|2,1:2|0:0|1:2,0:0:0:0:
166,200,222847,1,2,0:0:0:0:
57,48,223059,2,0,P|102:45|132:85,1,83.9999974365235,10|0,0:0|0:0,0:0:0:0:
184,129,223375,1,2,0:0:0:0:
184,129,223481,5,2,1:2:0:0:
70,255,223692,2,0,P|49:245|31:239,1,41.9999987182618,2|0,0:0|0:0,0:0:0:0:
197,308,223904,1,10,0:0:0:0:
91,355,224115,2,0,P|112:345|130:339,1,41.9999987182618,2|0,0:0|0:0,0:0:0:0:
197,308,224327,1,2,1:2:0:0:
90,179,224537,1,2,0:0:0:0:
90,179,224643,1,2,0:0:0:0:
90,179,224749,1,10,0:0:0:0:
270,79,224960,1,2,0:0:0:0:
257,110,225066,1,2,0:0:0:0:
245,141,225171,6,0,L|225:190,1,41.9999987182618,2|0,1:2|0:0,0:0:0:0:
164,206,225383,1,2,0:0:0:0:
335,64,225594,1,10,0:0:0:0:
357,128,225805,1,0,0:0:0:0:
164,206,226016,1,2,1:2:0:0:
171,190,226122,1,2,0:0:0:0:
178,174,226228,1,2,0:0:0:0:
185,159,226333,1,2,0:0:0:0:
192,143,226439,2,0,L|254:168,1,41.9999987182618,10|0,0:0|0:0,0:0:0:0:
51,216,226650,2,0,L|89:200,1,41.9999987182618,2|0,0:0|0:0,0:0:0:0:
173,73,226861,5,2,1:2:0:0:
276,230,227073,1,0,0:0:0:0:
164,70,227284,2,0,L|126:54,1,41.9999987182618,10|0,0:0|0:0,0:0:0:0:
228,0,227495,1,2,0:0:0:0:
45,185,227706,1,10,3:2:0:0:
44,228,227813,1,10,3:2:0:0:
60,269,227918,1,10,3:2:0:0:
88,302,228024,1,10,3:2:0:0:
127,322,228129,1,10,3:2:0:0:
171,328,228235,1,10,3:2:0:0:
213,318,228341,1,10,3:2:0:0:
249,293,228447,1,10,3:2:0:0:
276,258,228552,6,0,B|354:136|127:-16|25:96|83:229|124:292|251:307|221:123|172:39|525:52|368:251|419:329|544:316,1,784,6|0,1:2|0:0,0:0:0:0:
503,292,230136,1,2,0:0:0:0:
512,277,230242,1,2,1:2:0:0:
327,345,230453,2,0,L|377:373,1,48.9999985046387,2|0,0:0|0:0,0:0:0:0:
401,307,230664,1,10,0:0:0:0:
269,226,230875,2,0,L|219:254,1,48.9999985046387,2|0,0:0|0:0,0:0:0:0:
131,315,231087,1,2,1:2:0:0:
119,272,231192,1,2,0:0:0:0:
79,251,231298,1,2,0:0:0:0:
36,263,231404,1,2,0:0:0:0:
17,302,231509,2,0,P|32:326|42:347,1,48.9999985046387,10|0,0:0|0:0,0:0:0:0:
182,257,231721,2,0,P|167:233|157:212,1,48.9999985046387,2|0,0:0|0:0,0:0:0:0:
39,65,231932,6,0,B|81:56|126:79|105:136|154:136|203:134,1,146.999995513916,2|0,1:2|0:0,0:0:0:0:
234,148,232354,1,10,0:0:0:0:
331,46,232566,2,0,P|316:68|296:90,1,48.9999985046387,2|0,0:0|0:0,0:0:0:0:
234,148,232777,1,2,1:2:0:0:
336,249,232988,2,0,P|314:234|292:214,1,48.9999985046387,2|0,0:0|0:0,0:0:0:0:
335,140,233199,1,10,0:0:0:0:
375,133,233305,1,2,0:0:0:0:
409,157,233411,1,2,0:0:0:0:
427,196,233516,1,2,0:0:0:0:
465,211,233622,6,0,L|526:194,1,48.9999985046387,2|0,1:2|0:0,0:0:0:0:
396,293,233833,1,2,0:0:0:0:
308,60,234044,2,0,P|342:96|396:159,1,97.9999970092774,10|0,0:0|0:0,0:0:0:0:
390,118,234361,1,2,0:0:0:0:
405,105,234467,1,2,1:2:0:0:
272,213,234678,1,2,0:0:0:0:
244,185,234784,1,2,0:0:0:0:
204,185,234890,1,10,0:0:0:0:
177,213,234995,1,2,0:0:0:0:
159,248,235101,1,2,0:0:0:0:
126,269,235206,1,2,0:0:0:0:
83,266,235312,6,0,P|135:248|277:212,2,195.999994018555,6|10|2,1:2|0:0|1:2,0:0:0:0:
23,220,236368,1,2,0:0:0:0:
136,337,236580,2,0,B|167:376|167:376|223:354,1,97.9999970092775,10|0,0:0|0:0,0:0:0:0:
276,329,236897,1,2,0:0:0:0:
276,329,237002,5,2,1:2:0:0:
204,178,237213,2,0,L|178:240,1,48.9999985046387,2|0,0:0|0:0,0:0:0:0:
240,263,237425,1,10,0:0:0:0:
141,111,237636,2,0,L|122:65,1,48.9999985046387,2|0,0:0|0:0,0:0:0:0:
163,12,237847,1,2,1:2:0:0:
34,163,238059,1,2,0:0:0:0:
52,157,238164,1,2,0:0:0:0:
70,151,238270,1,10,0:0:0:0:
158,307,238481,1,2,0:0:0:0:
130,278,238587,1,2,0:0:0:0:
101,250,238692,5,2,1:2:0:0:
11,301,238904,1,2,0:0:0:0:
207,378,239115,1,10,0:0:0:0:
260,332,239326,1,2,0:0:0:0:
373,372,239537,2,0,L|431:349,1,48.9999985046387,2|0,1:2|0:0,0:0:0:0:
497,311,239749,1,2,0:0:0:0:
480,270,239854,1,2,0:0:0:0:
440,249,239960,1,10,0:0:0:0:
395,253,240066,1,2,0:0:0:0:
359,278,240171,1,2,0:0:0:0:
314,280,240277,1,2,0:0:0:0:
276,256,240383,5,10,3:2:0:0:
290,209,240488,1,10,3:2:0:0:
331,183,240594,1,10,3:2:0:0:
463,85,240805,5,10,3:2:0:0:
496,120,240910,1,10,3:2:0:0:
498,169,241016,1,10,3:2:0:0:
512,312,241228,5,10,3:2:0:0:
462,323,241333,1,10,3:2:0:0:
415,299,241439,1,10,3:2:0:0:
384,256,241544,1,10,3:2:0:0:
346,220,241650,1,10,3:2:0:0:
296,202,241756,1,10,3:2:0:0:
243,208,241861,1,10,3:2:0:0:
202,241,241967,1,10,3:2:0:0:
193,293,242073,6,0,B|339:217|146:-26|43:121|105:374|-70:183|-146:-26|-48:-73|190:-58|203:38|191:97|120:132|71:183|62:246|130:314|130:314|39:352|11:261|11:261|75:203|174:230,1,1159.2000017688,6|0,1:2|0:0,0:0:0:0:
153,225,247988,2,0,L|257:187,1,96.6000001473999,2|0,0:0|0:0,0:0:0:0:
355,263,248833,6,0,B|369:248|394:242|416:271|435:294|418:339|386:364|340:381|259:386|218:300|216:215|405:199|228:70|109:17|10:152|20:299|137:315|199:270|199:270|158:254|152:224,1,772.800001179199,2|0,0:0|0:0,0:0:0:0:
285,119,253904,5,2,0:0:0:0:
231,277,254749,2,0,B|255:250|255:250|294:264,2,72.4500001105499,2|2|2,0:0|0:0|0:0,0:0:0:0:
190,340,255594,6,0,B|233:376|322:361|314:267|262:245|262:245|213:224|184:244|77:287|28:111|159:-31|383:-22|184:315|362:243|419:200|462:157|462:110|438:63|381:52|381:52|148:1|148:1|199:20|212:53,1,1159.2000017688,6|0,0:0|0:0,0:0:0:0:
209,46,261509,2,0,L|106:15,1,96.6000001473999,2|0,0:0|0:0,0:0:0:0:
158,167,262354,6,0,B|93:186|58:122|58:122|100:204|43:236|43:236|46:248|46:248|-4:289|31:325|45:371|140:378|167:294|157:139|251:200|320:223|316:286|316:286|299:248|256:256,1,772.800001179199,2|0,0:0|0:0,0:0:0:0:
288,160,267425,5,2,0:0:0:0:
113,102,268270,2,0,B|92:93|92:93|46:112,2,72.4500001105499,2|2|2,0:0|0:0|0:0,0:0:0:0:
184,137,269115,6,0,B|193:104|227:87|227:87|249:76|330:49|305:157|442:67|500:14|500:14|447:92|382:119|382:119|437:132|474:118|474:118|443:157|373:176|373:176|422:205|422:205|362:211|360:268|360:268|320:229|269:226|269:226|300:248|286:291|286:291|241:282|218:294|192:348|192:348|215:266|145:219|105:212|68:243|68:243|107:238|129:274,1,1478.39999548828,6|6,1:2|0:0,0:0:0:0:
