osu file format v14

[General]
AudioFilename: audio.mp3
AudioLeadIn: 0
PreviewTime: 44675
Countdown: 0
SampleSet: Normal
StackLeniency: 0.7
Mode: 0
LetterboxInBreaks: 1
WidescreenStoryboard: 1

[Editor]
Bookmarks: 18675,18842,19009,19092,19175,19259,76009,77009,82675,85342,114842,116675,118675,120009,130009,130342,130675,131509,132009,132675
DistanceSpacing: 1.8
BeatDivisor: 4
GridSize: 8
TimelineZoom: 1.5

[Metadata]
Title:Crossing Field (Sudstep Remix)
TitleUnicode:Crossing Field (Sudstep Remix)
Artist:LiSa
ArtistUnicode:LiSa
Creator:gug
Version:DLC
Source:
Tags:
BeatmapID:2090599
BeatmapSetID:990280

[Difficulty]
HPDrainRate:4
CircleSize:4.5
OverallDifficulty:9.2
ApproachRate:9.8
SliderMultiplier:1.8
SliderTickRate:1

[Events]
//Background and Video events
0,0,"bg.jpg",0,0
//Break Periods
2,10542,18817
2,77209,81863
//Storyboard Layer 0 (Background)
//Storyboard Layer 1 (Fail)
//Storyboard Layer 2 (Pass)
//Storyboard Layer 3 (Foreground)
//Storyboard Layer 4 (Overlay)
//Storyboard Sound Samples

[TimingPoints]
9.03389830508479,333.333333333333,4,1,0,100,1,0
10,-153.846153846153,4,3,0,50,0,0
5175,-100,4,3,0,50,0,0
5342,-100,4,3,0,60,0,0
21342,-100,4,3,0,75,0,1
32009,-333.333333333333,4,2,0,60,0,0
41175,-50,4,2,0,10,0,0
41342,-83.3333333333333,4,2,0,20,0,0
41509,-83.3333333333333,4,2,0,30,0,0
41675,-83.3333333333333,4,2,0,40,0,0
41842,-83.3333333333333,4,2,0,50,0,0
42009,-83.3333333333333,4,2,0,60,0,0
42175,-83.3333333333333,4,2,0,70,0,0
42342,-83.3333333333333,4,2,0,80,0,0
42509,-83.3333333333333,4,2,0,90,0,0
42675,-1000,4,2,0,20,0,0
44342,-1000,4,2,0,5,0,0
44675,-66.6666666666667,4,1,0,100,0,0
45342,-100,4,1,0,100,0,1
60175,-62.5,4,1,0,100,0,1
116499,-333.333333333333,4,1,0,100,0,1

[Colours]
Combo1 : 236,122,19
Combo2 : 254,61,95
Combo3 : 140,128,253
Combo4 : 22,199,150
SliderBorder : 190,250,131
SliderTrackOverride : 20,50,14

[HitObjects]
96,72,9,5,4,0:0:0:0:
216,256,175,1,0,0:0:0:0:
374,118,342,1,0,0:0:0:0:
280,96,509,5,0,0:0:0:0:
264,136,592,1,0,0:0:0:0:
248,176,675,1,0,0:0:0:0:
232,216,759,1,0,0:0:0:0:
216,256,842,1,0,0:0:0:0:
112,200,1009,1,8,1:0:0:0:
352,144,1175,1,2,0:0:0:0:
120,64,1342,5,0,0:0:0:0:
320,280,1509,1,0,0:0:0:0:
240,88,1675,1,0,0:0:0:0:
144,256,1842,5,0,0:0:0:0:
184,272,1925,1,0,0:0:0:0:
224,288,2008,1,0,0:0:0:0:
264,304,2092,1,0,0:0:0:0:
304,319,2175,1,0,0:0:0:0:
424,216,2342,1,4,1:0:0:0:
200,304,2509,1,0,0:0:0:0:
224,112,2675,5,0,0:0:0:0:
344,224,2842,1,0,0:0:0:0:
208,232,3009,1,0,0:0:0:0:
64,304,3175,5,0,0:0:0:0:
80,264,3258,1,0,0:0:0:0:
96,224,3341,1,0,0:0:0:0:
111,184,3425,1,0,0:0:0:0:
128,144,3508,1,0,0:0:0:0:
272,64,3675,1,8,1:0:0:0:
96,224,3842,1,0,0:0:0:0:
352,160,4009,5,0,0:0:0:0:
155,279,4175,2,0,L|173:257,3,29.2499986610413
272,64,4509,5,0,0:0:0:0:
299,96,4592,1,0,0:0:0:0:
327,129,4675,1,0,0:0:0:0:
355,162,4759,1,0,0:0:0:0:
383,195,4842,1,0,0:0:0:0:
159,130,5009,2,0,L|184:148,1,29.2499986610413
296,224,5175,6,0,L|352:256,1,45
368,272,5342,5,0,0:0:0:0:
248,104,5509,1,0,0:0:0:0:
264,320,5675,1,0,0:0:0:0:
368,72,5842,1,0,0:0:0:0:
168,256,6009,1,0,0:0:0:0:
408,280,6175,1,0,0:0:0:0:
144,128,6342,1,0,0:0:0:0:
432,208,6509,5,0,0:0:0:0:
64,112,6675,1,0,0:0:0:0:
304,288,6842,1,0,0:0:0:0:
208,88,7009,1,0,0:0:0:0:
81,240,7175,5,0,0:0:0:0:
444,126,7341,1,0,0:0:0:0:
147,104,7508,1,0,0:0:0:0:
334,223,7675,1,0,0:0:0:0:
106,334,7842,5,0,0:0:0:0:
399,92,8008,1,0,0:0:0:0:
116,183,8175,1,0,0:0:0:0:
334,223,8342,1,0,0:0:0:0:
72,128,8509,5,0,0:0:0:0:
409,305,8675,1,0,0:0:0:0:
215,79,8842,1,0,0:0:0:0:
263,295,9009,1,0,0:0:0:0:
320,96,9175,5,0,0:0:0:0:
176,232,9342,1,0,0:0:0:0:
376,232,9509,1,0,0:0:0:0:
216,120,9675,1,0,0:0:0:0:
40,232,9842,5,0,0:0:0:0:
228,289,10009,1,0,0:0:0:0:
128,115,10176,1,0,0:0:0:0:
112,310,10342,1,0,0:0:0:0:
336,112,19342,5,0,0:0:0:0:
310,96,19425,1,0,0:0:0:0:
284,80,19508,1,0,0:0:0:0:
258,64,19591,1,0,0:0:0:0:
233,48,19675,1,0,0:0:0:0:
210,67,19758,1,0,0:0:0:0:
188,87,19841,1,0,0:0:0:0:
165,107,19925,1,0,0:0:0:0:
142,114,20008,1,0,0:0:0:0:
116,99,20091,1,0,0:0:0:0:
90,83,20175,1,0,0:0:0:0:
63,68,20258,1,0,0:0:0:0:
66,82,20341,1,0,0:0:0:0:
81,108,20425,1,0,0:0:0:0:
97,134,20508,1,0,0:0:0:0:
112,160,20591,1,0,0:0:0:0:
127,186,20675,1,0,0:0:0:0:
142,212,20758,1,0,0:0:0:0:
156,238,20841,1,0,0:0:0:0:
171,265,20925,1,0,0:0:0:0:
185,291,21008,1,0,0:0:0:0:
112,103,21342,5,0,0:0:0:0:
241,280,21509,1,0,0:0:0:0:
403,73,21675,1,0,0:0:0:0:
167,175,21842,1,0,0:0:0:0:
398,232,22009,1,0,0:0:0:0:
233,80,22175,1,0,0:0:0:0:
503,127,22342,1,0,0:0:0:0:
204,272,22509,1,0,0:0:0:0:
155,71,22675,5,0,0:0:0:0:
321,304,22842,1,0,0:0:0:0:
391,99,23009,1,0,0:0:0:0:
107,236,23175,1,0,0:0:0:0:
450,285,23342,1,0,0:0:0:0:
196,86,23509,1,0,0:0:0:0:
431,111,23675,1,0,0:0:0:0:
233,297,23842,1,0,0:0:0:0:
96,73,24009,5,0,0:0:0:0:
320,287,24175,1,0,0:0:0:0:
415,147,24342,1,0,0:0:0:0:
265,124,24509,5,0,0:0:0:0:
439,276,24675,1,0,0:0:0:0:
156,176,24842,1,0,0:0:0:0:
317,295,25009,5,0,0:0:0:0:
413,62,25175,1,0,0:0:0:0:
416,215,25342,1,0,0:0:0:0:
276,93,25509,5,0,0:0:0:0:
204,284,25675,1,0,0:0:0:0:
70,103,25842,1,0,0:0:0:0:
384,83,26009,5,0,0:0:0:0:
413,167,26175,1,0,0:0:0:0:
271,60,26342,5,0,0:0:0:0:
349,248,26509,1,0,0:0:0:0:
149,53,26675,5,0,0:0:0:0:
269,315,26842,1,0,0:0:0:0:
74,117,27009,5,0,0:0:0:0:
217,300,27175,1,0,0:0:0:0:
246,58,27342,1,0,0:0:0:0:
408,176,27509,5,0,0:0:0:0:
51,114,27675,1,0,0:0:0:0:
371,274,27842,1,0,0:0:0:0:
372,97,28009,5,0,0:0:0:0:
76,209,28175,1,0,0:0:0:0:
451,275,28342,1,0,0:0:0:0:
129,80,28509,5,0,0:0:0:0:
240,297,28675,1,0,0:0:0:0:
413,53,28842,1,0,0:0:0:0:
378,243,29009,1,0,0:0:0:0:
66,161,29175,1,0,0:0:0:0:
286,84,29342,5,0,0:0:0:0:
147,235,29509,1,0,0:0:0:0:
378,243,29675,1,0,0:0:0:0:
200,94,29842,5,0,0:0:0:0:
209,299,30009,1,0,0:0:0:0:
378,141,30175,1,0,0:0:0:0:
123,281,30342,5,0,0:0:0:0:
262,130,30509,1,0,0:0:0:0:
31,122,30675,1,0,0:0:0:0:
252,232,30842,5,0,0:0:0:0:
391,81,31009,1,0,0:0:0:0:
160,73,31175,1,0,0:0:0:0:
392,157,31342,5,0,0:0:0:0:
253,308,31509,1,0,0:0:0:0:
484,316,31675,1,0,0:0:0:0:
100,58,31842,1,0,0:0:0:0:
100,58,32009,6,0,B|155:49|158:84|187:85|190:125|251:114,1,161.999995056153
431,255,33342,6,0,B|376:263|373:228|344:227|341:187|280:198,1,161.999995056153
147,157,34675,6,0,P|125:227|201:233,1,161.999995056153
193,239,36009,6,0,P|178:295|131:290,1,107.999996704102
80,64,37342,5,0,0:0:0:0:
152,160,37509,1,0,0:0:0:0:
424,240,37675,5,0,0:0:0:0:
344,160,37842,1,0,0:0:0:0:
202,205,38175,6,0,B|227:218|227:218|233:240,1,40.4999987640381
248,264,38509,1,0,0:0:0:0:
360,57,39342,6,0,L|353:50|385:77,1,40.4999987640381
390,83,39675,6,0,L|386:79|368:116,1,40.4999987640381,0|0,0:0|0:0,0:3:0:0:
372,119,40009,2,0,P|390:139|343:134,1,107.999996704102
252,55,40842,5,0,0:0:0:0:
77,118,41009,5,0,0:0:0:0:
124,207,41175,5,0,0:0:0:0:
149,243,41258,1,0,0:0:0:0:
175,280,41341,1,0,0:0:0:0:
201,317,41425,1,0,0:0:0:0:
226,354,41508,1,0,0:0:0:0:
235,311,41591,1,0,0:0:0:0:
244,267,41675,1,0,0:0:0:0:
253,222,41758,1,0,0:0:0:0:
262,178,41841,1,0,0:0:0:0:
282,190,41925,1,0,0:0:0:0:
308,227,42008,1,0,0:0:0:0:
334,264,42091,1,0,0:0:0:0:
328,240,42175,1,0,0:0:0:0:
346,199,42258,1,0,0:0:0:0:
364,158,42341,1,0,0:0:0:0:
383,117,42425,1,0,0:0:0:0:
401,76,42508,1,0,0:0:0:0:
356,48,42675,6,0,B|355:71|331:41|307:61|307:61|305:25,1,90
70,158,44675,5,0,2:2:0:0:
292,317,44842,5,0,2:2:0:0:
460,131,45009,5,8,2:2:0:0:
126,106,45342,5,0,0:0:0:0:
300,296,45509,1,0,0:0:0:0:
402,81,45675,1,0,0:0:0:0:
136,254,45842,1,0,0:0:0:0:
441,212,46009,1,0,0:0:0:0:
208,45,46175,1,0,0:0:0:0:
272,305,46342,1,0,0:0:0:0:
404,96,46509,1,0,0:0:0:0:
95,200,46675,1,0,0:0:0:0:
450,243,46842,5,0,0:0:0:0:
194,64,47009,1,0,0:0:0:0:
200,320,47175,1,0,0:0:0:0:
416,112,47342,1,0,0:0:0:0:
88,184,47509,1,0,0:0:0:0:
384,320,47675,1,0,0:0:0:0:
272,80,47842,1,0,0:0:0:0:
200,304,48009,1,0,0:0:0:0:
416,192,48175,1,0,0:0:0:0:
160,128,48342,5,0,0:0:0:0:
310,305,48509,1,0,0:0:0:0:
384,88,48675,1,0,0:0:0:0:
120,192,48842,1,0,0:0:0:0:
408,272,49009,1,0,0:0:0:0:
264,64,49175,1,0,0:0:0:0:
208,288,49342,1,0,0:0:0:0:
372,176,49509,1,0,0:0:0:0:
62,93,49675,1,0,0:0:0:0:
346,274,49842,5,0,0:0:0:0:
142,78,50009,1,0,0:0:0:0:
422,98,50175,1,0,0:0:0:0:
192,266,50342,1,0,0:0:0:0:
288,39,50509,1,0,0:0:0:0:
390,246,50675,1,0,0:0:0:0:
136,162,50842,1,0,0:0:0:0:
406,77,51009,1,0,0:0:0:0:
259,294,51175,1,0,0:0:0:0:
166,55,51342,5,0,0:0:0:0:
346,280,51509,1,0,0:0:0:0:
281,44,51675,1,0,0:0:0:0:
214,281,51842,1,0,0:0:0:0:
417,95,52009,1,0,0:0:0:0:
80,204,52175,1,0,0:0:0:0:
433,235,52342,1,0,0:0:0:0:
88,90,52509,1,0,0:0:0:0:
313,320,52675,1,0,0:0:0:0:
204,76,52842,5,0,0:0:0:0:
144,248,53009,1,0,0:0:0:0:
313,320,53175,1,0,0:0:0:0:
376,152,53342,1,0,0:0:0:0:
133,151,53509,5,0,0:0:0:0:
212,315,53676,1,0,0:0:0:0:
382,246,53842,1,0,0:0:0:0:
308,83,54009,1,0,0:0:0:0:
291,258,54175,5,0,0:0:0:0:
130,345,54342,1,0,0:0:0:0:
32,189,54508,1,0,0:0:0:0:
189,101,54675,1,0,0:0:0:0:
256,280,54842,5,0,0:0:0:0:
435,312,55009,1,0,0:0:0:0:
479,134,55175,1,0,0:0:0:0:
304,98,55342,1,0,0:0:0:0:
232,120,55509,5,0,0:0:0:0:
193,141,55592,1,0,0:0:0:0:
149,143,55675,1,0,0:0:0:0:
106,129,55759,1,0,0:0:0:0:
74,98,55842,1,0,0:0:0:0:
59,59,55925,1,0,0:0:0:0:
78,28,56009,1,0,0:0:0:0:
121,18,56092,1,0,0:0:0:0:
161,32,56175,1,0,0:0:0:0:
166,75,56259,1,0,0:0:0:0:
145,113,56342,1,0,0:0:0:0:
118,148,56425,1,0,0:0:0:0:
98,188,56509,1,0,0:0:0:0:
99,232,56592,1,0,0:0:0:0:
119,271,56675,1,0,0:0:0:0:
157,296,56759,1,0,0:0:0:0:
198,310,56842,1,0,0:0:0:0:
243,313,56925,1,0,0:0:0:0:
286,303,57009,1,0,0:0:0:0:
312,272,57092,5,0,0:0:0:0:
350,250,57175,1,0,0:0:0:0:
394,248,57258,1,0,0:0:0:0:
437,262,57342,1,0,0:0:0:0:
469,293,57425,1,0,0:0:0:0:
484,332,57508,1,0,0:0:0:0:
465,363,57592,1,0,0:0:0:0:
422,373,57675,1,0,0:0:0:0:
382,359,57758,1,0,0:0:0:0:
377,316,57842,1,0,0:0:0:0:
398,278,57925,1,0,0:0:0:0:
425,243,58008,1,0,0:0:0:0:
445,203,58092,1,0,0:0:0:0:
444,159,58175,1,0,0:0:0:0:
424,120,58258,1,0,0:0:0:0:
386,95,58342,1,0,0:0:0:0:
345,81,58425,1,0,0:0:0:0:
300,78,58508,1,0,0:0:0:0:
257,88,58592,1,0,0:0:0:0:
160,288,58675,5,0,0:0:0:0:
64,64,58842,1,0,0:0:0:0:
296,176,59009,1,0,0:0:0:0:
56,160,59175,1,0,0:0:0:0:
264,304,59342,1,0,0:0:0:0:
360,112,59509,1,0,0:0:0:0:
80,304,59675,5,0,0:0:0:0:
176,96,59842,1,0,0:0:0:0:
384,296,60009,1,0,0:0:0:0:
56,120,60175,6,0,P|80:184|184:264,1,144
416,72,60509,5,0,0:0:0:0:
168,288,60675,1,0,0:0:0:0:
336,64,60842,6,0,P|268:53|147:106,1,144
64,216,61175,1,0,0:0:0:0:
392,136,61342,5,0,0:0:0:0:
288,320,61509,1,0,0:0:0:0:
136,184,61675,1,0,0:0:0:0:
272,56,61842,2,0,L|376:184,1,144
40,184,62175,5,0,0:0:0:0:
192,304,62342,2,0,L|352:192,1,144
240,64,62675,2,0,L|93:139,1,144
432,256,63009,5,0,0:0:0:0:
200,192,63175,2,0,L|304:320,1,144
368,336,63509,5,0,0:0:0:0:
424,329,63592,1,0,0:0:0:0:
459,286,63675,1,0,0:0:0:0:
457,230,63759,1,0,0:0:0:0:
425,183,63842,1,0,0:0:0:0:
373,159,63925,1,0,0:0:0:0:
316,163,64009,1,0,0:0:0:0:
260,174,64092,1,0,0:0:0:0:
200,168,64175,1,0,0:0:0:0:
149,142,64259,1,0,0:0:0:0:
129,89,64342,1,0,0:0:0:0:
144,35,64425,1,0,0:0:0:0:
96,312,64509,5,0,0:0:0:0:
272,72,64675,1,0,0:0:0:0:
344,280,64842,1,0,0:0:0:0:
80,152,65009,1,0,0:0:0:0:
200,304,65175,1,0,0:0:0:0:
384,168,65342,2,0,P|320:104|256:80,1,144
104,280,65675,5,0,0:0:0:0:
208,120,65842,1,0,0:0:0:0:
344,288,66009,1,0,0:0:0:0:
424,64,66175,2,0,B|384:120|472:192|408:216,1,144
56,240,66509,2,0,B|102:189|23:107|90:91,1,144
368,296,66842,5,0,0:0:0:0:
80,112,67009,1,0,0:0:0:0:
400,224,67175,1,0,0:0:0:0:
32,176,67342,1,0,0:0:0:0:
416,144,67509,1,0,0:0:0:0:
32,256,67675,1,0,0:0:0:0:
328,40,67842,1,0,0:0:0:0:
128,296,68009,1,0,0:0:0:0:
240,48,68175,1,0,0:0:0:0:
336,296,68342,5,0,0:0:0:0:
104,104,68509,1,0,0:0:0:0:
432,248,68675,1,0,0:0:0:0:
56,248,68842,1,0,0:0:0:0:
332,152,69009,5,0,0:0:0:0:
92,272,69176,1,0,0:0:0:0:
318,39,69342,1,0,0:0:0:0:
211,366,69509,1,0,0:0:0:0:
176,88,69675,5,0,0:0:0:0:
408,280,69842,1,0,0:0:0:0:
80,136,70008,1,0,0:0:0:0:
456,135,70175,1,0,0:0:0:0:
142,261,70342,5,0,0:0:0:0:
421,100,70509,1,0,0:0:0:0:
170,354,70675,1,0,0:0:0:0:
304,3,70842,1,0,0:0:0:0:
74,295,71009,5,0,0:0:0:0:
235,85,71175,1,0,0:0:0:0:
246,313,71342,1,0,0:0:0:0:
69,146,71509,1,0,0:0:0:0:
401,222,71675,1,0,0:0:0:0:
151,244,71842,1,0,0:0:0:0:
336,94,72009,1,0,0:0:0:0:
332,307,72175,5,0,0:0:0:0:
250,109,72342,1,0,0:0:0:0:
146,294,72509,1,0,0:0:0:0:
378,188,72675,1,0,0:0:0:0:
106,161,72842,1,0,0:0:0:0:
276,293,73009,1,0,0:0:0:0:
241,80,73175,1,0,0:0:0:0:
131,255,73342,5,0,0:0:0:0:
336,147,73509,1,0,0:0:0:0:
292,296,73675,1,0,0:0:0:0:
177,162,73842,1,0,0:0:0:0:
435,73,74009,1,0,0:0:0:0:
346,246,74175,1,0,0:0:0:0:
283,83,74342,1,0,0:0:0:0:
71,270,74675,5,0,0:0:0:0:
453,118,75175,5,0,0:0:0:0:
214,88,75675,5,0,0:0:0:0:
256,192,76009,12,8,77009,0:0:0:0:
256,192,82342,12,0,83175,2:0:0:0:
256,192,83342,12,0,85175,3:0:0:0:
72,122,85342,5,0,0:0:0:0:
149,283,85509,1,0,0:0:0:0:
303,129,85675,5,0,0:0:0:0:
186,238,85842,1,0,0:0:0:0:
399,277,86009,5,0,0:0:0:0:
208,136,86175,1,0,0:0:0:0:
414,106,86342,1,0,0:0:0:0:
65,297,86509,5,0,0:0:0:0:
298,253,86675,1,0,0:0:0:0:
126,136,86842,1,0,0:0:0:0:
328,108,87009,5,0,0:0:0:0:
194,303,87175,1,0,0:0:0:0:
398,264,87342,1,0,0:0:0:0:
77,158,87509,5,0,0:0:0:0:
310,202,87675,1,0,0:0:0:0:
138,319,87842,1,0,0:0:0:0:
148,98,88009,5,0,0:0:0:0:
250,311,88175,1,0,0:0:0:0:
319,115,88342,1,0,0:0:0:0:
371,46,88509,5,0,0:0:0:0:
228,230,88675,1,0,0:0:0:0:
441,202,88842,1,0,0:0:0:0:
228,147,89009,5,0,0:0:0:0:
157,58,89175,1,0,0:0:0:0:
75,157,89342,1,0,0:0:0:0:
55,255,89509,5,0,0:0:0:0:
148,328,89675,1,0,0:0:0:0:
218,228,89842,1,0,0:0:0:0:
298,75,90009,1,0,0:0:0:0:
308,257,90175,5,0,0:0:0:0:
246,128,90341,1,0,0:0:0:0:
434,239,90508,1,0,0:0:0:0:
432,56,90675,5,0,0:0:0:0:
383,163,90841,1,0,0:0:0:0:
314,63,91008,1,0,0:0:0:0:
72,309,91175,5,0,0:0:0:0:
92,211,91341,1,0,0:0:0:0:
161,274,91508,1,0,0:0:0:0:
180,182,91675,5,0,0:0:0:0:
259,212,91841,1,0,0:0:0:0:
316,101,92008,1,0,0:0:0:0:
407,116,92175,1,0,0:3:0:0:
439,195,92342,1,0,0:3:0:0:
357,295,92509,1,0,0:0:0:0:
323,185,92675,1,0,0:0:0:0:
218,141,92842,1,0,0:0:0:0:
252,268,93009,1,0,0:0:0:0:
377,223,93176,1,0,0:0:0:0:
409,87,93342,5,0,0:0:0:0:
211,305,93509,1,0,0:0:0:0:
224,96,93675,1,0,0:0:0:0:
338,223,93842,1,0,0:0:0:0:
111,183,94009,1,0,0:0:0:0:
302,98,94175,1,0,0:0:0:0:
113,305,94342,1,0,0:0:0:0:
136,101,94509,1,0,0:0:0:0:
242,198,94675,1,0,0:0:0:0:
107,142,94842,5,0,0:0:0:0:
301,305,95009,1,0,0:0:0:0:
288,96,95175,1,0,0:0:0:0:
174,223,95342,1,0,0:0:0:0:
401,183,95509,1,0,0:0:0:0:
210,98,95675,1,0,0:0:0:0:
399,305,95842,1,0,0:0:0:0:
299,73,96009,5,0,2:2:0:0:
386,103,96175,1,0,2:2:0:0:
305,251,96342,1,0,2:2:0:0:
217,54,96509,1,0,2:2:0:0:
136,52,96675,1,0,2:2:0:0:
380,187,96842,1,0,2:2:0:0:
76,154,97009,1,0,2:2:0:0:
46,227,97175,1,0,2:2:0:0:
352,72,97342,5,0,2:2:0:0:
126,276,97509,1,0,2:2:0:0:
71,233,97675,1,0,2:2:0:0:
386,213,97842,1,0,2:2:0:0:
426,67,98009,1,0,2:2:0:0:
168,137,98175,1,0,2:2:0:0:
293,318,98342,5,0,2:2:0:0:
69,204,98509,1,0,2:2:0:0:
223,60,98675,1,0,0:0:0:0:
73,275,98842,1,0,0:0:0:0:
351,68,99009,1,0,0:0:0:0:
351,68,99175,1,0,0:0:0:0:
169,298,99342,5,0,0:0:0:0:
169,298,99509,1,0,0:0:0:0:
228,86,99675,5,0,0:0:0:0:
228,86,99842,1,0,0:0:0:0:
363,271,100009,5,0,0:0:0:0:
363,271,100175,1,0,0:0:0:0:
77,64,100342,5,0,0:0:0:0:
434,340,100509,1,0,0:0:0:0:
39,217,100675,1,0,0:0:0:0:
434,44,100842,5,0,0:0:0:0:
39,167,101008,1,0,0:0:0:0:
475,294,101175,1,0,0:0:0:0:
236,41,101342,5,0,0:0:0:0:
137,334,101509,1,0,0:0:0:0:
396,123,101675,1,0,0:0:0:0:
48,246,101842,1,0,0:0:0:0:
392,220,102009,5,0,0:0:0:0:
48,145,102175,1,0,0:0:0:0:
407,280,102342,1,0,0:0:0:0:
26,219,102509,1,0,0:0:0:0:
406,189,102675,1,0,0:0:0:0:
55,262,102842,1,0,0:0:0:0:
304,43,103009,5,0,0:0:0:0:
143,308,103175,1,0,0:0:0:0:
225,53,103342,1,0,0:0:0:0:
276,317,103509,1,0,0:0:0:0:
75,150,103675,1,0,0:0:0:0:
397,216,103842,1,0,0:0:0:0:
133,320,104009,1,0,0:0:0:0:
299,122,104175,1,0,0:0:0:0:
287,320,104342,5,0,0:0:0:0:
210,58,104509,1,0,0:0:0:0:
153,297,104675,1,0,0:0:0:0:
397,175,104842,1,0,0:0:0:0:
81,226,105009,1,0,0:0:0:0:
340,303,105175,1,0,0:0:0:0:
173,110,105342,1,0,0:0:0:0:
203,313,105509,1,0,0:0:0:0:
297,51,105675,5,0,0:0:0:0:
389,193,105842,1,0,0:0:0:0:
197,137,106009,1,0,0:0:0:0:
389,193,106175,5,0,0:0:0:0:
297,51,106342,1,0,0:0:0:0:
489,107,106509,1,0,0:0:0:0:
289,279,106675,5,0,0:0:0:0:
197,137,106842,1,0,0:0:0:0:
389,193,107009,1,0,0:0:0:0:
197,137,107175,5,0,0:0:0:0:
289,279,107342,1,0,0:0:0:0:
97,223,107509,1,0,0:0:0:0:
121,109,107675,5,0,0:0:0:0:
351,147,107842,1,0,0:0:0:0:
121,109,108009,1,0,0:0:0:0:
289,53,108175,5,0,0:0:0:0:
196,266,108342,1,0,0:0:0:0:
289,53,108509,1,0,0:0:0:0:
140,202,108675,5,0,0:0:0:0:
370,240,108842,1,0,0:0:0:0:
140,202,109009,1,0,0:0:0:0:
205,173,109175,5,0,0:0:0:0:
373,333,109342,1,0,0:0:0:0:
205,173,109509,1,0,0:0:0:0:
452,59,109675,5,0,0:0:0:0:
61,331,109842,1,0,0:0:0:0:
452,59,110009,1,0,0:0:0:0:
69,131,110175,5,0,0:0:0:0:
413,314,110342,1,0,0:0:0:0:
69,131,110509,1,0,0:0:0:0:
258,190,110675,5,0,0:0:0:0:
55,328,110842,1,0,0:0:0:0:
189,235,111009,1,0,0:0:0:0:
55,328,111175,1,0,0:0:0:0:
108,79,111342,5,0,0:0:0:0:
429,332,111509,1,0,0:0:0:0:
173,129,111676,1,0,0:0:0:0:
429,332,111842,1,0,0:0:0:0:
410,77,112009,5,0,0:0:0:0:
410,77,112175,1,0,0:0:0:0:
102,263,112509,5,0,0:0:0:0:
250,59,112842,5,0,0:0:0:0:
365,292,113342,5,0,0:0:0:0:
105,80,113675,5,0,0:0:0:0:
40,280,114009,5,0,0:0:0:0:
40,144,114175,1,0,0:0:0:0:
96,280,114342,1,0,0:0:0:0:
96,152,114509,1,0,0:0:0:0:
144,280,114675,1,0,0:0:0:0:
144,152,114842,1,0,0:0:0:0:
184,256,115009,1,0,0:0:0:0:
184,160,115175,1,0,0:0:0:0:
216,240,115342,5,0,0:0:0:0:
216,168,115509,1,0,0:0:0:0:
248,224,115675,1,0,0:0:0:0:
248,192,115759,1,0,0:0:0:0:
280,224,115842,1,0,0:0:0:0:
280,192,115926,1,0,0:0:0:0:
312,224,116009,1,0,0:0:0:0:
312,192,116093,1,0,0:0:0:0:
344,216,116175,1,0,0:0:0:0:
344,200,116259,1,0,0:0:0:0:
376,208,116342,1,0,0:0:0:0:
400,200,116425,1,0,0:0:0:0:
416,184,116509,1,0,0:0:0:0:
432,152,116592,1,0,0:0:0:0:
440,88,116675,6,0,B|456:56|456:56|456:48|440:40|432:48|432:56|440:64|440:64|456:64|456:64|456:48|456:48|448:40|448:40|440:48|440:48|432:64|448:64|448:64|448:40|448:40|432:40|432:40|432:48|432:48|440:64|440:64|456:64|456:64|408:40|376:72,1,323.999990112305
192,64,119342,5,0,0:0:0:0:
408,200,119509,5,0,0:0:0:0:
128,304,119675,5,0,0:0:0:0:
288,48,120009,5,0,0:0:0:0:
56,320,120175,1,0,0:0:0:0:
456,160,120342,1,0,0:0:0:0:
64,104,120509,1,0,0:0:0:0:
240,336,120675,1,0,0:0:0:0:
384,64,120842,1,0,0:0:0:0:
182,313,121009,5,0,0:0:0:0:
496,142,121175,1,0,0:0:0:0:
65,148,121342,1,0,0:0:0:0:
411,341,121509,1,0,0:0:0:0:
330,61,121675,1,0,0:0:0:0:
98,264,121842,1,0,0:0:0:0:
264,56,122009,5,0,0:0:0:0:
304,328,122175,1,0,0:0:0:0:
80,64,122342,1,0,0:0:0:0:
480,192,122509,1,0,0:0:0:0:
32,336,122675,1,0,0:0:0:0:
408,40,122842,1,0,0:0:0:0:
169,350,123009,5,0,0:0:0:0:
356,33,123175,1,0,0:0:0:0:
285,343,123342,1,0,0:0:0:0:
131,46,123509,1,0,0:0:0:0:
504,269,123675,1,0,0:0:0:0:
30,219,123842,1,0,0:0:0:0:
484,87,124009,1,0,0:0:0:0:
348,335,124175,5,0,0:0:0:0:
207,32,124342,1,0,0:0:0:0:
172,344,124509,1,0,0:0:0:0:
405,45,124675,1,0,0:0:0:0:
80,294,124842,1,0,0:0:0:0:
431,216,125009,1,0,0:0:0:0:
87,132,125175,1,0,0:0:0:0:
274,346,125342,5,0,0:0:0:0:
405,45,125509,1,0,0:0:0:0:
83,264,125675,1,0,0:0:0:0:
423,315,125842,1,0,0:0:0:0:
197,48,126009,1,0,0:0:0:0:
292,324,126175,5,0,0:0:0:0:
341,29,126342,1,0,0:0:0:0:
155,335,126509,1,0,0:0:0:0:
425,95,126675,1,0,0:0:0:0:
134,161,126842,1,0,0:0:0:0:
416,302,127009,1,0,0:0:0:0:
313,52,127175,1,0,0:0:0:0:
55,345,127342,1,0,0:0:0:0:
