osu file format v14

[General]
AudioFilename: audio.mp3
AudioLeadIn: 0
PreviewTime: 59270
Countdown: 0
SampleSet: Soft
StackLeniency: 0.7
Mode: 0
LetterboxInBreaks: 0
WidescreenStoryboard: 1

[Editor]
DistanceSpacing: 1
BeatDivisor: 4
GridSize: 4
TimelineZoom: 1.4

[Metadata]
Title:AxxxiS
TitleUnicode:AxxxiS
Artist:LiSA
ArtistUnicode:LiSA
Creator:SpokenAway
Version:Normal
Source:クオリディア・コード
Tags:Qualidea Code Kuoridia Kōdo kodo brave freak out best day anime opening two rock jrock j-rock serafeim shirahane suou japanese
BeatmapID:3012160
BeatmapSetID:1451433

[Difficulty]
HPDrainRate:3
CircleSize:3
OverallDifficulty:4
ApproachRate:5.5
SliderMultiplier:0.999999999999999
SliderTickRate:1

[Events]
//Background and Video events
0,0,"4k.jpg",0,0
//Break Periods
2,17872,26444
2,113130,119228
2,177460,186032
2,196789,198403
//Storyboard Layer 0 (Background)
//Storyboard Layer 1 (Fail)
//Storyboard Layer 2 (Pass)
//Storyboard Layer 3 (Foreground)
//Storyboard Layer 4 (Overlay)
//Storyboard Sound Samples

[TimingPoints]
353,309.278350515464,4,2,1,70,1,0
353,-100,4,2,1,45,0,0
6383,-100,4,2,1,45,0,0
7002,-100,4,2,1,55,0,0
7775,-100,4,2,1,65,0,0
17672,-100,4,2,1,50,0,0
27569,-100,4,2,1,60,0,0
37466,-100,4,2,1,55,0,0
46126,-100,4,2,1,65,0,0
47363,-100,4,2,1,60,0,0
54785,-100,4,2,1,55,0,0
57260,-100,4,2,1,65,0,0
59347,-100,4,2,1,70,0,0
59734,-100,4,2,1,80,0,1
80765,-100,4,2,1,60,0,0
82002,-100,4,2,1,70,0,0
93136,-100,4,2,1,55,0,0
103033,-100,4,2,1,60,0,0
112930,-100,4,2,1,50,0,0
120043,-100,4,2,1,60,0,0
120353,-100,4,2,1,70,0,0
122827,-100,4,2,1,60,0,0
130249,-100,4,2,1,55,0,0
132724,-100,4,2,1,70,0,0
134889,-100,4,2,1,50,0,0
135198,-100,4,2,1,80,0,1
157466,-100,4,2,1,75,0,0
167363,-100,4,2,1,80,0,0
177260,-100,4,2,1,50,0,0
187157,-100,4,2,2,40,0,0
196280,-100,4,2,1,60,0,0
199218,-100,4,2,1,45,0,0
199528,-100,4,2,1,55,0,0
214373,-100,4,2,1,60,0,0
216847,-100,4,2,1,70,0,0
219631,-100,4,2,1,80,0,1
245301,-100,4,2,1,55,0,0
246538,-100,4,2,1,70,0,0
256280,-100,4,2,1,70,0,0

[Colours]
Combo1 : 235,131,99
Combo2 : 169,82,99
Combo3 : 153,141,184
Combo4 : 100,96,164

[HitObjects]
80,73,7775,6,0,L|61:185,1,99.9999999999999,6|8,3:2|0:2,0:0:0:0:
53,220,8239,1,2,3:2:0:0:
103,306,8548,1,0,3:0:0:0:
103,306,8703,2,0,P|173:274|255:298,1,150,2|0,0:0|3:0,0:0:0:0:
285,315,9322,1,12,0:0:0:0:
378,268,9631,2,0,P|359:219|367:168,1,99.9999999999999,2|8,0:0|0:0,0:0:0:0:
393,131,10095,1,8,0:0:0:0:
393,131,10249,6,0,L|240:69,1,150,6|2,3:2|3:2,0:0:0:0:
207,55,10868,1,8,0:0:0:0:
118,101,11177,2,0,L|128:210,1,99.9999999999999,2|8,0:0|0:0,0:0:0:0:
203,264,11796,1,0,0:0:0:0:
141,343,12105,2,0,L|48:315,2,74.9999999999999,10|10|10,0:0|0:0|0:0,0:0:0:0:
183,370,12724,6,0,L|345:330,1,150,6|0,3:2|3:0,0:0:0:0:
378,325,13342,1,8,0:0:0:0:
444,248,13651,2,0,L|407:143,1,99.9999999999999,2|8,0:0|0:2,0:0:0:0:
333,89,14270,1,0,0:0:0:0:
392,9,14579,2,0,P|457:11|481:33,1,99.9999999999999,10|8,0:0|0:0,0:0:0:0:
483,147,15198,6,0,L|463:256,1,99.9999999999999,6|8,3:2|0:0,0:0:0:0:
408,327,15816,1,8,0:0:0:0:
339,254,16126,1,6,0:0:0:0:
244,286,16435,2,0,P|222:340|234:387,2,99.9999999999999,10|0|0,0:0|3:2|3:2,0:0:0:0:
200,195,17363,1,8,0:0:0:0:
271,124,17672,1,6,3:2:0:0:
445,329,27569,6,0,L|334:303,1,99.9999999999999,6|10,3:2|0:0,0:0:0:0:
302,284,28033,2,0,L|200:306,1,99.9999999999999,2|2,3:2|3:2,0:0:0:0:
108,332,28651,2,0,P|86:297|99:233,2,99.9999999999999,0|2|2,3:2|3:2|3:2,0:0:0:0:
201,367,29579,2,0,L|255:352,1,50,2|8,3:2|0:0,0:0:0:0:
346,328,30043,6,0,P|374:275|370:232,1,99.9999999999999,2|10,3:2|0:2,0:0:0:0:
396,193,30507,2,0,L|449:89,1,99.9999999999999,2|2,3:2|3:2,0:0:0:0:
357,48,31126,2,0,P|312:27|246:46,2,99.9999999999999,2|2|2,3:2|3:2|3:2,0:0:0:0:
340,146,32054,2,0,L|326:203,1,50,2|8,3:2|0:0,0:0:0:0:
275,279,32517,6,0,L|291:334,2,50,2|2|10,3:2|3:2|0:0,0:0:0:0:
235,247,32981,2,0,P|172:230|97:268,1,150,2|8,3:2|0:0,0:0:0:0:
32,336,33755,2,0,L|53:395,2,50,2|2|10,3:2|3:2|0:0,0:0:0:0:
5,293,34218,2,0,L|9:141,1,150,2|8,3:2|0:0,0:0:0:0:
66,57,34992,5,6,3:2:0:0:
163,35,35301,1,10,0:0:0:0:
230,108,35610,2,0,L|209:221,1,99.9999999999999,2|14,0:0|0:0,0:0:0:0:
199,254,36074,1,2,3:2:0:0:
199,254,36229,2,0,L|231:351,1,99.9999999999999,10|10,0:0|0:0,0:0:0:0:
330,354,36847,2,0,P|380:365|429:339,1,99.9999999999999,8|12,0:3|0:3,0:0:0:0:
477,261,37466,1,6,3:2:0:0:
140,164,38703,6,0,L|93:15,2,150,2|0|2,0:0|0:0|0:0,0:0:0:0:
215,230,39940,2,0,L|417:180,1,200,6|2,3:2|0:0,0:0:0:0:
266,42,41177,2,0,P|192:24|117:60,2,150,2|0|2,0:0|0:0|0:0,0:0:0:0:
338,110,42414,2,0,L|310:327,1,200,6|2,3:2|0:0,0:0:0:0:
113,328,43651,2,0,L|72:179,2,150,2|0|2,0:0|0:0|0:0,0:0:0:0:
210,353,44889,6,0,P|264:353|315:337,1,99.9999999999999,14|0,0:0|0:0,0:0:0:0:
329,294,45353,2,0,L|314:137,1,150,10|10,0:0|0:0,0:0:0:0:
217,169,46126,2,0,P|114:178|18:119,1,200,10|8,0:0|0:0,0:0:0:0:
208,40,47363,6,0,P|261:29|316:50,1,99.9999999999999,6|2,3:2|0:0,0:0:0:0:
348,65,47827,2,0,L|334:182,1,99.9999999999999,0|2,3:2|0:0,0:0:0:0:
336,214,48291,1,2,0:0:0:0:
263,282,48600,1,2,3:2:0:0:
343,341,48909,1,2,0:0:0:0:
432,295,49218,2,0,L|459:198,1,99.9999999999999,10|2,0:0|0:0,0:0:0:0:
476,98,49837,6,0,L|375:65,1,99.9999999999999,6|2,3:2|0:0,0:0:0:0:
337,42,50301,2,0,L|237:71,1,99.9999999999999,2|2,3:2|3:2,0:0:0:0:
205,105,50765,1,2,0:0:0:0:
112,68,51074,1,2,3:2:0:0:
36,133,51383,1,2,0:0:0:0:
97,212,51693,2,0,L|89:334,1,99.9999999999999,10|8,0:0|0:3,0:0:0:0:
174,354,52311,6,0,P|216:336|275:353,2,99.9999999999999,6|2|8,3:2|0:0|0:0,0:0:0:0:
87,303,53239,1,2,0:0:0:0:
163,238,53548,2,0,L|146:129,1,99.9999999999999,2|2,3:2|0:0,0:0:0:0:
184,45,54167,2,0,P|232:29|289:52,1,99.9999999999999,10|10,0:0|0:0,0:0:0:0:
313,143,54785,6,0,L|319:307,2,150,14|8|8,0:0|0:3|0:3,0:0:0:0:
342,47,56023,1,0,3:0:0:0:
342,47,56177,2,0,P|409:24|493:63,1,150,8|8,0:3|0:3,0:0:0:0:
499,148,56950,1,2,3:2:0:0:
436,226,57260,6,0,L|329:201,1,99.9999999999999,14|0,0:0|3:2,0:0:0:0:
290,187,57724,2,0,L|183:212,1,99.9999999999999,14|0,0:0|3:2,0:0:0:0:
144,224,58188,1,12,0:0:0:0:
63,282,58497,1,0,3:2:0:0:
63,282,58651,2,0,L|46:371,2,74.9999999999999,10|10|10,0:0|0:0|0:0,0:0:0:0:
70,110,59734,6,0,L|37:14,2,99.9999999999999,6|8|0,3:1|0:0|3:2,0:0:0:0:
157,158,60662,1,10,0:0:0:0:
157,158,60816,2,0,L|275:133,1,99.9999999999999,2|2,0:0|0:0,0:0:0:0:
341,87,61435,1,2,0:0:0:0:
341,87,61590,2,0,P|417:84|445:106,1,99.9999999999999,0|10,3:2|0:0,0:0:0:0:
485,181,62208,5,2,3:2:0:0:
416,253,62517,1,10,0:0:0:0:
336,192,62827,2,0,L|274:209,1,50,2|2,3:2|0:0,0:0:0:0:
239,217,63136,1,10,0:0:0:0:
239,217,63291,2,0,L|126:193,1,99.9999999999999,14|2,0:0|0:0,0:0:0:0:
49,235,63909,1,10,0:0:0:0:
49,235,64064,2,0,P|29:293|41:332,1,99.9999999999999,0|8,3:0|0:0,0:0:0:0:
90,346,64528,1,10,0:0:0:0:
90,346,64682,6,0,L|202:335,1,99.9999999999999,6|10,3:2|0:0,0:0:0:0:
282,299,65301,2,0,P|308:262|308:197,1,99.9999999999999,2|8,3:2|0:0,0:0:0:0:
305,158,65765,1,2,0:0:0:0:
305,158,65920,1,2,3:2:0:0:
231,89,66229,1,10,0:0:0:0:
143,137,66538,2,0,L|132:81,1,50,2|8,3:2|0:0,0:0:0:0:
123,38,66847,1,8,0:0:0:0:
35,87,67157,6,0,P|20:136|42:198,1,99.9999999999999,6|10,3:2|0:0,0:0:0:0:
118,232,67775,1,2,3:2:0:0:
57,311,68084,2,0,P|85:328|113:345,1,50,10|0,0:0|0:0,0:0:0:0:
146,354,68394,2,0,P|221:364|261:346,1,99.9999999999999,14|8,0:0|0:0,0:0:0:0:
278,321,68858,1,10,0:0:0:0:
278,321,69012,2,0,L|279:222,1,99.9999999999999,8|8,0:0|0:0,0:0:0:0:
230,133,69631,6,0,P|173:112|120:132,2,99.9999999999999,6|8|0,3:2|0:0|3:2,0:0:0:0:
331,118,70559,1,10,0:0:0:0:
331,118,70713,2,0,L|431:94,1,99.9999999999999,14|2,0:0|0:0,0:0:0:0:
477,104,71177,1,8,0:0:0:0:
477,104,71332,2,0,L|458:221,1,99.9999999999999,2|0,0:0|0:0,0:0:0:0:
450,251,71796,1,10,0:0:0:0:
370,311,72105,5,2,3:2:0:0:
287,253,72414,1,10,0:0:0:0:
204,309,72724,2,0,L|141:294,1,50,2|2,3:2|0:0,0:0:0:0:
123,254,73033,1,10,0:0:0:0:
123,254,73188,2,0,P|109:206|124:150,1,99.9999999999999,14|2,0:0|0:0,0:0:0:0:
154,64,73806,2,0,P|77:45|7:80,1,150,2|8,0:0|0:0,0:0:0:0:
9,122,74425,1,10,0:0:0:0:
9,122,74579,6,0,L|35:233,2,99.9999999999999,6|10|2,3:2|0:0|3:2,0:0:0:0:
93,67,75507,1,8,0:0:0:0:
157,142,75816,2,0,L|272:124,1,99.9999999999999,2|10,3:2|0:0,0:0:0:0:
351,97,76435,2,0,L|466:115,1,99.9999999999999,2|8,3:2|0:0,0:0:0:0:
476,152,76899,1,2,0:0:0:0:
476,152,77054,5,6,3:2:0:0:
410,227,77363,1,10,0:0:0:0:
479,298,77672,1,8,0:3:0:0:
401,360,77981,2,0,L|352:337,1,50,10|0,0:0|3:0,0:0:0:0:
315,311,78291,2,0,P|261:286|209:296,1,99.9999999999999,10|10,0:0|0:0,0:0:0:0:
174,306,78755,1,0,3:2:0:0:
174,306,78909,2,0,L|62:280,1,99.9999999999999,10|8,0:0|0:0,0:0:0:0:
19,201,79528,6,0,L|7:90,1,99.9999999999999,14|0,0:0|3:2,0:0:0:0:
43,59,79992,2,0,P|90:42|146:57,1,99.9999999999999,14|0,0:0|3:2,0:0:0:0:
186,63,80456,1,10,0:3:0:0:
235,149,80765,5,6,3:2:0:0:
479,42,82002,6,0,L|375:64,1,99.9999999999999,6|10,3:2|0:0,0:0:0:0:
334,80,82466,1,2,3:2:0:0:
245,33,82775,1,2,3:2:0:0:
245,33,82930,2,0,B|180:57|180:57|148:140,1,150,10|0,0:0|3:2,0:0:0:0:
135,179,83548,1,14,0:0:0:0:
211,243,83858,2,0,L|312:224,1,99.9999999999999,2|8,0:0|0:0,0:0:0:0:
352,199,84322,1,8,0:0:0:0:
352,199,84476,6,0,P|381:216|385:330,1,150,6|2,3:2|3:2,0:0:0:0:
365,364,85095,1,8,0:0:0:0:
280,310,85404,1,2,0:0:0:0:
194,365,85713,2,0,L|84:339,1,99.9999999999999,8|0,0:0|0:0,0:0:0:0:
58,249,86332,2,0,P|32:209|2:172,2,74.9999999999999,10|10|10,0:0|0:0|0:0,0:0:0:0:
107,241,86950,6,0,L|226:210,2,99.9999999999999,6|8|8,3:2|0:0|0:0,0:0:0:0:
83,143,87878,2,0,P|74:92|94:38,1,99.9999999999999,2|8,0:0|0:0,0:0:0:0:
185,21,88497,1,0,0:0:0:0:
256,90,88806,2,0,L|231:195,1,99.9999999999999,10|8,0:0|0:0,0:0:0:0:
156,251,89425,6,0,L|181:367,2,99.9999999999999,6|8|8,3:2|0:0|0:0,0:0:0:0:
85,180,90353,2,0,L|90:122,1,50,2|8,3:2|0:0,0:0:0:0:
115,87,90662,2,0,L|220:64,1,99.9999999999999,0|8,3:2|0:0,0:0:0:0:
291,7,91280,1,8,0:0:0:0:
375,61,91590,6,0,L|364:168,1,99.9999999999999,8|0,0:0|3:2,0:0:0:0:
336,204,92054,2,0,L|256:189,2,74.9999999999999,14|14|14,0:0|0:0|0:0,0:0:0:0:
421,256,92827,1,2,3:2:0:0:
376,345,93136,6,0,L|261:316,1,99.9999999999999,6|10,3:2|0:0,0:0:0:0:
228,321,93600,2,0,P|200:265|221:220,1,99.9999999999999,2|2,3:2|3:2,0:0:0:0:
278,159,94218,2,0,L|383:147,2,99.9999999999999,2|2|2,0:0|3:2|3:2,0:0:0:0:
197,99,95146,2,0,L|179:40,1,50,2|8,3:2|0:0,0:0:0:0:
87,19,95610,6,0,P|55:49|60:119,1,99.9999999999999,2|10,3:2|0:0,0:0:0:0:
80,143,96074,1,2,3:2:0:0:
150,214,96383,1,2,3:2:0:0:
106,304,96693,2,0,P|159:318|215:290,2,99.9999999999999,2|2|2,0:0|3:2|3:2,0:0:0:0:
17,257,97621,2,0,L|4:205,1,50,2|14,3:2|0:0,0:0:0:0:
142,41,98858,2,0,L|204:60,1,50,2|8,3:2|0:0,0:0:0:0:
267,118,99322,6,0,L|379:93,1,99.9999999999999,2|10,3:2|0:0,0:0:0:0:
414,91,99785,2,0,P|444:120|437:195,1,99.9999999999999,2|2,3:2|3:2,0:0:0:0:
434,224,100249,1,8,0:0:0:0:
353,283,100559,6,0,L|355:390,2,99.9999999999999,2|10|2,3:2|0:0|0:0,0:0:0:0:
282,211,101487,1,10,0:0:0:0:
197,264,101796,2,0,L|94:238,1,99.9999999999999,10|0,0:0|0:0,0:0:0:0:
35,163,102414,1,2,3:2:0:0:
97,84,102724,1,10,0:0:0:0:
180,138,103033,6,0,P|239:146|283:120,1,99.9999999999999,6|10,3:2|0:2,0:0:0:0:
314,98,103497,2,0,L|420:127,1,99.9999999999999,2|2,3:2|3:2,0:0:0:0:
476,199,104115,2,0,L|461:307,1,99.9999999999999,2|2,0:0|3:2,0:0:0:0:
455,347,104579,1,8,0:0:0:0:
455,347,104734,1,2,3:2:0:0:
369,295,105043,2,0,L|313:284,1,50,2|8,3:2|0:0,0:0:0:0:
242,221,105507,6,0,P|223:175|232:126,1,99.9999999999999,6|10,3:2|0:0,0:0:0:0:
234,76,105971,2,0,L|134:61,1,99.9999999999999,2|2,3:2|3:2,0:0:0:0:
43,102,106590,2,0,L|66:204,1,99.9999999999999,2|2,0:0|3:2,0:0:0:0:
143,261,107208,1,2,3:2:0:0:
219,196,107517,2,0,P|244:203|272:215,1,50,2|8,3:2|0:0,0:0:0:0:
358,247,107981,6,0,L|393:204,2,50,2|2|10,3:2|0:0|0:0,0:0:0:0:
334,291,108445,2,0,L|229:311,1,99.9999999999999,2|2,3:2|3:2,0:0:0:0:
187,323,108909,1,8,0:0:0:0:
92,356,109218,2,0,L|41:372,2,50,10|2|14,0:0|3:2|0:0,0:0:0:0:
85,306,109682,2,0,P|93:261|66:195,1,99.9999999999999,2|2,3:2|3:2,0:0:0:0:
55,170,110146,1,14,0:0:0:0:
92,77,110456,6,0,L|150:67,1,50,14|8,0:0|0:0,0:0:0:0:
191,69,110765,2,0,L|248:86,1,50,10|8,0:0|0:0,0:0:0:0:
278,113,111074,2,0,P|332:129|380:105,1,99.9999999999999,10|10,0:0|0:0,0:0:0:0:
424,29,111693,2,0,P|478:45|521:84,2,99.9999999999999,6|2|2,3:2|3:2|3:2,0:0:0:0:
325,10,112621,1,2,3:2:0:0:
243,68,112930,1,6,3:2:0:0:
57,34,120353,6,0,L|77:145,1,99.9999999999999,14|0,0:0|3:2,0:0:0:0:
100,175,120816,1,14,0:0:0:0:
100,175,120971,2,0,L|80:286,1,99.9999999999999,0|14,3:2|0:0,0:0:0:0:
140,354,121590,2,0,P|247:377|331:317,1,200,10|8,0:0|0:0,0:0:0:0:
446,177,122827,6,0,L|436:281,1,99.9999999999999,6|2,3:2|0:0,0:0:0:0:
425,325,123291,2,0,P|371:343|318:319,1,99.9999999999999,2|2,3:2|0:0,0:0:0:0:
290,301,123755,1,2,0:0:0:0:
210,239,124064,1,2,3:2:0:0:
124,290,124373,1,2,0:0:0:0:
59,213,124682,2,0,L|37:111,1,99.9999999999999,10|14,0:0|0:0,0:0:0:0:
111,47,125301,6,0,P|163:30|221:54,1,99.9999999999999,6|2,3:2|0:0,0:0:0:0:
243,74,125765,2,0,L|257:184,1,99.9999999999999,2|2,3:2|3:2,0:0:0:0:
263,222,126229,1,2,0:0:0:0:
195,295,126538,2,0,P|127:300|91:269,2,99.9999999999999,2|2|10,3:2|0:0|0:0,0:0:0:0:
273,356,127466,1,8,0:0:0:0:
330,274,127775,6,0,L|437:254,1,99.9999999999999,6|2,3:2|0:0,0:0:0:0:
476,240,128239,2,0,P|491:203|467:143,1,99.9999999999999,2|2,3:2|3:2,0:0:0:0:
433,117,128703,1,2,0:0:0:0:
348,169,129012,2,0,L|236:145,1,99.9999999999999,2|2,3:2|0:0,0:0:0:0:
180,76,129631,1,10,0:0:0:0:
85,107,129940,1,10,0:0:0:0:
126,197,130249,6,0,L|118:357,2,150,2|10|0,3:2|0:0|3:0,0:0:0:0:
189,119,131487,2,0,P|241:100|294:121,1,99.9999999999999,0|8,3:0|0:3,0:0:0:0:
320,143,131950,1,8,0:0:0:0:
320,143,132105,2,0,L|426:127,1,99.9999999999999,0|8,3:0|0:3,0:0:0:0:
496,191,132724,6,0,L|478:298,1,99.9999999999999,14|0,0:0|3:0,0:0:0:0:
455,333,133188,2,0,P|407:348|354:322,1,99.9999999999999,14|0,0:0|3:0,0:0:0:0:
331,291,133651,1,10,0:0:0:0:
259,221,133961,1,8,0:0:0:0:
259,221,134115,2,0,L|238:134,2,74.9999999999999,10|10|10,0:0|0:0|0:0,0:0:0:0:
106,351,135198,6,0,P|52:355|14:325,2,99.9999999999999,6|8|0,3:1|0:0|3:0,0:0:0:0:
182,285,136126,1,10,0:0:0:0:
182,285,136280,2,0,L|295:306,1,99.9999999999999,2|2,0:0|0:0,0:0:0:0:
380,313,136899,1,0,0:0:0:0:
380,313,137054,2,0,P|404:261|387:208,1,99.9999999999999,0|10,3:2|0:0,0:0:0:0:
322,153,137672,6,0,L|223:137,1,99.9999999999999,2|10,3:2|0:0,0:0:0:0:
132,186,138291,2,0,P|105:182|73:169,1,50,2|2,3:2|0:0,0:0:0:0:
70,126,138600,1,10,0:0:0:0:
70,126,138755,2,0,P|56:71|89:23,1,99.9999999999999,14|2,0:0|0:0,0:0:0:0:
174,38,139373,1,6,3:2:0:0:
174,38,139528,2,0,L|285:27,1,99.9999999999999,0|10,3:2|0:0,0:0:0:0:
323,23,139992,1,8,0:0:0:0:
323,23,140146,6,0,P|366:75|358:118,1,99.9999999999999,6|10,3:2|0:0,0:0:0:0:
371,203,140765,2,0,L|361:321,1,99.9999999999999,2|8,3:2|0:0,0:0:0:0:
337,345,141229,1,2,0:0:0:0:
337,345,141383,1,2,3:2:0:0:
256,284,141693,1,10,0:0:0:0:
174,341,142002,2,0,L|123:328,1,50,2|8,3:2|0:0,0:0:0:0:
78,310,142311,1,8,0:0:0:0:
140,231,142621,6,0,L|163:120,1,99.9999999999999,6|10,3:2|0:0,0:0:0:0:
217,50,143239,1,2,3:2:0:0:
123,14,143548,2,0,L|74:44,1,50,2|0,3:2|0:0,0:0:0:0:
44,73,143858,2,0,P|17:128|41:180,1,99.9999999999999,10|8,0:0|0:2,0:0:0:0:
63,196,144322,1,0,3:2:0:0:
63,196,144476,2,0,L|170:198,1,99.9999999999999,10|14,0:0|0:0,0:0:0:0:
251,245,145095,6,0,L|263:363,2,99.9999999999999,6|8|0,3:2|0:0|3:0,0:0:0:0:
296,155,146023,1,10,0:0:0:0:
296,155,146177,2,0,P|285:105|308:49,1,99.9999999999999,14|2,0:0|0:0,0:0:0:0:
342,21,146641,1,8,0:0:0:0:
342,21,146796,2,0,P|397:16|449:38,1,99.9999999999999,2|0,0:0|0:0,0:0:0:0:
477,62,147260,1,10,0:0:0:0:
427,149,147569,5,2,3:2:0:0:
483,231,147878,1,10,0:0:0:0:
433,318,148188,2,0,L|369:303,1,50,2|2,3:2|0:0,0:0:0:0:
334,299,148497,1,10,0:0:0:0:
334,299,148651,2,0,L|230:314,1,99.9999999999999,14|2,0:0|0:0,0:0:0:0:
161,245,149270,2,0,L|129:88,1,150,10|8,0:0|0:0,0:0:0:0:
144,49,149889,1,10,0:0:0:0:
144,49,150043,6,0,L|256:31,1,99.9999999999999,6|10,3:2|0:0,0:0:0:0:
313,103,150662,2,0,P|328:159|294:206,1,99.9999999999999,2|8,3:2|0:0,0:0:0:0:
244,273,151280,1,2,3:2:0:0:
325,330,151590,1,8,0:0:0:0:
415,291,151899,2,0,L|445:194,1,99.9999999999999,2|8,3:2|0:0,0:0:0:0:
464,97,152517,5,6,3:2:0:0:
406,15,152827,1,10,0:2:0:0:
334,84,153136,1,2,3:2:0:0:
253,25,153445,2,0,L|197:43,1,50,2|0,3:2|0:0,0:0:0:0:
155,46,153755,2,0,P|77:46|46:57,1,99.9999999999999,10|8,0:0|0:2,0:0:0:0:
32,95,154218,1,2,3:2:0:0:
32,95,154373,2,0,P|25:151|64:193,1,99.9999999999999,10|8,0:0|0:0,0:0:0:0:
138,228,154992,6,0,L|251:205,1,99.9999999999999,14|0,0:0|3:2,0:0:0:0:
277,179,155456,2,0,L|390:202,1,99.9999999999999,14|0,0:0|3:2,0:0:0:0:
423,210,155920,1,10,0:0:0:0:
489,284,156229,2,0,P|495:321|460:375,1,99.9999999999999,10|2,0:0|3:2,0:0:0:0:
377,321,156847,1,2,3:2:0:0:
287,365,157157,1,10,0:0:0:0:
205,306,157466,6,0,L|193:191,1,99.9999999999999,6|0,3:2|0:0,0:0:0:0:
172,108,158084,2,0,P|120:85|66:98,1,99.9999999999999,10|2,0:0|3:2,0:0:0:0:
38,120,158548,2,0,L|37:236,1,99.9999999999999,10|2,0:0|3:2,0:0:0:0:
40,270,159012,1,10,0:0:0:0:
112,338,159322,2,0,L|225:332,1,99.9999999999999,2|10,3:2|0:0,0:0:0:0:
288,268,159940,5,6,3:2:0:0:
371,322,160249,2,0,L|386:383,2,50,2|2|8,0:0|3:2|0:0,0:0:0:0:
425,237,160868,1,6,3:2:0:0:
425,237,161023,2,0,L|431:126,1,99.9999999999999,10|2,0:0|3:2,0:0:0:0:
436,87,161487,1,10,0:0:0:0:
357,25,161796,2,0,P|300:16|249:37,1,99.9999999999999,8|14,0:3|0:0,0:0:0:0:
202,110,162414,5,2,3:2:0:0:
202,110,162569,2,0,L|224:230,1,99.9999999999999,2|0,3:2|3:2,0:0:0:0:
230,257,163033,1,8,0:0:0:0:
164,332,163342,1,10,0:0:0:0:
164,332,163497,2,0,P|97:340|35:268,1,150,2|0,0:0|0:0,0:0:0:0:
1,194,164270,1,10,0:0:0:0:
53,108,164579,1,2,0:0:0:0:
120,182,164889,6,0,L|131:248,2,50,2|10|0,3:2|0:0|0:0,0:0:0:0:
178,101,165507,2,0,P|227:89|280:106,1,99.9999999999999,10|8,0:0|0:0,0:0:0:0:
319,122,165971,2,0,P|319:199|319:276,1,150,2|0,3:2|3:2,0:0:0:0:
360,363,166744,2,0,P|413:377|465:356,1,99.9999999999999,10|10,0:0|0:0,0:0:0:0:
478,261,167363,6,0,P|492:214|479:166,1,99.9999999999999,14|2,0:0|3:2,0:0:0:0:
453,124,167827,1,10,0:0:0:0:
366,174,168136,1,2,3:2:0:0:
366,174,168291,2,0,L|199:156,1,150,10|10,0:0|0:0,0:0:0:0:
128,110,169064,1,2,3:2:0:0:
128,110,169218,2,0,L|111:56,2,50,10|0|10,0:0|3:2|0:0,0:0:0:0:
83,199,169837,6,0,P|61:236|88:305,1,99.9999999999999,14|2,0:0|3:2,0:0:0:0:
102,331,170301,1,10,0:0:0:0:
196,362,170610,1,2,3:2:0:0:
196,362,170765,2,0,L|357:338,1,150,10|10,0:0|0:0,0:0:0:0:
416,269,171538,1,0,3:2:0:0:
416,269,171693,2,0,L|473:287,2,50,10|2|8,0:0|3:2|0:0,0:0:0:0:
337,207,172311,6,0,L|317:100,1,99.9999999999999,14|10,0:0|0:0,0:0:0:0:
328,59,172775,2,0,P|388:32|429:46,1,99.9999999999999,2|2,3:2|3:0,0:0:0:0:
464,60,173239,1,10,0:0:0:0:
494,154,173548,1,10,0:0:0:0:
494,154,173703,2,0,L|479:315,1,150,10|10,0:0|0:0,0:0:0:0:
474,353,174322,2,0,P|439:365|369:345,1,99.9999999999999,0|8,3:2|0:3,0:0:0:0:
345,315,174785,6,0,L|229:332,1,99.9999999999999,14|10,0:0|0:0,0:0:0:0:
196,334,175249,1,10,0:0:0:0:
110,282,175559,1,2,3:2:0:0:
110,282,175713,2,0,P|88:234|112:177,1,99.9999999999999,10|2,0:0|3:2,0:0:0:0:
130,150,176177,2,0,L|243:139,1,99.9999999999999,10|0,0:0|3:2,0:0:0:0:
275,160,176641,2,0,L|287:209,2,50,14|10|10,0:0|0:0|0:0,0:0:0:0:
321,71,177260,5,6,3:2:0:0:
441,337,187157,6,0,L|331:323,1,99.9999999999999,8|8,0:0|0:0,0:0:0:0:
259,267,187775,1,8,0:0:0:0:
187,336,188084,2,0,L|122:324,1,50,10|10,0:0|0:0,0:0:0:0:
92,305,188394,2,0,L|82:195,1,99.9999999999999,10|8,0:0|0:0,0:0:0:0:
115,110,189012,2,0,P|164:92|219:113,1,99.9999999999999,10|8,0:0|0:0,0:0:0:0:
285,168,189631,6,0,P|331:134|303:10,1,200,10|8,0:0|0:0,0:0:0:0:
211,50,190559,2,0,L|157:42,1,50,10|10,0:0|0:0,0:0:0:0:
111,40,190868,2,0,P|77:85|87:132,1,99.9999999999999,8|8,0:0|0:0,0:0:0:0:
166,180,191487,2,0,L|156:296,1,99.9999999999999,10|8,0:0|0:0,0:0:0:0:
228,349,192105,6,0,P|286:361|324:349,1,99.9999999999999,10|8,0:0|0:0,0:0:0:0:
361,316,192569,2,0,L|367:209,1,99.9999999999999,10|8,0:0|0:0,0:0:0:0:
370,166,193033,1,10,0:0:0:0:
326,76,193342,2,0,P|378:53|426:61,1,99.9999999999999,10|8,0:0|0:0,0:0:0:0:
462,84,193806,1,10,0:0:0:0:
486,232,194270,2,0,L|481:290,1,50,10|8,0:0|0:0,0:0:0:0:
471,330,194579,6,0,L|359:317,1,99.9999999999999,10|8,0:0|0:0,0:0:0:0:
324,334,195043,1,10,0:0:0:0:
230,369,195353,1,10,0:0:0:0:
172,287,195662,2,0,L|164:166,1,99.9999999999999,10|8,0:0|0:0,0:0:0:0:
213,99,196280,2,0,L|270:83,2,50,0|8|14,3:2|0:0|0:0,0:0:0:0:
56,241,199528,6,0,L|69:353,2,99.9999999999999,6|0|8,3:2|3:0|0:0,0:0:0:0:
131,175,200456,2,0,L|193:174,1,50,2|2,0:0|3:2,0:0:0:0:
230,179,200765,2,0,P|254:151|239:83,2,99.9999999999999,2|0|8,0:0|3:0|0:0,0:0:0:0:
174,262,201693,2,0,L|185:326,1,50,2|10,0:0|0:3,0:0:0:0:
211,352,202002,6,0,L|324:337,1,99.9999999999999,2|0,3:2|3:0,0:0:0:0:
408,358,202621,1,8,0:0:0:0:
455,269,202930,1,2,0:0:0:0:
368,218,203239,2,0,L|348:154,2,50,2|2|2,0:0|3:2|3:2,0:0:0:0:
331,311,203858,2,0,P|272:324|222:297,1,99.9999999999999,8|2,0:0|0:0,0:0:0:0:
180,227,204476,6,0,L|170:119,2,99.9999999999999,6|0|8,3:2|3:0|0:0,0:0:0:0:
159,325,205404,1,2,0:0:0:0:
159,325,205559,2,0,P|96:344|58:322,1,99.9999999999999,2|10,3:2|0:0,0:0:0:0:
28,299,206023,1,0,3:0:0:0:
28,199,206332,2,0,L|24:88,1,99.9999999999999,8|0,0:0|0:0,0:0:0:0:
115,31,206950,6,0,P|161:13|214:27,2,99.9999999999999,2|0|8,3:2|3:0|0:0,0:0:0:0:
107,130,207878,2,0,L|127:240,1,99.9999999999999,2|0,0:0|0:0,0:0:0:0:
134,277,208342,1,10,0:0:0:0:
134,277,208497,1,6,3:2:0:0:
223,330,208806,2,0,L|284:317,1,50,8|8,0:0|0:0,0:0:0:0:
314,276,209115,2,0,L|375:289,1,50,8|8,0:0|0:0,0:0:0:0:
412,280,209425,6,0,P|437:235|435:187,1,99.9999999999999,6|0,3:2|3:0,0:0:0:0:
354,128,210043,2,0,L|251:151,1,99.9999999999999,10|2,0:0|0:0,0:0:0:0:
206,149,210507,2,0,P|185:98|210:45,1,99.9999999999999,2|10,3:2|0:0,0:0:0:0:
224,14,210971,1,0,3:0:0:0:
320,38,211280,2,0,L|437:44,1,99.9999999999999,8|8,0:0|0:0,0:0:0:0:
475,126,211899,6,0,L|494:191,2,50,8|0|8,0:0|3:0|0:0,0:0:0:0:
378,153,212517,2,0,P|307:144|272:161,1,99.9999999999999,0|0,3:0|3:2,0:0:0:0:
247,190,212981,1,8,0:0:0:0:
181,265,213291,1,14,0:0:0:0:
181,265,213445,2,0,P|126:265|86:227,1,99.9999999999999,14|8,0:0|0:3,0:0:0:0:
107,138,214064,2,0,L|119:83,1,50,8|8,0:3|0:3,0:0:0:0:
149,50,214373,6,0,L|261:29,2,99.9999999999999,6|2|2,3:2|3:2|3:2,0:0:0:0:
54,16,215301,1,0,3:0:0:0:
7,104,215610,2,0,L|20:213,1,99.9999999999999,6|2,3:2|3:2,0:0:0:0:
102,259,216229,2,0,L|106:374,1,99.9999999999999,2|0,3:2|3:2,0:0:0:0:
205,369,216847,6,0,P|269:381|309:353,1,99.9999999999999,6|10,3:2|0:0,0:0:0:0:
324,269,217466,2,0,L|376:254,2,50,10|8|10,0:0|0:0|0:0,0:0:0:0:
230,232,218084,2,0,L|212:126,1,99.9999999999999,6|8,3:2|0:0,0:0:0:0:
185,90,218548,1,8,0:0:0:0:
185,90,218703,2,0,L|129:70,2,50,8|8|8,0:0|0:0|0:0,0:0:0:0:
271,39,219322,6,0,P|326:26|378:45,1,99.9999999999999,0|6,3:0|3:2,0:0:0:0:
458,78,219940,1,0,3:0:0:0:
495,170,220249,1,10,0:2:0:0:
495,170,220404,2,0,L|482:283,1,99.9999999999999,2|2,0:0|0:0,0:0:0:0:
408,335,221023,2,0,P|354:313|301:318,1,99.9999999999999,2|0,0:0|0:0,0:0:0:0:
272,320,221487,1,10,0:0:0:0:
176,362,221796,5,2,3:2:0:0:
119,279,222105,1,10,0:0:0:0:
200,220,222414,2,0,L|205:156,1,50,2|2,3:2|0:0,0:0:0:0:
214,120,222724,1,10,0:0:0:0:
214,120,222878,2,0,B|239:71|239:71|207:15,1,99.9999999999999,14|2,0:0|0:0,0:0:0:0:
116,25,223497,2,0,P|84:53|87:158,1,150,10|8,0:0|0:0,0:0:0:0:
98,201,224115,1,10,0:0:0:0:
98,201,224270,6,0,L|105:303,1,99.9999999999999,6|10,3:2|0:0,0:0:0:0:
191,351,224889,2,0,P|220:365|293:346,1,99.9999999999999,2|8,3:2|0:0,0:0:0:0:
327,326,225353,1,2,0:0:0:0:
327,326,225507,1,2,3:2:0:0:
285,234,225816,1,10,0:0:0:0:
351,168,226126,2,0,L|413:179,1,50,0|8,3:2|0:0,0:0:0:0:
449,183,226435,1,8,0:0:0:0:
453,83,226744,6,0,L|355:51,1,99.9999999999999,2|10,3:2|0:0,0:0:0:0:
275,108,227363,1,2,3:2:0:0:
197,44,227672,2,0,L|130:61,1,50,2|0,3:2|0:0,0:0:0:0:
99,77,227981,2,0,P|75:140|86:173,1,99.9999999999999,10|8,0:0|0:2,0:0:0:0:
111,210,228445,1,2,3:2:0:0:
111,210,228600,2,0,L|213:206,1,99.9999999999999,8|8,0:0|0:0,0:0:0:0:
294,152,229218,6,0,P|323:105|313:59,2,99.9999999999999,6|8|0,3:2|0:0|3:0,0:0:0:0:
284,251,230146,1,10,0:0:0:0:
284,251,230301,2,0,P|300:300|283:365,1,99.9999999999999,14|2,0:0|0:0,0:0:0:0:
242,349,230765,1,8,0:0:0:0:
242,349,230920,2,0,P|174:366|135:353,1,99.9999999999999,2|0,0:0|0:0,0:0:0:0:
107,339,231383,1,10,0:0:0:0:
26,279,231693,5,2,3:2:0:0:
76,193,232002,1,10,0:0:0:0:
17,111,232311,2,0,P|23:80|43:56,1,50,2|2,3:2|0:0,0:0:0:0:
82,57,232621,1,10,0:0:0:0:
82,57,232775,2,0,L|194:40,1,99.9999999999999,14|2,0:0|0:0,0:0:0:0:
280,36,233394,2,0,P|318:68|307:171,1,150,10|8,0:0|0:0,0:0:0:0:
288,199,234012,1,8,0:3:0:0:
288,199,234167,6,0,L|295:311,2,99.9999999999999,6|10|2,3:2|0:0|3:2,0:0:0:0:
230,117,235095,1,8,0:0:0:0:
159,192,235404,2,0,P|106:206|53:176,1,99.9999999999999,2|10,3:2|0:0,0:0:0:0:
38,92,236023,2,0,B|9:45|9:45|41:2,1,99.9999999999999,2|8,3:2|0:0,0:0:0:0:
84,19,236487,1,2,3:2:0:0:
84,19,236641,5,6,3:2:0:0:
170,67,236950,1,10,0:0:0:0:
262,29,237260,1,2,3:2:0:0:
346,82,237569,2,0,L|342:143,1,50,2|0,3:2|0:0,0:0:0:0:
322,179,237878,2,0,P|306:239|318:278,1,99.9999999999999,10|8,0:0|0:2,0:0:0:0:
335,320,238342,1,2,3:2:0:0:
335,320,238497,2,0,P|388:331|444:310,1,99.9999999999999,10|8,0:0|0:0,0:0:0:0:
496,242,239115,6,0,L|488:138,1,99.9999999999999,6|8,3:2|0:0,0:0:0:0:
455,104,239579,2,0,P|406:90|353:108,1,99.9999999999999,2|2,0:0|0:0,0:0:0:0:
324,138,240043,1,10,0:0:0:0:
262,217,240353,2,0,L|146:205,1,99.9999999999999,10|10,0:0|0:0,0:0:0:0:
91,133,240971,2,0,L|29:142,1,50,10|0,0:0|3:0,0:0:0:0:
5,175,241280,1,14,0:0:0:0:
69,251,241590,6,0,L|75:359,1,99.9999999999999,0|0,3:0|3:0,0:0:0:0:
174,358,242208,2,0,L|295:343,1,99.9999999999999,0|0,3:0|3:0,0:0:0:0:
339,270,242827,2,0,P|355:214|334:164,1,99.9999999999999,14|0,0:0|3:0,0:0:0:0:
304,142,243291,1,14,0:0:0:0:
304,142,243445,2,0,L|295:31,1,99.9999999999999,0|14,3:0|0:0,0:0:0:0:
393,21,244064,6,0,P|458:11|505:33,1,99.9999999999999,10|10,0:0|0:0,0:0:0:0:
487,72,244528,2,0,L|479:185,1,99.9999999999999,10|2,0:0|3:2,0:0:0:0:
473,221,244992,1,2,3:2:0:0:
393,281,245301,1,14,0:0:0:0:
229,24,246538,6,0,L|204:128,1,99.9999999999999,6|8,3:2|0:2,0:0:0:0:
189,168,247002,1,0,3:0:0:0:
130,248,247311,1,2,3:2:0:0:
130,248,247466,2,0,L|143:310,1,50,2|0,0:0|3:0,0:0:0:0:
186,316,247775,2,0,P|218:310|255:319,1,50,8|0,0:0|3:0,0:0:0:0:
321,362,248239,1,0,3:0:0:0:
321,362,248394,2,0,L|429:348,1,99.9999999999999,14|10,0:0|0:0,0:0:0:0:
488,273,249012,6,0,L|482:103,1,150,4|2,3:2|3:2,0:0:0:0:
481,72,249631,1,8,0:0:0:0:
391,23,249940,2,0,P|346:13|287:26,1,99.9999999999999,2|8,0:0|0:0,0:0:0:0:
209,77,250559,1,0,0:0:0:0:
286,139,250868,2,0,L|369:114,2,74.9999999999999,10|10|10,0:0|0:0|0:0,0:0:0:0:
240,160,251487,6,0,L|243:324,1,150,6|0,3:2|3:0,0:0:0:0:
250,359,252105,1,8,0:0:0:0:
149,359,252414,2,0,P|113:369|51:345,1,99.9999999999999,2|14,0:0|0:0,0:0:0:0:
9,257,253033,1,0,0:0:0:0:
84,186,253342,2,0,L|81:81,1,99.9999999999999,14|8,0:0|0:0,0:0:0:0:
163,36,253961,6,0,P|206:19|267:35,1,99.9999999999999,14|8,0:0|0:0,0:0:0:0:
330,97,254579,2,0,L|324:202,1,99.9999999999999,8|2,0:0|0:0,0:0:0:0:
242,255,255198,1,10,0:0:0:0:
321,314,255507,1,8,0:3:0:0:
412,273,255816,1,8,0:3:0:0:
425,173,256126,2,0,L|413:123,1,50,8|14,0:0|0:0,0:0:0:0:
256,192,256435,12,0,257827,0:0:0:0:
