osu file format v14

[General]
AudioFilename: audio.mp3
AudioLeadIn: 0
PreviewTime: 59270
Countdown: 0
SampleSet: Soft
StackLeniency: 0.7
Mode: 0
LetterboxInBreaks: 0
WidescreenStoryboard: 0

[Editor]
DistanceSpacing: 1
BeatDivisor: 4
GridSize: 4
TimelineZoom: 2.2

[Metadata]
Title:AxxxiS
TitleUnicode:AxxxiS
Artist:LiSA
ArtistUnicode:LiSA
Creator:SpokenAway
Version:AxxxiS breaker!
Source:クオリディア・コード
Tags:Qualidea Code Kuoridia Kōdo kodo brave freak out best day anime opening two rock jrock j-rock serafeim shirahane suou japanese
BeatmapID:2984502
BeatmapSetID:1451433

[Difficulty]
HPDrainRate:6
CircleSize:4.2
OverallDifficulty:9
ApproachRate:9.3
SliderMultiplier:1.9
SliderTickRate:1

[Events]
//Background and Video events
0,0,"4k.jpg",0,0
//Break Periods
2,17872,19438
2,20347,22067
2,22821,24154
2,25295,26551
2,177460,186603
2,196790,198664
//Storyboard Layer 0 (Background)
//Storyboard Layer 1 (Fail)
//Storyboard Layer 2 (Pass)
//Storyboard Layer 3 (Foreground)
//Storyboard Layer 4 (Overlay)
//Storyboard Sound Samples

[TimingPoints]
353,309.278350515464,4,2,1,70,1,0
353,-133.333333333333,4,2,1,45,0,0
6383,-133.333333333333,4,2,1,45,0,0
7002,-111.111111111111,4,2,1,55,0,0
7466,-142.857142857143,4,2,1,55,0,0
7698,-142.857142857143,4,2,1,5,0,0
7775,-100,4,2,1,65,0,0
9554,-100,4,2,1,5,0,0
9631,-100,4,2,1,65,0,0
10481,-100,4,2,1,5,0,0
10559,-100,4,2,1,65,0,0
17672,-142.857142857143,4,2,1,50,0,0
27569,-111.111111111111,4,2,1,60,0,0
30275,-111.111111111111,4,2,1,5,0,0
30353,-111.111111111111,4,2,1,60,0,0
31358,-111.111111111111,4,2,1,5,0,0
31435,-111.111111111111,4,2,1,60,0,0
35224,-111.111111111111,4,2,1,5,0,0
35301,-111.111111111111,4,2,1,60,0,0
37466,-125,4,2,1,55,0,0
44889,-117.647058823529,4,2,1,55,0,0
45275,-117.647058823529,4,2,1,5,0,0
45353,-117.647058823529,4,2,1,55,0,0
45739,-117.647058823529,4,2,1,5,0,0
45816,-117.647058823529,4,2,1,55,0,0
46048,-117.647058823529,4,2,1,5,0,0
46126,-111.111111111111,4,2,1,65,0,0
47363,-111.111111111111,4,2,1,60,0,0
47595,-111.111111111111,4,2,1,5,0,0
47672,-111.111111111111,4,2,1,60,0,0
54785,-125,4,2,1,55,0,0
57260,-100,4,2,1,65,0,0
59425,-250,4,2,1,70,0,0
59657,-250,4,2,1,5,0,0
59734,-83.3333333333333,4,2,1,80,0,1
61899,-142.857142857143,4,2,1,80,0,1
62208,-83.3333333333333,4,2,1,80,0,1
67389,-83.3333333333333,4,2,1,5,0,1
67466,-83.3333333333333,4,2,1,70,0,1
71796,-166.666666666667,4,2,1,70,0,1
72028,-166.666666666667,4,2,1,5,0,1
72105,-83.3333333333333,4,2,1,80,0,1
72337,-83.3333333333333,4,2,1,5,0,1
72414,-83.3333333333333,4,2,1,80,0,1
74811,-83.3333333333333,4,2,1,5,0,1
74889,-83.3333333333333,4,2,1,80,0,1
76048,-83.3333333333333,4,2,1,5,0,1
76126,-83.3333333333333,4,2,1,80,0,1
77285,-83.3333333333333,4,2,1,5,0,1
77363,-83.3333333333333,4,2,1,80,0,1
80765,-142.857142857143,4,2,1,70,0,0
82002,-100,4,2,1,70,0,0
82698,-100,4,2,1,5,0,0
82775,-100,4,2,1,70,0,0
92054,-62.5,4,2,1,70,0,0
92131,-62.5,4,2,1,5,0,0
92285,-62.5,4,2,1,70,0,0
92363,-62.5,4,2,1,5,0,0
92517,-62.5,4,2,1,70,0,0
92595,-62.5,4,2,1,5,0,0
92827,-62.5,4,2,1,70,0,0
93136,-125,4,2,1,55,0,0
99012,-200,4,2,1,55,0,0
99244,-200,4,2,1,5,0,0
99322,-125,4,2,1,55,0,0
101409,-125,4,2,1,5,0,0
101487,-125,4,2,1,55,0,0
103033,-90.9090909090908,4,2,1,60,0,0
103265,-90.9090909090908,4,2,1,5,0,0
103342,-111.111111111111,4,2,1,60,0,0
105507,-90.9090909090908,4,2,1,60,0,0
105816,-111.111111111111,4,2,1,60,0,0
106822,-111.111111111111,4,2,1,5,0,0
106899,-111.111111111111,4,2,1,60,0,0
111693,-83.3333333333333,4,2,1,60,0,0
111925,-83.3333333333333,4,2,1,5,0,0
112002,-83.3333333333333,4,2,1,60,0,0
112234,-83.3333333333333,4,2,1,5,0,0
112311,-83.3333333333333,4,2,1,60,0,0
112543,-83.3333333333333,4,2,1,5,0,0
112621,-83.3333333333333,4,2,1,60,0,0
112853,-83.3333333333333,4,2,1,5,0,0
112930,-142.857142857143,4,2,1,50,0,0
120043,-200,4,2,1,60,0,0
120275,-200,4,2,1,5,0,0
120353,-100,4,2,1,70,0,0
122208,-58.8235294117647,4,2,1,70,0,0
122285,-58.8235294117647,4,2,1,5,0,0
122440,-58.8235294117647,4,2,1,70,0,0
122517,-58.8235294117647,4,2,1,5,0,0
122672,-58.8235294117647,4,2,1,70,0,0
122749,-58.8235294117647,4,2,1,5,0,0
122827,-111.111111111111,4,2,1,60,0,0
123059,-111.111111111111,4,2,1,5,0,0
123136,-111.111111111111,4,2,1,60,0,0
124992,-142.857142857143,4,2,1,60,0,0
125301,-90.9090909090908,4,2,1,60,0,0
125610,-111.111111111111,4,2,1,60,0,0
126770,-111.111111111111,4,2,1,5,0,0
126847,-111.111111111111,4,2,1,60,0,0
130249,-125,4,2,1,55,0,0
132724,-100,4,2,1,70,0,0
134115,-62.5,4,2,1,70,0,0
134193,-62.5,4,2,1,5,0,0
134347,-62.5,4,2,1,70,0,0
134425,-62.5,4,2,1,5,0,0
134579,-62.5,4,2,1,70,0,0
134657,-62.5,4,2,1,5,0,0
134889,-250.000000000001,4,2,1,50,0,0
135121,-250.000000000001,4,2,1,5,0,0
135198,-76.9230769230769,4,2,1,80,0,1
135507,-83.3333333333333,4,2,1,80,0,1
137904,-83.3333333333333,4,2,1,5,0,1
137981,-83.3333333333333,4,2,1,80,0,1
142853,-83.3333333333333,4,2,1,5,0,1
142930,-83.3333333333333,4,2,1,80,0,1
147801,-83.3333333333333,4,2,1,5,0,1
147878,-83.3333333333333,4,2,1,80,0,1
150275,-83.3333333333333,4,2,1,5,0,1
150353,-83.3333333333333,4,2,1,80,0,1
150894,-83.3333333333333,4,2,1,5,0,1
150971,-83.3333333333333,4,2,1,80,0,1
151512,-83.3333333333333,4,2,1,5,0,1
151590,-83.3333333333333,4,2,1,80,0,1
152749,-83.3333333333333,4,2,1,5,0,1
152827,-83.3333333333333,4,2,1,80,0,1
154992,-71.4285714285714,4,2,1,80,0,1
157466,-90.9090909090909,4,2,1,75,0,0
159631,-166.666666666667,4,2,1,75,0,0
159863,-166.666666666667,4,2,1,5,0,0
159940,-90.9090909090909,4,2,1,75,0,0
162337,-90.9090909090909,4,2,1,5,0,0
162414,-90.9090909090909,4,2,1,75,0,0
163651,-76.9230769230769,4,2,1,75,0,0
163961,-90.9090909090909,4,2,1,75,0,0
167363,-76.9230769230769,4,2,1,80,0,0
167595,-76.9230769230769,4,2,1,5,0,0
167672,-76.9230769230769,4,2,1,80,0,0
167827,-83.3333333333333,4,2,1,80,0,0
177260,-142.857142857143,4,2,1,50,0,0
187157,-125,4,2,2,40,0,0
195275,-125,4,2,1,5,0,0
195353,-125,4,2,2,40,0,0
195584,-125,4,2,1,5,0,0
195662,-125,4,2,2,40,0,0
196280,-125,4,2,1,60,0,0
199218,-200,4,2,1,45,0,0
199450,-200,4,2,1,5,0,0
199528,-125,4,2,1,55,0,0
199760,-125,4,2,1,5,0,0
199837,-125,4,2,1,55,0,0
202234,-125,4,2,1,5,0,0
202311,-125,4,2,1,55,0,0
204708,-125,4,2,1,5,0,0
204785,-125,4,2,1,55,0,0
207182,-125,4,2,1,5,0,0
207260,-125,4,2,1,55,0,0
209657,-125,4,2,1,5,0,0
209734,-125,4,2,1,55,0,0
213291,-71.4285714285714,4,2,1,55,0,0
213445,-71.4285714285714,4,2,1,55,0,0
213600,-125,4,2,1,55,0,0
214373,-111.111111111111,4,2,1,60,0,0
216847,-100,4,2,1,70,0,0
219631,-83.3333333333333,4,2,1,80,0,1
222028,-83.3333333333333,4,2,1,5,0,1
222105,-83.3333333333333,4,2,1,80,0,1
225739,-83.3333333333333,4,2,1,5,0,1
225816,-83.3333333333333,4,2,1,80,0,1
226976,-83.3333333333333,4,2,1,5,0,1
227054,-83.3333333333333,4,2,1,80,0,1
231925,-83.3333333333333,4,2,1,5,0,1
232002,-83.3333333333333,4,2,1,80,0,1
234399,-83.3333333333333,4,2,1,5,0,1
234476,-83.3333333333333,4,2,1,80,0,1
235636,-83.3333333333333,4,2,1,5,0,1
235713,-83.3333333333333,4,2,1,80,0,1
236873,-83.3333333333333,4,2,1,5,0,1
236950,-83.3333333333333,4,2,1,80,0,1
239115,-71.4285714285714,4,2,1,80,0,1
239425,-83.3333333333333,4,2,1,80,0,1
242749,-83.3333333333333,4,2,1,5,0,1
242827,-83.3333333333333,4,2,1,80,0,1
245301,-200,4,2,1,55,0,0
246538,-100,4,2,1,70,0,0
246770,-100,4,2,1,5,0,0
246847,-100,4,2,1,70,0,0
248703,-166.666666666667,4,2,1,70,0,0
248935,-166.666666666667,4,2,1,5,0,0
249012,-100,4,2,1,70,0,0
249244,-100,4,2,1,5,0,0
249322,-100,4,2,1,70,0,0
256280,-277.777777777778,4,2,1,70,0,0

[Colours]
Combo1 : 235,131,99
Combo2 : 169,82,99
Combo3 : 153,141,184
Combo4 : 100,96,164

[HitObjects]
45,327,353,6,0,L|128:303,1,71.2500027179719,2|0,0:0|0:0,0:0:0:0:
240,248,662,1,2,0:0:0:0:
175,204,816,2,0,B|147:174|149:140|149:140|144:172|101:202,1,142.500005435944,2|2,0:0|0:0,0:0:0:0:
37,65,1590,5,2,0:0:0:0:
107,24,1744,1,0,0:0:0:0:
166,93,1899,5,2,0:0:0:0:
243,127,2054,1,2,0:0:0:0:
234,141,2363,5,2,0:0:0:0:
334,289,2827,6,0,P|322:255|306:219,1,71.2500027179719,2|0,0:0|0:0,0:0:0:0:
432,132,3136,1,2,0:0:0:0:
354,157,3291,2,0,P|332:130|228:139,1,142.500005435944,2|2,0:0|0:0,0:0:0:0:
101,226,4064,5,2,0:0:0:0:
175,263,4218,1,0,0:0:0:0:
260,327,4373,5,2,0:0:0:0:
186,364,4527,1,2,0:0:0:0:
179,351,4837,5,2,0:0:0:0:
447,370,5301,5,2,0:0:0:0:
350,293,5456,1,0,0:0:0:0:
441,251,5610,5,2,0:0:0:0:
371,149,5765,5,2,0:0:0:0:
430,231,5920,1,0,0:0:0:0:
482,77,6074,5,2,0:0:0:0:
400,131,6229,1,2,0:0:0:0:
266,22,6383,6,0,B|191:2|124:45|112:112|197:157|229:95,1,249.375009512902,2|0,0:0|0:0,0:0:0:0:
300,115,7002,5,0,3:2:0:0:
310,129,7079,2,0,L|290:176,1,42.7499986953736,0|0,3:2|3:2,3:2:0:0:
181,234,7311,1,0,3:2:0:0:
335,345,7466,6,0,B|340:302|374:302|374:302|361:315|353:345,1,99.7499969558717,2|0,0:0|0:0,0:0:0:0:
432,354,7775,6,0,B|409:311|348:309|348:309|331:350|270:362,1,190,6|8,3:2|0:0,0:0:0:0:
466,370,8239,2,0,P|495:328|483:277,1,95,2|8,3:2|0:0,0:0:0:0:
363,130,8548,1,0,3:2:0:0:
490,211,8703,5,2,0:0:0:0:
350,117,8858,1,0,3:2:0:0:
249,259,9012,5,8,0:0:0:0:
398,203,9167,1,0,3:2:0:0:
283,336,9322,6,0,B|322:317|326:281|326:281|325:320|348:350,1,142.5,12|0,0:0|0:0,0:0:0:0:
256,350,9631,2,0,P|198:357|166:319,1,95,2|0,0:0|3:2,0:0:0:0:
25,254,9940,1,8,0:0:0:0:
60,225,10017,1,8,0:0:0:0:
76,182,10094,1,8,0:0:0:0:
70,137,10171,1,8,0:0:0:0:
16,84,10249,6,0,B|73:76|73:76|91:47|91:47|148:35,1,142.5,6|0,3:2|0:0,0:0:0:0:
209,24,10559,5,8,0:0:0:0:
158,142,10713,1,2,3:2:0:0:
293,257,10869,5,8,0:0:0:0:
236,175,11023,1,0,3:2:0:0:
293,93,11177,5,2,0:0:0:0:
293,286,11332,1,0,3:2:0:0:
293,286,11409,1,0,3:2:0:0:
293,286,11487,1,8,0:0:0:0:
481,245,11641,6,0,B|428:156|428:156|443:106|504:106,1,190,0|0,3:2|3:2,0:0:0:0:
506,86,12028,1,0,3:2:0:0:
497,57,12105,5,10,0:0:0:0:
337,191,12337,5,10,0:0:0:0:
177,57,12569,5,10,0:0:0:0:
267,107,12724,6,0,B|300:80|300:80|288:35|230:16|164:65,1,190,6|8,3:2|0:0,0:0:0:0:
39,192,13188,1,0,3:2:0:0:
102,132,13342,5,8,0:0:0:0:
162,237,13497,1,0,3:2:0:0:
21,359,13651,6,0,B|-2:312|-2:312|33:266,1,95,2|0,0:0|3:2,0:0:0:0:
60,277,13883,1,0,3:2:0:0:
83,297,13961,1,8,0:2:0:0:
252,356,14115,6,0,B|311:330|346:355|346:355|351:307|428:295,1,190,0|0,3:2|3:2,0:0:0:0:
463,246,14502,1,0,3:2:0:0:
471,235,14579,2,0,L|434:199,1,47.5,10|0,0:0|0:0,0:0:0:0:
312,112,14734,5,0,3:2:0:0:
360,131,14811,1,0,3:2:0:0:
402,99,14889,2,0,L|417:48,1,47.5,8|0,0:0|3:2,0:0:0:0:
306,194,15043,1,0,3:2:0:0:
297,209,15121,1,0,3:2:0:0:
290,224,15198,6,0,P|248:232|194:190,1,95,6|0,3:2|0:0,0:0:0:0:
101,44,15507,5,8,0:0:0:0:
208,107,15662,1,0,3:2:0:0:
25,226,15816,5,8,0:0:0:0:
116,141,15971,1,0,3:2:0:0:
165,362,16126,5,6,0:0:0:0:
101,314,16280,1,0,3:2:0:0:
101,314,16358,1,0,3:2:0:0:
101,314,16435,5,10,0:0:0:0:
171,276,16590,1,0,3:2:0:0:
248,338,16745,1,0,3:2:0:0:
368,269,16899,1,0,3:2:0:0:
370,115,17054,1,0,3:2:0:0:
213,49,17208,1,0,3:2:0:0:
439,19,17363,5,8,0:0:0:0:
288,199,17517,1,0,3:2:0:0:
226,143,17672,5,6,3:2:0:0:
139,42,19992,5,0,3:2:0:0:
134,53,20069,1,0,3:2:0:0:
129,64,20147,1,10,0:0:0:0:
255,192,22621,5,2,0:0:0:0:
289,308,24708,5,8,0:0:0:0:
296,318,24785,1,8,0:0:0:0:
346,251,25095,5,2,3:2:0:0:
56,233,27105,5,0,3:2:0:0:
48,216,27182,1,0,3:2:0:0:
40,199,27260,1,8,0:0:0:0:
216,288,27569,6,0,B|296:313|296:313|325:356|275:393,1,170.999994781494,6|10,3:2|0:0,0:0:0:0:
192,268,28033,2,0,P|183:226|218:184,1,85.4999973907472,2|0,3:2|0:0,0:0:0:0:
304,148,28342,5,2,3:2:0:0:
144,46,28497,1,8,0:0:0:0:
227,0,28651,1,0,3:2:0:0:
240,8,28729,1,2,0:0:0:0:
254,15,28806,6,0,P|238:55|224:104,1,85.4999973907472,0|2,0:0|3:2,0:0:0:0:
61,170,29115,1,8,0:0:0:0:
108,236,29270,2,0,B|168:245|168:245|199:285|199:285|276:295,1,170.999994781494,2|2,3:2|3:2,0:0:0:0:
89,249,29734,5,8,0:0:0:0:
370,337,30043,6,0,B|439:293|439:293|415:301|380:290,1,128.249996086121,2|0,3:2|0:0,0:0:0:0:
350,346,30353,1,10,0:0:0:0:
412,222,30507,2,0,L|383:131,1,85.4999973907472,2|0,3:2|0:0,0:0:0:0:
320,51,30816,5,2,3:2:0:0:
228,150,30971,1,8,0:0:0:0:
92,73,31126,6,0,B|152:71|163:23|163:23|123:42,1,128.249996086121,2|0,3:2|0:0,0:0:0:0:
71,91,31435,2,0,B|51:132|51:132|85:171,1,85.4999973907472,2|8,3:2|0:0,0:0:0:0:
198,241,31744,2,0,B|113:269|113:269|97:314|146:347,1,170.999994781494,2|2,3:2|3:2,0:0:0:0:
218,217,32208,5,8,0:0:0:0:
99,166,32517,5,2,3:2:0:0:
113,76,32672,1,2,3:2:0:0:
186,134,32827,1,10,0:0:0:0:
26,72,32981,2,0,P|100:45|199:10,1,170.999994781494,2|2,3:2|3:2,0:0:0:0:
17,88,33445,5,8,0:0:0:0:
403,48,33755,5,2,3:2:0:0:
332,89,33909,1,2,3:2:0:0:
261,48,34064,1,10,0:0:0:0:
474,165,34218,2,0,B|444:124|402:130|402:130|379:172|319:170,1,170.999994781494,2|2,3:2|3:2,0:0:0:0:
493,163,34682,5,8,0:0:0:0:
403,287,34992,6,0,B|478:254|478:254|452:262|424:256,1,128.249996086121,6|0,3:2|0:0,0:0:0:0:
384,302,35301,2,0,P|379:343|416:383,1,85.4999973907472,10|0,0:0|3:2,0:0:0:0:
312,233,35610,2,0,P|269:209|222:231,1,85.4999973907472,2|0,0:0|3:2,0:0:0:0:
91,369,35920,5,14,0:0:0:0:
209,319,36074,1,2,3:2:0:0:
34,258,36229,5,10,0:0:0:0:
64,237,36306,1,8,0:0:0:0:
79,203,36383,1,0,3:0:0:0:
75,167,36460,1,0,3:0:0:0:
52,138,36538,5,10,0:0:0:0:
22,118,36616,1,8,0:0:0:0:
7,84,36693,1,0,3:0:0:0:
11,48,36770,1,0,3:0:0:0:
37,19,36848,5,8,0:3:0:0:
70,6,36925,5,8,0:3:0:0:
93,15,37002,5,8,0:3:0:0:
102,24,37079,5,8,0:3:0:0:
103,36,37157,5,12,0:3:0:0:
278,192,37466,6,0,B|336:183|336:183|360:152|360:152|424:146,1,152,6|0,3:2|0:0,0:0:0:0:
488,261,38084,1,2,0:0:0:0:
372,367,38316,5,2,0:0:0:0:
386,365,38394,2,0,P|376:325|358:288,1,76,2|0,0:0|0:0,0:0:0:0:
271,237,38703,5,2,0:0:0:0:
302,161,39013,1,2,0:0:0:0:
334,86,39322,1,2,0:0:0:0:
243,32,39554,5,2,0:0:0:0:
234,24,39631,2,0,L|157:52,1,76,2|0,0:0|0:0,0:0:0:0:
37,126,39940,6,0,P|119:154|133:222,1,152,6|0,3:2|0:0,0:0:0:0:
24,277,40559,1,2,0:0:0:0:
184,367,40791,5,2,0:0:0:0:
173,371,40868,2,0,P|164:330|188:293,1,76,2|0,0:0|0:0,0:0:0:0:
264,215,41177,5,2,0:0:0:0:
340,253,41487,1,2,0:0:0:0:
416,215,41796,1,2,0:0:0:0:
451,360,42028,5,2,0:0:0:0:
441,366,42105,2,0,L|406:283,1,76,2|0,0:0|0:0,0:0:0:0:
491,153,42414,6,0,B|465:121|469:82|469:82|459:119|400:142,1,152,6|0,3:2|0:0,0:0:0:0:
352,43,43033,1,2,0:0:0:0:
253,165,43265,5,2,0:0:0:0:
244,153,43342,2,0,L|321:135,1,76,2|0,0:0|0:0,0:0:0:0:
181,54,43651,5,2,0:0:0:0:
144,130,43961,1,2,0:0:0:0:
107,206,44270,1,2,0:0:0:0:
222,317,44502,5,2,0:0:0:0:
229,302,44579,2,0,P|192:274|148:288,1,76,2|0,0:0|0:0,0:0:0:0:
244,124,44889,6,0,B|319:150|319:150|346:194|346:194|420:218,1,201.87500385046,14|0,0:0|0:0,0:0:0:0:
414,369,45353,6,0,P|363:319|416:214,1,201.87500385046,10|0,0:0|0:0,0:0:0:0:
479,133,45816,6,0,P|464:192|397:213,1,121.125002310276,10|0,0:0|0:0,0:0:0:0:
353,146,46126,6,0,P|340:100|329:59,1,85.4999973907472,10|0,0:0|3:2,0:0:0:0:
267,20,46358,5,0,3:2:0:0:
254,15,46435,2,0,L|210:45,1,42.7499986953736,0|0,3:2|3:2,0:0:0:0:
126,136,46590,1,0,3:2:0:0:
102,110,46667,1,0,3:2:0:0:
115,77,46744,5,8,0:0:0:0:
268,205,46976,5,8,0:0:0:0:
107,335,47208,5,8,0:0:0:0:
19,250,47363,6,0,P|77:261|127:219,1,128.249996086121,6|0,3:2|0:0,0:0:0:0:
179,165,47672,1,2,0:0:0:0:
250,337,47827,1,0,3:2:0:0:
241,319,47904,1,0,3:2:0:0:
232,301,47981,1,8,0:0:0:0:
338,133,48136,5,2,0:0:0:0:
322,215,48291,1,2,0:0:0:0:
402,195,48445,1,2,3:2:0:0:
241,116,48600,5,2,3:2:0:0:
241,116,48755,2,0,L|412:57,1,170.999994781494,8|0,0:0|3:2,0:0:0:0:
249,21,49218,5,10,0:0:0:0:
124,127,49373,1,0,3:2:0:0:
171,66,49528,5,2,0:0:0:0:
124,5,49682,1,0,3:2:0:0:
216,145,49837,6,0,P|190:228|167:313,1,170.999994781494,6|2,3:2|0:0,0:0:0:0:
23,235,50301,1,2,3:2:0:0:
23,235,50378,1,0,3:2:0:0:
23,235,50456,2,0,P|66:219|108:232,1,85.4999973907472,8|2,0:0|3:2,0:0:0:0:
221,299,50765,5,2,0:0:0:0:
279,238,50920,1,2,3:2:0:0:
416,334,51074,5,2,3:2:0:0:
416,334,51229,2,0,B|334:301|334:301|288:321|293:370,1,170.999994781494,8|0,0:0|3:2,0:0:0:0:
298,380,51615,1,0,3:2:0:0:
298,380,51693,1,10,0:0:0:0:
414,246,51847,1,0,3:2:0:0:
407,227,51925,1,0,3:2:0:0:
399,208,52002,1,8,0:3:0:0:
491,68,52311,6,0,B|467:31|415:31|415:31|398:71|346:75,1,170.999994781494,6|2,3:2|0:0,0:0:0:0:
250,145,52775,1,2,3:2:0:0:
250,145,52853,1,0,3:2:0:0:
250,145,52930,1,8,0:0:0:0:
91,64,53084,5,2,3:2:0:0:
172,35,53239,1,2,0:0:0:0:
253,6,53394,1,2,3:2:0:0:
158,147,53548,5,2,3:2:0:0:
158,147,53703,2,0,B|121:186|130:227|130:227|123:189|65:152,1,170.999994781494,8|0,0:0|3:2,0:0:0:0:
55,144,54090,1,0,3:2:0:0:
38,133,54167,1,10,0:0:0:0:
144,243,54322,1,0,3:2:0:0:
144,243,54399,1,0,3:2:0:0:
144,243,54476,1,10,0:0:0:0:
29,372,54631,1,2,0:0:0:0:
22,353,54708,1,2,0:0:0:0:
15,334,54785,6,0,B|64:317|85:353|78:363|111:391|179:363,1,152,14|0,0:0|3:2,0:0:0:0:
240,278,55249,1,8,0:3:0:0:
316,372,55559,5,0,3:0:0:0:
226,265,55713,1,8,0:3:0:0:
392,178,56023,5,0,3:0:0:0:
325,270,56177,1,8,0:3:0:0:
177,25,56487,5,0,3:0:0:0:
124,101,56641,1,8,0:3:0:0:
183,165,56796,1,0,3:2:0:0:
261,132,56950,1,2,3:2:0:0:
259,53,57105,1,0,3:2:0:0:
100,186,57260,5,14,0:0:0:0:
226,253,57414,1,0,3:2:0:0:
353,320,57569,1,0,3:2:0:0:
295,373,57724,5,14,0:0:0:0:
368,233,57878,1,0,3:2:0:0:
441,95,58033,1,0,3:2:0:0:
218,127,58188,6,0,B|258:83|310:94|310:94|334:140|388:139,1,190,12|0,0:0|3:2,0:0:0:0:
115,15,58651,5,10,0:0:0:0:
286,182,58883,5,10,0:0:0:0:
115,349,59115,5,10,0:0:0:0:
195,83,59425,6,0,P|215:91|255:78,1,57,2|0,0:0|0:0,0:0:0:0:
273,56,59734,6,0,B|161:22|161:22|107:63|135:127,1,227.999993041992,6|8,3:1|0:0,0:0:0:0:
269,274,60198,1,0,0:0:0:0:
168,290,60353,2,0,P|188:241|217:179,1,113.999996520996,0|0,3:2|0:0,0:0:0:0:
419,56,60662,1,10,0:0:0:0:
450,124,60816,6,0,P|379:121|349:88,1,113.999996520996,2|0,0:0|3:2,0:0:0:0:
453,229,61126,2,0,P|492:279|479:330,1,113.999996520996,2|8,0:0|0:0,0:0:0:0:
261,276,61435,1,2,0:0:0:0:
241,312,61512,1,2,0:0:0:0:
258,350,61590,2,0,P|314:330|372:318,1,113.999996520996,0|0,3:2|0:0,0:0:0:0:
151,222,61899,6,0,B|108:197|124:161|124:161|133:178|152:190,1,99.7499969558717,10|0,0:0|0:0,0:0:0:0:
218,178,62208,6,0,B|158:193|158:193|130:234|130:234|70:248,1,170.999994781494,2|0,3:2|0:0,0:0:0:0:
242,174,62517,2,0,P|265:110|214:64,1,113.999996520996,10|0,0:0|0:0,0:0:0:0:
37,34,62827,5,2,3:2:0:0:
109,106,62981,1,2,0:0:0:0:
137,12,63136,1,10,0:0:0:0:
0,194,63291,5,14,0:0:0:0:
142,92,63445,1,0,3:2:0:0:
187,289,63600,5,2,0:0:0:0:
109,190,63755,1,8,0:0:0:0:
0,377,63909,6,0,B|36:320|19:271|19:271|41:313|118:345,1,227.999993041992,10|0,0:0|0:0,0:0:0:0:
215,148,64373,1,8,0:0:0:0:
266,155,64450,1,8,0:0:0:0:
302,191,64527,1,10,0:0:0:0:
309,242,64604,1,8,0:0:0:0:
250,298,64682,6,0,P|219:231|328:140,1,227.999993041992,6|10,3:2|0:0,0:0:0:0:
454,11,65146,1,0,0:0:0:0:
490,141,65301,2,0,B|387:91|387:91|388:28|457:11,1,227.999993041992,2|8,3:2|0:0,0:0:0:0:
503,153,65765,5,2,0:0:0:0:
358,272,65920,2,0,P|334:211|366:167,1,113.999996520996,2|0,3:2|0:0,0:0:0:0:
485,318,66229,5,10,0:0:0:0:
372,380,66383,1,2,0:0:0:0:
511,300,66538,1,2,3:2:0:0:
236,121,66693,5,8,0:0:0:0:
370,280,66847,1,8,0:0:0:0:
154,370,67002,2,0,P|168:343|184:319,1,56.9999982604981,2|0,0:0|0:0,0:0:0:0:
278,240,67157,6,0,B|179:209|179:209|213:228|228:264,1,170.999994781494,6|0,3:2|0:0,0:0:0:0:
306,239,67466,2,0,P|341:192|318:128,1,113.999996520996,10|0,0:0|0:0,0:0:0:0:
222,12,67775,5,2,3:2:0:0:
138,96,67930,1,0,0:0:0:0:
3,0,68084,2,0,L|41:111,1,113.999996520996,10|0,0:0|3:2,0:0:0:0:
126,271,68394,6,0,P|167:222|151:169,1,113.999996520996,14|0,0:0|3:2,0:0:0:0:
75,177,68626,1,0,3:2:0:0:
56,190,68703,1,8,0:0:0:0:
61,353,68858,6,0,L|36:298,1,56.9999982604981,10|8,0:0|0:0,0:0:0:0:
34,276,69012,2,0,L|60:326,1,56.9999982604981,8|0,0:0|0:0,0:0:0:0:
164,345,69167,5,8,0:0:0:0:
199,315,69244,1,8,0:0:0:0:
244,309,69321,1,8,0:0:0:0:
286,326,69398,5,8,0:0:0:0:
325,361,69477,5,10,0:0:0:0:
387,360,69554,5,8,0:0:0:0:
439,301,69631,6,0,B|459:275|483:264|483:264|448:208|368:213|336:263,1,227.999993041992,6|8,3:2|0:0,0:0:0:0:
250,49,70095,1,0,0:0:0:0:
242,147,70249,2,0,P|223:87|268:40,1,113.999996520996,0|0,3:2|0:0,0:0:0:0:
446,172,70559,1,10,0:0:0:0:
239,276,70713,1,14,0:0:0:0:
358,144,70868,5,0,3:2:0:0:
222,290,71023,2,0,P|173:268|105:243,1,113.999996520996,2|8,0:0|0:0,0:0:0:0:
77,68,71332,2,0,B|62:41|62:41|148:63|148:63|165:126|100:167,1,227.999993041992,2|0,0:0|0:0,0:0:0:0:
343,42,71796,6,0,P|365:21|341:32,1,85.4999973907472,10|0,0:0|0:0,0:0:0:0:
266,103,72105,6,0,B|324:113|339:79|329:70|347:26|430:36,1,170.999994781494,2|0,3:2|0:0,0:0:0:0:
244,122,72414,2,0,P|233:181|291:222,1,113.999996520996,10|0,0:0|0:0,0:0:0:0:
443,310,72724,5,2,3:2:0:0:
410,226,72878,1,2,0:0:0:0:
377,142,73033,1,8,0:0:0:0:
252,313,73188,5,14,0:0:0:0:
363,154,73342,1,0,3:2:0:0:
194,200,73497,5,2,0:0:0:0:
328,364,73651,1,12,0:0:0:0:
71,350,73806,2,0,P|107:308|169:305,1,113.999996520996,2|0,0:0|3:2,0:0:0:0:
43,165,74115,5,8,0:0:0:0:
38,149,74193,1,8,0:0:0:0:
32,134,74270,1,8,0:0:0:0:
16,64,74347,5,8,0:0:0:0:
55,40,74424,1,10,0:0:0:0:
101,42,74501,1,8,0:0:0:0:
165,88,74579,6,0,B|212:100|212:100|254:40|192:-11,1,170.999994781494,6|0,3:2|0:0,0:0:0:0:
149,108,74889,2,0,P|133:159|181:223,1,113.999996520996,10|0,0:0|0:0,0:0:0:0:
303,323,75198,2,0,P|266:283|187:297,1,113.999996520996,2|0,3:2|0:0,0:0:0:0:
366,90,75507,1,8,0:0:0:0:
443,147,75662,1,2,0:0:0:0:
443,147,75739,1,2,0:0:0:0:
443,147,75816,6,0,B|449:211|374:231|374:231|338:193,1,170.999994781494,2|0,3:2|0:0,0:0:0:0:
292,133,76126,2,0,P|243:149|161:179,1,113.999996520996,10|0,0:0|0:0,0:0:0:0:
340,14,76435,2,0,P|400:15|450:68,1,113.999996520996,2|0,3:2|0:0,0:0:0:0:
279,162,76744,1,8,0:0:0:0:
488,310,76899,2,0,P|478:281|463:259,1,56.9999982604981,2|0,0:0|0:0,0:0:0:0:
415,181,77054,6,0,P|363:203|367:317,1,170.999994781494,6|0,3:2|0:0,0:0:0:0:
441,173,77363,2,0,P|456:116|409:72,1,113.999996520996,10|0,0:0|0:0,0:0:0:0:
253,14,77672,2,0,L|143:60,1,113.999996520996,8|8,0:3|0:3,0:0:0:0:
113,80,77904,1,8,0:3:0:0:
97,107,77981,1,10,0:0:0:0:
14,293,78136,1,0,3:2:0:0:
14,293,78213,1,0,3:2:0:0:
14,293,78291,5,10,0:0:0:0:
113,209,78445,1,8,0:0:0:0:
212,125,78600,1,8,0:0:0:0:
341,293,78755,5,2,3:2:0:0:
351,263,78832,1,0,3:2:0:0:
363,233,78910,1,10,0:0:0:0:
151,300,79064,5,0,3:2:0:0:
164,328,79141,1,0,3:2:0:0:
176,356,79218,1,8,0:0:0:0:
212,125,79373,1,0,3:2:0:0:
227,224,79528,5,14,0:0:0:0:
99,51,79682,1,0,3:2:0:0:
83,27,79837,1,0,3:2:0:0:
251,233,79992,5,14,0:0:0:0:
140,62,80147,1,0,3:2:0:0:
113,6,80301,1,0,3:2:0:0:
310,126,80456,6,0,P|280:131|245:142,1,56.9999982604981,10|0,0:3|0:0,0:0:0:0:
114,137,80610,1,8,0:0:0:0:
87,162,80688,1,8,0:0:0:0:
74,203,80765,6,0,B|75:306|204:377|238:320|238:320|177:301|97:378,1,398.999987823487,6|0,3:2|0:0,0:0:0:0:
130,30,82002,5,6,3:2:0:0:
198,96,82157,1,0,0:0:0:0:
269,42,82311,1,10,0:0:0:0:
59,136,82466,6,0,B|98:113|125:131|125:131|140:171|184:176,1,142.5,2|0,3:2|0:0,0:0:0:0:
244,191,82775,1,2,3:2:0:0:
60,321,82930,2,0,P|39:268|75:230,1,95,10|0,0:0|3:2,0:0:0:0:
66,227,83162,1,0,3:2:0:0:
85,214,83239,5,8,0:0:0:0:
234,365,83394,1,0,3:2:0:0:
350,268,83548,2,0,P|305:277|246:292,1,95,14|0,0:0|3:2,0:0:0:0:
381,274,83858,5,2,0:0:0:0:
306,167,84012,1,0,3:2:0:0:
490,36,84167,2,0,L|444:61,1,47.5,8|0,0:0|0:0,0:0:0:0:
383,104,84322,1,8,0:0:0:0:
383,104,84399,1,8,0:0:0:0:
383,104,84476,6,0,B|344:97|344:97|329:78|329:78|271:67,1,95,6|0,3:2|3:2,0:0:0:0:
126,5,84785,5,8,0:0:0:0:
194,91,84940,1,2,3:2:0:0:
14,192,85095,5,8,0:0:0:0:
78,118,85249,1,2,3:2:0:0:
98,211,85404,5,2,0:0:0:0:
4,372,85559,5,0,3:2:0:0:
4,372,85636,1,0,3:2:0:0:
4,372,85713,1,8,0:0:0:0:
141,289,85868,6,0,B|86:301|48:273|48:273|88:300|98:361,1,190,0|0,3:2|3:2,0:0:0:0:
167,374,86255,1,0,3:2:0:0:
192,357,86332,5,10,0:0:0:0:
375,224,86564,5,10,0:0:0:0:
142,89,86796,5,10,0:0:0:0:
247,134,86950,6,0,B|258:119|274:110|274:110|233:100|204:128|211:134|200:169|133:167,1,190,6|8,3:2|0:0,0:0:0:0:
354,0,87414,5,0,3:2:0:0:
395,73,87569,1,8,0:0:0:0:
436,146,87724,1,0,3:2:0:0:
248,142,87878,6,0,P|237:79|275:46,1,95,2|0,0:0|3:2,0:0:0:0:
285,47,88110,1,0,3:2:0:0:
312,60,88188,5,8,0:0:0:0:
309,271,88342,2,0,B|212:213|212:213|254:230|309:208,1,190,0|0,3:2|3:2,0:0:0:0:
138,333,88806,2,0,P|123:289|105:243,1,95,10|0,0:0|3:2,0:0:0:0:
288,373,89115,5,8,0:0:0:0:
330,349,89192,1,8,0:0:0:0:
368,373,89269,1,8,0:0:0:0:
396,358,89346,1,8,0:0:0:0:
409,356,89425,6,0,P|442:318|431:263,1,95,6|0,3:2|3:2,0:0:0:0:
343,123,89734,5,8,0:0:0:0:
456,197,89889,1,0,3:2:0:0:
258,80,90043,5,8,0:0:0:0:
344,37,90198,1,0,3:2:0:0:
430,80,90353,1,2,3:2:0:0:
234,89,90507,6,0,P|196:75|133:52,1,95,8|0,0:0|3:2,0:0:0:0:
16,233,90816,5,8,0:0:0:0:
147,137,90971,1,8,0:0:0:0:
74,81,91126,1,0,3:2:0:0:
74,81,91203,1,0,3:2:0:0:
74,81,91280,1,8,0:0:0:0:
122,227,91435,5,0,3:2:0:0:
163,246,91512,1,0,3:2:0:0:
200,222,91590,6,0,B|247:216|266:237|266:237|253:278|253:278|252:295|252:295|225:358,1,190,8|0,0:0|3:2,0:0:0:0:
315,139,92054,6,0,B|342:120|338:96|338:96|296:135,1,76,14|0,0:0|0:0,0:0:0:0:
364,331,92285,6,0,B|335:351|338:375|338:375|380:335,1,76,14|0,0:0|0:0,0:0:0:0:
501,158,92517,6,0,B|475:138|479:114|479:114|521:154,1,76,14|0,0:0|0:0,0:0:0:0:
459,222,92827,5,2,3:2:0:0:
359,46,93136,6,0,L|275:85,1,76,6|0,3:2|3:2,0:0:0:0:
270,90,93368,1,0,3:2:0:0:
255,98,93445,1,10,0:0:0:0:
126,186,93600,2,0,B|61:150|61:150|17:166|18:211,1,152,2|2,3:2|3:2,0:0:0:0:
153,193,94064,5,8,0:0:0:0:
47,312,94218,1,2,0:0:0:0:
59,319,94296,1,2,0:0:0:0:
71,326,94373,6,0,P|84:278|65:244,1,76,2|2,3:2|3:2,0:0:0:0:
217,361,94682,1,8,0:0:0:0:
268,292,94837,2,0,B|323:279|323:279|340:247|340:247|404:235,1,152,2|2,3:2|3:2,0:0:0:0:
427,239,95224,1,0,3:2:0:0:
441,253,95301,1,8,0:0:0:0:
265,61,95610,6,0,L|302:134,1,76,2|0,3:2|3:0,0:0:0:0:
311,146,95842,1,0,3:0:0:0:
322,160,95920,1,10,0:0:0:0:
475,32,96074,2,0,B|425:56|420:86|420:86|426:53|395:15,1,152,2|2,3:2|3:2,0:0:0:0:
322,160,96538,1,8,0:0:0:0:
468,263,96693,6,0,L|491:224,1,38,2|0,0:0|0:0,0:0:0:0:
410,333,96847,5,0,3:2:0:0:
341,294,97002,1,2,3:2:0:0:
276,331,97157,1,8,0:0:0:0:
119,372,97311,6,0,P|88:331|133:228,1,152,2|2,3:2|3:2,0:0:0:0:
145,227,97698,1,0,3:2:0:0:
161,240,97775,1,14,0:0:0:0:
129,30,98858,5,2,3:2:0:0:
65,93,99012,2,0,P|48:57|26:24,1,71.25,8|0,0:0|0:0,0:0:0:0:
82,105,99322,5,2,3:2:0:0:
162,140,99476,1,0,3:2:0:0:
88,185,99631,1,10,0:0:0:0:
235,250,99785,6,0,B|200:263|167:271|167:271|146:322|216:358,1,152,2|2,3:2|3:2,0:0:0:0:
218,358,100172,1,0,3:0:0:0:
237,350,100249,1,8,0:0:0:0:
487,200,100559,6,0,L|454:121,1,76,2|0,3:2|0:0,0:0:0:0:
441,105,100791,1,2,3:2:0:0:
424,92,100868,1,10,0:0:0:0:
219,148,101023,1,2,3:2:0:0:
225,156,101100,1,2,0:0:0:0:
230,164,101177,6,0,B|256:146|269:127|269:127|279:150|316:172,1,114,2|0,0:0|0:0,0:0:0:0:
362,224,101487,1,10,0:0:0:0:
278,351,101641,6,0,L|315:332,1,38,2|0,3:2|0:0,0:0:0:0:
210,306,101796,5,10,0:0:0:0:
100,290,102028,5,2,0:0:0:0:
29,172,102260,5,2,0:0:0:0:
148,36,102414,1,2,3:2:0:0:
311,112,102569,1,0,3:2:0:0:
311,112,102646,1,0,3:2:0:0:
311,112,102724,1,10,0:0:0:0:
457,16,103033,6,0,B|424:4|399:28|399:28|435:124,1,156.750004783631,6|0,3:2|3:2,0:0:0:0:
490,171,103342,5,10,0:2:0:0:
411,194,103497,1,2,3:2:0:0:
332,217,103651,1,8,0:3:0:0:
472,331,103806,2,0,P|483:290|500:244,1,85.4999973907472,2|8,3:2|0:0,0:0:0:0:
370,374,104115,1,2,0:0:0:0:
361,356,104193,1,2,0:0:0:0:
352,338,104270,5,0,3:2:0:0:
256,242,104425,2,0,P|213:225|174:243,1,85.4999973907472,2|8,3:2|0:0,0:0:0:0:
54,362,104734,5,2,3:2:0:0:
119,294,104889,1,8,0:3:0:0:
20,199,105043,1,2,3:2:0:0:
26,217,105121,1,0,3:2:0:0:
32,235,105198,1,8,0:0:0:0:
251,107,105507,6,0,B|269:85|305:83|305:83|299:37|252:12|208:26,1,156.750004783631,6|0,3:2|3:2,0:0:0:0:
221,22,105816,1,10,0:0:0:0:
113,108,105971,2,0,P|129:148|145:202,1,85.4999973907472,2|8,3:2|0:3,0:0:0:0:
280,309,106280,5,2,3:2:0:0:
195,256,106435,1,8,0:0:0:0:
58,337,106590,2,0,B|87:322|99:295|99:295|99:328|115:363,1,128.249996086121,2|0,0:0|0:0,0:0:0:0:
37,347,106899,5,2,3:2:0:0:
116,219,107054,1,8,0:0:0:0:
237,323,107208,2,0,B|309:311|309:311|329:278|329:278|403:265,1,170.999994781494,2|2,3:2|3:2,0:0:0:0:
413,255,107595,1,0,3:0:0:0:
426,240,107672,1,8,0:0:0:0:
495,65,107981,5,2,3:2:0:0:
403,142,108136,1,2,0:0:0:0:
403,142,108213,1,0,3:0:0:0:
403,142,108291,1,10,0:0:0:0:
333,16,108445,6,0,B|258:32|258:32|221:83|271:119,1,170.999994781494,2|2,3:2|3:2,0:0:0:0:
350,23,108909,1,8,0:0:0:0:
151,200,109218,6,0,P|136:159|119:115,1,85.4999973907472,10|2,0:0|3:2,0:0:0:0:
109,100,109450,1,0,0:0:0:0:
94,86,109528,1,14,0:0:0:0:
23,217,109682,1,2,3:2:0:0:
32,224,109760,1,0,3:2:0:0:
41,231,109837,2,0,P|26:272|9:318,1,85.4999973907472,8|2,0:0|3:2,0:0:0:0:
74,355,110069,1,0,3:2:0:0:
82,364,110146,2,0,P|123:375|175:357,1,85.4999973907472,14|0,0:0|3:0,0:0:0:0:
268,268,110378,5,0,3:0:0:0:
257,257,110456,2,0,B|232:238|246:208|246:208|249:234|276:259,1,85.4999973907472,14|8,0:0|0:0,0:0:0:0:
340,341,110688,5,8,0:0:0:0:
350,343,110765,2,0,L|372:298,1,42.7499986953736,10|8,0:0|0:0,0:0:0:0:
490,260,110920,2,0,L|506:308,1,42.7499986953736,8|8,0:0|0:0,0:0:0:0:
404,196,111074,5,10,0:0:0:0:
384,155,111151,1,8,0:0:0:0:
393,113,111228,1,8,0:0:0:0:
427,85,111305,1,8,0:0:0:0:
474,59,111384,5,10,0:0:0:0:
454,47,111461,1,8,0:0:0:0:
418,28,111538,5,10,0:0:0:0:
399,18,111615,1,8,0:0:0:0:
318,20,111693,6,0,B|246:46|246:46|216:91|257:138,1,170.999994781494,6|0,3:2|0:0,0:0:0:0:
149,235,112002,6,0,P|218:219|251:127,1,170.999994781494,2|0,3:2|0:0,0:0:0:0:
104,66,112311,6,0,B|166:79|166:79|189:116|189:116|252:132,1,170.999994781494,2|0,3:2|0:0,0:0:0:0:
103,72,112621,6,0,B|74:53|68:16|68:16|51:77|-7:87,1,170.999994781494,2|0,3:2|0:0,0:0:0:0:
55,146,112930,5,6,3:2:0:0:
256,191,114167,5,2,3:0:0:0:
256,191,115404,5,2,3:0:0:0:
256,191,116641,5,2,3:0:0:0:
256,191,117878,5,2,3:0:0:0:
256,191,119115,5,2,3:0:0:0:
373,368,120043,6,0,L|396:298,1,71.25,2|0,0:0|0:0,0:0:0:0:
459,245,120353,5,14,0:0:0:0:
369,173,120507,1,0,3:2:0:0:
279,101,120662,1,0,3:2:0:0:
158,310,120816,5,14,0:0:0:0:
285,213,120971,1,0,3:2:0:0:
275,366,121126,1,0,3:2:0:0:
85,138,121280,5,14,0:0:0:0:
240,288,121435,1,0,3:2:0:0:
294,20,121590,5,10,0:0:0:0:
170,208,121744,1,0,3:2:0:0:
428,323,121899,5,8,0:0:0:0:
272,140,122054,1,0,3:2:0:0:
272,140,122131,1,0,3:2:0:0:
272,140,122208,6,0,P|237:141|256:160,1,80.750001540184,8|0,0:0|0:0,0:0:0:0:
453,37,122440,6,0,P|492:42|474:62,1,80.750001540184,8|0,0:0|0:0,0:0:0:0:
341,250,122672,6,0,P|378:246|354:231,1,80.750001540184,8|0,0:0|0:0,0:0:0:0:
280,316,122827,6,0,B|228:328|228:328|211:355|211:355|153:370,1,128.249996086121,6|0,3:2|0:0,0:0:0:0:
98,339,123136,1,2,0:0:0:0:
193,201,123291,1,2,3:2:0:0:
189,219,123368,1,0,3:2:0:0:
186,238,123445,1,8,0:0:0:0:
25,165,123600,5,2,0:0:0:0:
97,120,123755,1,2,0:0:0:0:
169,75,123909,1,2,3:2:0:0:
99,203,124064,5,2,3:2:0:0:
108,20,124218,1,8,0:0:0:0:
169,75,124373,2,0,P|215:63|268:52,1,85.4999973907472,2|0,0:0|3:2,0:0:0:0:
281,54,124605,1,0,3:0:0:0:
297,64,124682,5,10,0:0:0:0:
420,130,124837,1,0,3:0:0:0:
276,308,124992,6,0,B|236:288|252:250|252:250|279:284,1,99.7499969558717,14|0,0:0|0:0,0:0:0:0:
343,252,125301,6,0,B|356:221|376:207|376:207|346:161|287:149|229:185,1,209.000006378174,6|2,3:2|0:0,0:0:0:0:
147,85,125765,1,2,3:2:0:0:
147,85,125842,1,0,3:2:0:0:
147,85,125920,1,8,0:0:0:0:
18,191,126074,5,2,3:2:0:0:
91,160,126229,1,2,0:0:0:0:
164,191,126383,1,2,3:2:0:0:
60,315,126538,6,0,B|93:281|84:245|84:245|76:271|51:290,1,128.249996086121,2|0,3:2|0:0,0:0:0:0:
77,353,126847,2,0,P|127:361|161:338,1,85.4999973907472,2|0,0:0|3:0,0:0:0:0:
180,325,127079,1,0,3:0:0:0:
193,310,127157,1,10,0:0:0:0:
326,240,127311,5,0,3:0:0:0:
319,258,127389,1,0,3:0:0:0:
311,275,127466,1,8,0:0:0:0:
194,131,127621,2,0,L|155:102,1,42.7499986953736,0|2,3:0|0:0,0:0:0:0:
261,72,127775,6,0,B|296:38|343:43|343:43|364:81|412:80,1,170.999994781494,6|2,3:2|0:0,0:0:0:0:
334,213,128239,2,0,P|314:172|333:130,1,85.4999973907472,2|8,3:2|0:0,0:0:0:0:
485,217,128548,5,2,3:2:0:0:
484,120,128703,1,2,0:0:0:0:
411,171,128858,1,2,3:2:0:0:
485,361,129012,5,2,3:2:0:0:
431,294,129167,2,0,L|336:337,1,85.4999973907472,8|2,0:0|0:0,0:0:0:0:
210,248,129476,1,0,3:2:0:0:
199,242,129554,1,0,3:2:0:0:
188,237,129631,2,0,B|162:272|162:272|186:316,1,85.4999973907472,10|0,0:0|3:2,0:0:0:0:
220,370,129863,6,0,P|243:365|268:346,1,42.7499986953736,0|10,3:0|0:0,0:0:0:0:
308,209,130095,1,0,3:0:0:0:
115,132,130249,6,0,P|203:111|216:55,1,152,2|0,3:2|3:0,0:0:0:0:
95,147,130713,1,10,0:0:0:0:
216,277,130868,2,0,B|167:261|157:227|157:227|167:264|145:305,1,152,0|0,3:0|3:0,0:0:0:0:
303,38,131487,6,0,B|358:57|358:57|378:87|378:87|447:109,1,152,0|8,3:0|0:3,0:0:0:0:
275,46,131950,1,8,0:0:0:0:
301,233,132105,2,0,B|343:168|343:168|329:126|268:130,1,152,0|8,3:0|0:3,0:0:0:0:
483,354,132724,5,14,0:0:0:0:
381,303,132878,1,0,3:0:0:0:
280,354,133033,1,0,3:0:0:0:
475,235,133188,5,14,0:0:0:0:
361,149,133342,1,0,3:0:0:0:
247,63,133497,1,0,3:0:0:0:
105,302,133651,5,10,0:0:0:0:
264,149,133806,1,2,0:0:0:0:
30,81,133961,5,8,0:0:0:0:
231,243,134115,6,0,B|237:281|259:282|259:282|250:257,1,76,10|0,0:0|0:0,0:0:0:0:
153,56,134347,6,0,B|158:18|180:17|180:17|171:42,1,76,10|0,0:0|0:0,0:0:0:0:
28,217,134579,6,0,B|-7:231|-19:211|-19:211|6:207,1,76,10|0,0:0|0:0,0:0:0:0:
285,332,134889,6,0,P|288:318|290:338,1,57,2|0,0:0|0:0,0:0:0:0:
215,374,135198,6,0,B|185:349|146:346|146:346|133:302|175:236|254:243,1,246.999988693238,6|8,3:1|0:0,0:0:0:0:
423,89,135662,1,0,0:0:0:0:
465,192,135817,2,0,P|414:176|356:159,1,113.999996520996,0|0,3:0|0:0,0:0:0:0:
192,17,136126,5,10,0:0:0:0:
200,114,136280,2,0,P|172:50|205:7,1,113.999996520996,2|0,0:0|3:0,0:0:0:0:
290,205,136590,2,0,P|226:194|188:236,1,113.999996520996,2|8,0:0|0:0,0:0:0:0:
7,320,136899,1,2,0:0:0:0:
33,358,136976,1,2,0:0:0:0:
82,351,137054,2,0,P|104:294|67:247,1,113.999996520996,0|0,3:0|0:0,0:0:0:0:
243,367,137363,6,0,P|271:345|306:338,1,56.9999982604981,10|0,0:0|0:0,0:0:0:0:
389,349,137517,2,0,P|415:369|443:373,1,56.9999982604981,2|0,0:0|0:0,0:0:0:0:
314,242,137672,6,0,B|256:232|234:262|248:278|203:301|141:261,1,170.999994781494,2|0,3:2|0:0,0:0:0:0:
340,231,137981,2,0,P|354:190|310:135,1,113.999996520996,10|0,0:0|0:0,0:0:0:0:
494,37,138291,5,2,3:2:0:0:
397,89,138445,1,2,0:0:0:0:
300,37,138600,1,10,0:0:0:0:
493,144,138755,5,14,0:0:0:0:
352,254,138909,1,0,3:0:0:0:
491,351,139064,5,2,0:0:0:0:
352,227,139218,1,8,0:0:0:0:
149,372,139373,6,0,B|163:326|207:312|207:312|201:222|102:218,1,227.999993041992,6|0,3:2|0:0,0:0:0:0:
23,49,139837,1,10,0:0:0:0:
61,83,139914,1,8,0:0:0:0:
112,95,139991,1,8,0:0:0:0:
161,79,140068,1,8,0:0:0:0:
213,17,140146,6,0,B|134:39|142:136|142:136|182:144|215:170,1,227.999993041992,6|10,3:2|0:0,0:0:0:0:
312,239,140610,2,0,L|241:264,1,56.9999982604981
95,293,140765,2,0,B|78:269|78:269|158:284|158:284|204:334|152:390,1,227.999993041992,2|8,3:2|0:0,0:0:0:0:
312,239,141229,5,2,0:0:0:0:
468,377,141383,2,0,P|421:362|352:348,1,113.999996520996,2|0,3:2|0:0,0:0:0:0:
489,141,141693,5,10,0:0:0:0:
418,263,141847,1,0,0:0:0:0:
365,125,142002,1,2,3:2:0:0:
207,243,142157,5,8,0:0:0:0:
388,110,142311,1,12,0:0:0:0:
162,45,142466,6,0,P|147:17|131:-5,1,56.9999982604981,2|2,0:0|0:0,0:0:0:0:
255,101,142621,6,0,B|199:116|199:116|180:157|180:157|109:176,1,170.999994781494,6|0,3:2|0:0,0:0:0:0:
279,86,142930,2,0,P|309:39|270:-12,1,113.999996520996,10|0,0:0|0:0,0:0:0:0:
156,145,143239,6,0,P|175:198|193:256,1,113.999996520996,2|0,3:2|0:0,0:0:0:0:
413,335,143548,2,0,B|363:306|363:306|306:335,1,113.999996520996,10|0,0:0|0:0,0:0:0:0:
113,340,143858,5,10,0:0:0:0:
277,227,144012,1,8,0:0:0:0:
164,63,144167,1,8,0:0:0:0:
0,176,144322,1,0,3:2:0:0:
0,176,144399,1,0,3:2:0:0:
0,176,144476,1,10,0:0:0:0:
203,314,144631,5,0,3:0:0:0:
175,282,144708,1,0,3:0:0:0:
179,240,144785,2,0,P|190:213|213:180,1,56.9999982604981,14|0,0:0|0:0,0:0:0:0:
290,122,144940,2,0,P|312:136|343:161,1,56.9999982604981,0|0,3:0|0:0,0:0:0:0:
472,284,145095,6,0,B|436:250|436:199|436:199|409:265|336:282,1,227.999993041992,6|8,3:2|0:0,0:0:0:0:
487,297,145559,1,0,0:0:0:0:
403,116,145713,2,0,P|422:68|446:11,1,113.999996520996,0|0,3:0|0:0,0:0:0:0:
270,151,146023,5,10,0:0:0:0:
487,297,146177,1,14,0:0:0:0:
420,220,146332,5,0,3:0:0:0:
269,357,146487,2,0,P|215:374|166:339,1,113.999996520996,2|8,0:0|0:0,0:0:0:0:
36,145,146796,2,0,B|85:123|124:164|124:164|76:302,1,227.999993041992,2|0,0:0|0:0,0:0:0:0:
16,129,147260,6,0,P|7:101|-6:73,1,56.9999982604981,10|0,0:0|0:0,0:0:0:0:
92,19,147414,2,0,P|118:30|158:49,1,56.9999982604981,2|0,0:0|0:0,0:0:0:0:
276,121,147569,6,0,B|349:78|349:78|351:32|299:17,1,170.999994781494,2|0,3:2|0:0,0:0:0:0:
255,140,147878,2,0,P|246:203|298:234,1,113.999996520996,10|0,0:0|0:0,0:0:0:0:
490,348,148188,5,2,3:2:0:0:
395,276,148342,1,2,0:0:0:0:
300,348,148497,1,10,0:0:0:0:
163,169,148651,5,14,0:0:0:0:
284,331,148806,1,0,3:0:0:0:
446,96,148961,5,2,0:0:0:0:
357,155,149115,1,12,0:0:0:0:
227,12,149270,1,10,0:0:0:0:
235,30,149347,1,8,0:0:0:0:
243,49,149425,1,8,0:0:0:0:
153,174,149579,5,8,0:0:0:0:
110,196,149657,1,8,0:0:0:0:
71,168,149734,2,0,P|62:137|51:108,1,56.9999982604981,8|8,0:0|0:0,0:0:0:0:
2,267,149889,1,10,0:0:0:0:
16,295,149966,1,8,0:0:0:0:
31,322,150043,6,0,B|74:287|109:295|109:295|127:342|189:342,1,170.999994781494,6|0,3:2|0:0,0:0:0:0:
248,347,150353,2,0,P|268:296|291:240,1,113.999996520996,10|0,0:0|0:0,0:0:0:0:
472,120,150662,2,0,P|412:144|333:65,1,170.999994781494,2|0,3:2|0:0,0:0:0:0:
285,28,150971,1,8,0:0:0:0:
438,241,151126,1,2,0:0:0:0:
423,246,151203,1,2,0:0:0:0:
410,253,151280,6,0,B|388:217|396:182|396:182|367:235|304:239,1,170.999994781494,2|0,3:2|0:0,0:0:0:0:
262,301,151590,2,0,P|229:250|249:186,1,113.999996520996,8|0,0:0|0:0,0:0:0:0:
74,14,151899,5,2,3:2:0:0:
112,115,152054,1,0,0:0:0:0:
3,96,152208,1,8,0:0:0:0:
160,232,152363,6,0,P|177:211|201:193,1,56.9999982604981,2|0,0:0|0:0,0:0:0:0:
74,315,152517,6,0,B|125:299|148:339|137:346|177:380|234:358,1,170.999994781494,6|0,3:2|0:0,0:0:0:0:
46,298,152826,2,0,P|32:238|74:201,1,113.999996520996,10|0,0:0|0:0,0:0:0:0:
242,152,153136,2,0,P|191:135|124:118,1,113.999996520996,2|0,3:2|0:0,0:0:0:0:
342,255,153445,2,0,P|293:267|227:291,1,113.999996520996,10|0,0:0|0:0,0:0:0:0:
476,21,153755,5,10,0:0:0:0:
328,159,153909,1,8,0:0:0:0:
476,297,154064,1,8,0:0:0:0:
441,212,154218,5,2,3:2:0:0:
441,212,154296,1,0,3:2:0:0:
441,212,154373,1,10,0:0:0:0:
292,358,154528,5,0,3:2:0:0:
292,358,154605,1,0,3:2:0:0:
292,358,154682,1,8,0:0:0:0:
164,173,154837,1,0,3:0:0:0:
64,363,154992,6,0,B|36:344|6:336|6:336|26:261|97:240|167:288,1,265.999991882324,14|0,0:0|3:2,0:0:0:0:
202,10,155456,5,14,0:0:0:0:
101,92,155610,1,0,3:2:0:0:
3,175,155765,1,0,3:2:0:0:
247,288,155920,6,0,B|286:229|286:229|246:166,1,132.999995941162,10|2,0:0|3:2,0:0:0:0:
401,51,156229,5,10,0:0:0:0:
281,27,156383,1,0,3:2:0:0:
178,124,156538,1,2,3:2:0:0:
201,289,156693,1,0,3:2:0:0:
370,355,156847,1,2,3:2:0:0:
512,222,157002,1,0,3:2:0:0:
268,111,157157,5,10,0:0:0:0:
21,351,157466,6,0,B|72:362|91:328|91:328|131:347|131:347|159:313|209:316,1,209.000006378174,6|0,3:2|0:0,0:0:0:0:
26,217,157930,1,2,3:2:0:0:
64,236,158007,1,0,3:2:0:0:
98,210,158084,6,0,L|116:155,1,52.2500015945435,10|0,0:0|0:0,0:0:0:0:
18,38,158239,2,0,P|29:61|43:90,1,52.2500015945435,2|0,0:0|0:0,0:0:0:0:
146,142,158394,1,2,3:2:0:0:
345,33,158548,6,0,B|311:59|311:59|278:21|278:21|205:13,1,156.750004783631,10|0,0:0|0:0,0:0:0:0:
218,94,158858,1,2,3:2:0:0:
231,98,158935,1,2,3:2:0:0:
243,104,159012,2,0,B|276:143|276:143|249:192,1,104.500003189087,10|0,0:0|0:0,0:0:0:0:
56,327,159322,5,2,3:2:0:0:
101,303,159399,1,0,3:2:0:0:
144,332,159476,1,2,3:2:0:0:
189,310,159554,1,0,3:2:0:0:
203,319,159631,6,0,B|213:290|200:274|200:274|185:292|200:319,1,85.4999973907472,10|0,0:0|0:0,0:0:0:0:
315,367,159940,6,0,B|371:338|371:338|409:350|409:350|457:330|457:330|400:303,1,209.000006378174,6|2,3:2|0:0,0:0:0:0:
347,123,160404,2,0,B|307:118|283:141|283:141|309:189|309:189|311:211|311:211|349:282,1,209.000006378174,2|2,3:2|0:0,0:0:0:0:
435,85,160868,1,6,3:2:0:0:
237,209,161023,6,0,B|194:230|194:230|162:188|162:188|95:182,1,156.750004783631,10|0,0:0|0:0,0:0:0:0:
34,209,161332,1,2,3:2:0:0:
9,179,161409,1,0,3:2:0:0:
24,143,161487,2,0,B|57:127|57:127|73:106|73:106|113:90,1,104.500003189087,10|0,0:0|0:0,0:0:0:0:
330,61,161796,6,0,P|340:36|357:14,1,52.2500015945435,8|0,0:3|0:0,0:0:0:0:
233,123,161950,1,0,3:2:0:0:
213,138,162028,1,0,3:2:0:0:
194,153,162105,2,0,B|224:202|224:202|218:250|218:250|258:207,1,156.750004783631,14|0,0:0|0:0,0:0:0:0:
315,169,162414,1,2,3:2:0:0:
456,358,162569,6,0,B|475:346|496:338|496:338|434:332|434:332|405:313|405:313|333:301,1,209.000006378174,2|0,3:2|3:2,0:0:0:0:
276,351,162956,1,0,3:2:0:0:
262,355,163033,2,0,B|236:310|236:310|270:263,1,104.500003189087,8|0,0:0|0:0,0:0:0:0:
496,203,163342,6,0,P|471:213|437:231,1,52.2500015945435,10|0,0:0|0:0,0:0:0:0:
339,215,163497,2,0,P|327:192|307:155,1,52.2500015945435,2|0,0:0|0:0,0:0:0:0:
176,66,163651,6,0,B|243:55|269:111|269:111|341:69|272:2,1,246.999988693238,2|0,3:2|0:0,0:0:0:0:
171,229,164115,1,2,3:2:0:0:
171,229,164193,1,2,3:2:0:0:
171,229,164270,5,10,0:0:0:0:
48,78,164425,1,2,3:2:0:0:
193,142,164579,1,2,0:0:0:0:
86,178,164734,1,0,3:2:0:0:
147,318,164889,5,2,3:2:0:0:
357,379,165043,2,0,B|408:358|408:358|361:347|361:347|335:324|335:324|265:303,1,209.000006378174,10|0,0:0|3:2,0:0:0:0:
245,328,165430,1,0,3:2:0:0:
227,360,165507,1,10,0:0:0:0:
103,221,165662,5,2,3:2:0:0:
81,226,165739,2,0,L|59:178,1,52.2500015945435,2|8,3:2|0:0,0:0:0:0:
190,19,165971,1,2,3:2:0:0:
196,35,166048,1,0,3:2:0:0:
205,50,166126,5,10,0:0:0:0:
253,24,166203,1,8,0:0:0:0:
304,40,166280,1,8,0:0:0:0:
328,89,166357,1,8,0:0:0:0:
317,143,166435,5,0,3:2:0:0:
355,182,166512,1,0,3:2:0:0:
408,182,166589,1,0,3:2:0:0:
446,143,166666,1,0,3:2:0:0:
452,132,166744,6,0,P|442:105|429:78,1,52.2500015945435,10|0,0:0|0:0,0:0:0:0:
490,242,166899,1,0,3:2:0:0:
479,273,166976,1,0,3:2:0:0:
466,304,167054,2,0,B|424:297|424:297|409:282|409:282|349:269,1,104.500003189087,10|0,0:0|3:2,0:0:0:0:
221,363,167363,6,0,B|240:345|261:344|261:344|259:281|201:258|131:281,1,185.249991519928,14|0,0:0|0:0,0:0:0:0:
112,341,167672,1,2,3:2:0:0:
58,109,167827,6,0,B|90:154|90:154|48:208,1,113.999996520996,10|0,0:0|3:2,0:0:0:0:
36,224,168059,1,0,3:2:0:0:
17,245,168136,1,2,3:2:0:0:
154,79,168291,6,0,B|197:91|197:91|218:110|218:110|273:122,1,113.999996520996,10|0,0:0|3:2,0:0:0:0:
318,164,168523,1,0,3:2:0:0:
336,178,168600,2,0,L|369:127,1,56.9999982604981,2|0,3:2|0:0,0:0:0:0:
489,33,168755,6,0,B|437:55|437:55|386:23,1,113.999996520996,10|0,0:0|3:2,0:0:0:0:
324,9,168987,1,0,3:2:0:0:
299,28,169064,1,2,3:2:0:0:
187,236,169218,5,10,0:0:0:0:
72,73,169373,1,0,3:2:0:0:
120,2,169528,5,10,0:0:0:0:
8,208,169682,1,0,3:2:0:0:
192,362,169837,6,0,B|236:348|236:348|263:351|263:351|312:325,1,113.999996520996,14|0,0:0|3:2,0:0:0:0:
349,277,170069,1,0,3:2:0:0:
362,272,170146,2,0,L|408:328,1,56.9999982604981,2|0,3:2|0:0,0:0:0:0:
489,197,170301,6,0,B|445:191|445:191|424:172|424:172|375:166,1,113.999996520996,10|0,0:0|3:2,0:0:0:0:
321,139,170533,1,0,3:2:0:0:
307,110,170610,1,2,3:2:0:0:
61,35,170765,6,0,B|118:15|118:15|178:40,1,113.999996520996,10|0,0:0|3:2,0:0:0:0:
215,95,170997,1,0,3:2:0:0:
225,101,171074,2,0,L|200:159,1,56.9999982604981,2|0,3:2|0:0,0:0:0:0:
92,283,171229,6,0,B|72:240|72:240|69:228|69:228|46:177,1,113.999996520996,10|0,0:0|3:2,0:0:0:0:
95,119,171461,1,0,3:2:0:0:
120,101,171538,1,0,3:2:0:0:
267,265,171693,5,10,0:0:0:0:
371,152,171847,1,2,3:2:0:0:
457,361,172002,5,8,0:0:0:0:
355,231,172157,1,0,3:2:0:0:
360,247,172234,1,0,3:2:0:0:
365,263,172311,5,14,0:0:0:0:
413,259,172388,1,0,3:2:0:0:
454,233,172465,1,0,3:2:0:0:
476,190,172542,1,0,3:2:0:0:
475,142,172620,1,10,0:0:0:0:
451,100,172697,1,0,3:2:0:0:
408,76,172775,5,2,3:2:0:0:
369,110,172852,1,0,3:2:0:0:
319,124,172929,1,8,0:0:0:0:
268,114,173006,1,0,3:0:0:0:
227,82,173084,2,8,P|218:57|202:31,1,56.9999982604981,2|0,3:0|3:0,0:0:0:0:
47,119,173239,5,10,0:0:0:0:
93,96,173316,1,0,3:0:0:0:
144,104,173393,1,0,3:0:0:0:
181,140,173470,1,0,3:0:0:0:
191,191,173548,2,8,P|176:223|158:247,1,56.9999982604981,10|8,0:0|0:0,0:0:0:0:
36,355,173703,5,10,0:0:0:0:
82,321,173780,1,8,0:0:0:0:
139,315,173857,1,8,0:0:0:0:
192,335,173934,1,8,0:0:0:0:
238,368,174013,1,2,3:0:0:0:
292,372,174090,1,0,3:0:0:0:
338,353,174167,5,10,0:0:0:0:
370,319,174244,1,0,3:2:0:0:
379,273,174321,1,0,3:2:0:0:
361,230,174398,1,0,3:2:0:0:
334,199,174476,5,8,0:3:0:0:
301,197,174554,5,8,0:3:0:0:
277,215,174631,5,8,0:3:0:0:
268,226,174708,5,8,0:3:0:0:
270,237,174785,6,0,B|313:228|313:228|331:229|331:229|393:212,1,113.999996520996,14|0,0:0|0:0,0:0:0:0:
494,49,175095,5,2,3:2:0:0:
487,69,175172,1,0,3:2:0:0:
478,88,175249,2,0,B|429:110|429:110|376:82,1,113.999996520996,10|0,0:0|0:0,0:0:0:0:
172,108,175559,5,2,3:2:0:0:
201,129,175636,1,2,3:2:0:0:
235,117,175713,2,0,B|256:71|256:71|263:64|263:64|286:15,1,113.999996520996,10|0,0:0|0:0,0:0:0:0:
61,140,176023,5,2,3:2:0:0:
30,182,176100,1,2,3:2:0:0:
39,231,176177,2,0,B|107:239|107:239|161:317|161:317|262:318,1,227.999993041992,10|0,0:0|3:2,0:0:0:0:
274,311,176564,1,0,3:2:0:0:
296,293,176641,5,14,0:0:0:0:
393,158,176796,1,10,0:0:0:0:
491,23,176950,1,10,0:0:0:0:
478,44,177260,5,6,3:2:0:0:
69,75,187157,6,0,L|45:28,3,38,8|8|8|8,0:0|0:0|0:0|0:0,0:0:0:0:
138,30,187466,5,8,0:0:0:0:
198,82,187621,1,8,0:0:0:0:
138,134,187775,1,8,0:0:0:0:
198,186,187930,1,8,0:0:0:0:
76,302,188084,5,10,0:0:0:0:
148,258,188239,1,10,0:0:0:0:
236,333,188394,6,0,B|303:296|303:296|346:307|341:359,1,152,10|8,0:0|0:0,0:0:0:0:
425,281,188858,1,8,0:0:0:0:
303,166,189012,5,10,0:0:0:0:
364,222,189167,1,8,0:0:0:0:
420,161,189322,1,8,0:0:0:0:
359,105,189476,1,8,0:0:0:0:
247,238,189631,6,0,L|214:202,3,38,10|8|8|8,0:0|0:0|0:0|0:0,0:0:0:0:
162,153,189940,6,0,L|190:62,1,76,8|8,0:0|0:0,0:0:0:0:
277,22,190249,5,8,0:0:0:0:
355,58,190404,1,8,0:0:0:0:
489,162,190559,5,10,0:0:0:0:
417,122,190713,1,10,0:0:0:0:
338,185,190868,6,0,L|321:238,3,38,8|8|8|8,0:0|0:0|0:0|0:0,0:0:0:0:
373,281,191177,2,0,P|339:295|281:283,1,76,8|8,0:0|0:0,0:0:0:0:
205,351,191487,6,0,L|151:330,3,38,10|8|8|8,0:0|0:0|0:0|0:0,0:0:0:0:
101,298,191796,1,8,0:0:0:0:
165,239,191950,1,8,0:0:0:0:
58,154,192105,6,0,L|77:198,4,38,10|8|8|8|8,0:0|0:0|0:0|0:0|0:0,0:0:0:0:
109,85,192569,2,0,P|145:73|196:55,1,76,10|8,0:0|0:0,0:0:0:0:
309,24,192878,5,8,0:0:0:0:
274,99,193033,1,10,0:0:0:0:
239,174,193188,1,8,0:0:0:0:
355,251,193342,6,0,B|316:231|318:190|318:190|307:227|271:250,1,152,10|8,0:0|0:0,0:0:0:0:
410,370,193806,2,0,P|430:331|420:296,1,76,10|8,0:0|0:0,0:0:0:0:
496,214,194115,1,8,0:0:0:0:
372,132,194270,5,10,0:0:0:0:
480,196,194425,1,8,0:0:0:0:
481,51,194579,6,0,L|465:101,3,38,10|8|8|8,0:0|0:0|0:0|0:0,0:0:0:0:
489,29,194889,1,8,0:0:0:0:
372,132,195043,6,0,B|331:131|331:131|308:104|308:104|256:98,1,114,10|0,0:0|0:0,0:0:0:0:
213,145,195353,2,0,P|194:109|228:42,1,114,10|0,0:0|0:0,0:0:0:0:
242,169,195662,5,10,0:0:0:0:
138,277,195816,1,8,0:0:0:0:
290,340,195971,1,8,0:0:0:0:
238,257,196126,1,0,0:0:0:0:
66,151,196280,5,0,3:2:0:0:
66,151,196358,1,0,3:2:0:0:
66,151,196435,1,8,0:0:0:0:
16,363,196590,5,14,0:0:0:0:
441,83,199218,6,0,B|434:53|464:38|464:38|455:67,1,71.25,2|0,0:0|0:0,0:0:0:0:
420,117,199528,6,0,P|363:130|302:80,1,114,6|0,3:2|0:0,0:0:0:0:
290,80,199837,1,0,3:0:0:0:
181,24,200146,1,8,0:0:0:0:
40,173,200456,5,2,0:0:0:0:
109,120,200610,1,2,3:2:0:0:
178,173,200765,1,2,0:0:0:0:
56,275,200920,5,8,0:0:0:0:
56,275,201074,2,0,B|98:239|132:250|132:250|155:291|213:287,1,152,0|8,3:0|0:0,0:0:0:0:
311,369,201538,5,8,0:3:0:0:
360,298,201693,1,2,0:0:0:0:
272,292,201847,1,10,0:3:0:0:
370,197,202002,6,0,B|329:204|320:231|320:231|322:199|300:166,1,114,2|0,3:2|0:0,0:0:0:0:
276,117,202311,1,0,3:0:0:0:
434,21,202621,1,8,0:0:0:0:
433,42,202930,2,0,P|387:57|347:36,1,76,2|0,0:0|3:0,0:0:0:0:
440,144,203239,5,2,0:0:0:0:
370,190,203394,1,2,3:2:0:0:
488,270,203548,2,0,B|412:291|412:291|390:326|437:372,1,152,2|8,3:2|0:0,0:0:0:0:
301,268,204012,1,8,0:3:0:0:
159,365,204167,5,2,0:0:0:0:
228,316,204322,1,8,0:3:0:0:
46,254,204476,6,0,B|94:260|94:260|114:283|114:283|167:287,1,114,6|0,3:2|0:0,0:0:0:0:
207,229,204785,1,0,3:0:0:0:
70,104,205095,1,8,0:0:0:0:
267,34,205404,5,2,0:0:0:0:
173,22,205559,2,0,P|187:63|202:105,1,76,2|0,3:2|0:0,0:0:0:0:
322,193,205868,1,10,0:0:0:0:
322,193,206023,2,0,P|273:167|181:228,1,152,0|8,3:0|0:0,0:0:0:0:
91,304,206487,2,0,P|79:262|64:212,1,76,2|0,3:2|0:0,0:0:0:0:
209,331,206796,6,0,P|230:337|254:352,1,38,2|0,3:0|0:0,0:0:0:0:
337,372,206950,6,0,P|350:321|370:251,1,114,2|0,3:2|0:0,0:0:0:0:
322,193,207260,1,0,3:0:0:0:
485,73,207569,1,8,0:0:0:0:
420,17,207878,5,2,0:0:0:0:
485,73,208033,2,0,L|461:156,1,76,2|0,3:2|0:0,0:0:0:0:
380,207,208342,5,10,0:0:0:0:
495,298,208497,1,6,3:2:0:0:
315,155,208651,1,8,0:0:0:0:
315,155,208729,1,8,0:0:0:0:
315,155,208806,5,8,0:0:0:0:
375,314,208961,1,8,0:0:0:0:
216,374,209115,1,8,0:0:0:0:
156,215,209270,1,8,0:0:0:0:
220,153,209425,6,0,P|185:109|212:49,1,114,6|0,3:2|0:0,0:0:0:0:
268,30,209734,1,0,3:0:0:0:
82,120,210043,1,10,0:0:0:0:
26,47,210353,5,2,0:0:0:0:
82,120,210507,2,0,P|136:134|157:120,1,76,2|0,3:2|0:0,0:0:0:0:
21,210,210816,5,10,0:0:0:0:
100,266,210971,1,0,3:0:0:0:
19,304,211126,1,0,0:0:0:0:
146,354,211280,5,8,0:0:0:0:
181,328,211357,1,0,3:0:0:0:
222,317,211434,1,0,3:0:0:0:
266,322,211511,1,0,3:0:0:0:
304,343,211589,1,8,0:0:0:0:
339,369,211667,1,0,3:0:0:0:
380,380,211744,1,0,3:0:0:0:
424,375,211821,1,0,3:0:0:0:
438,370,211899,6,0,L|460:320,1,38,8|0,0:0|0:0,0:0:0:0:
383,204,212054,1,0,3:0:0:0:
361,211,212131,1,0,3:0:0:0:
339,218,212208,2,0,L|356:275,1,38,8|0,0:0|0:0,0:0:0:0:
478,150,212363,5,0,3:2:0:0:
501,120,212440,1,0,3:2:0:0:
493,82,212517,2,0,L|449:58,1,38,0|0,3:0|0:0,0:0:0:0:
351,6,212672,1,8,0:0:0:0:
221,135,212827,5,0,3:2:0:0:
196,92,212904,1,0,3:2:0:0:
216,47,212981,2,0,L|270:33,1,38,8|0,0:0|0:0,0:0:0:0:
362,172,213136,5,0,3:0:0:0:
372,191,213213,1,0,3:0:0:0:
381,208,213291,6,0,B|399:221|399:241|399:241|376:229|386:211,1,66.4999979705811,14|0,0:0|0:0,0:0:0:0:
250,289,213445,6,0,B|231:302|231:322|231:322|254:310|244:292,1,66.4999979705811,14|0,0:0|0:0,0:0:0:0:
153,191,213600,5,0,3:0:0:0:
108,180,213677,1,0,3:0:0:0:
68,203,213755,1,8,0:3:0:0:
16,360,213909,5,0,3:0:0:0:
62,319,213987,5,0,3:0:0:0:
113,312,214064,5,8,0:3:0:0:
146,321,214141,5,8,0:3:0:0:
168,334,214218,5,8,0:3:0:0:
178,349,214296,5,8,0:3:0:0:
176,361,214373,6,0,P|199:271|235:177,3,170.999994781494,6|2|2|0,3:2|3:2|3:2|3:0,0:0:0:0:
433,361,215456,6,0,L|394:337,1,42.7499986953736,2|0,0:0|0:0,0:0:0:0:
303,264,215610,5,6,3:2:0:0:
329,230,215920,1,2,3:2:0:0:
355,196,216229,1,2,3:2:0:0:
381,162,216538,1,0,3:2:0:0:
454,47,216693,5,2,0:0:0:0:
460,57,216770,1,2,0:0:0:0:
465,68,216847,6,0,P|409:84|370:58,1,95,6|8,3:2|0:0,0:0:0:0:
301,23,217079,5,8,0:0:0:0:
291,16,217157,2,8,L|262:70,1,47.5,10|8,0:0|0:0,0:0:0:0:
186,129,217311,2,0,L|215:183,1,47.5,8|8,0:0|0:0,0:0:0:0:
379,258,217466,5,10,0:0:0:0:
332,238,217543,1,8,0:0:0:0:
283,248,217620,1,8,0:0:0:0:
248,284,217697,1,8,0:0:0:0:
247,299,217775,5,10,0:0:0:0:
202,320,217852,1,8,0:0:0:0:
152,319,217929,1,8,0:0:0:0:
108,295,218006,1,8,0:0:0:0:
80,254,218084,5,6,3:2:0:0:
146,150,218239,1,8,0:0:0:0:
248,284,218394,1,8,0:0:0:0:
346,100,218548,1,8,0:0:0:0:
449,317,218703,1,8,0:0:0:0:
245,184,218858,1,8,0:0:0:0:
463,26,219012,1,8,0:0:0:0:
396,204,219322,5,0,3:0:0:0:
391,203,219399,1,0,3:0:0:0:
386,202,219476,1,0,3:0:0:0:
382,201,219553,1,0,3:0:0:0:
377,200,219631,6,0,B|298:251|314:333|314:333|356:345|384:398,1,227.999993041992,6|0,3:2|3:0,0:0:0:0:
240,359,220095,1,0,0:0:0:0:
434,281,220249,5,10,0:2:0:0:
222,367,220404,2,0,P|171:350|108:333,1,113.999996520996,2|0,0:0|3:0,0:0:0:0:
208,167,220713,2,0,P|239:220|212:276,1,113.999996520996,2|8,0:0|0:0,0:0:0:0:
19,164,221023,1,2,0:0:0:0:
54,135,221100,1,2,0:0:0:0:
41,91,221177,2,0,B|86:63|69:22|69:22|26:70,1,113.999996520996,0|0,3:0|0:0,0:0:0:0:
231,24,221487,6,0,P|261:36|287:44,1,56.9999982604981,10|0,0:0|0:0,0:0:0:0:
393,87,221641,2,0,P|406:62|406:30,1,56.9999982604981,2|0,0:0|0:0,0:0:0:0:
295,145,221796,6,0,B|381:188|381:188|403:228|344:258,1,170.999994781494,2|0,3:2|0:0,0:0:0:0:
268,136,222105,2,0,B|217:155|217:155|207:162|207:162|152:182,1,113.999996520996,10|0,0:0|0:0,0:0:0:0:
84,334,222414,5,2,3:2:0:0:
48,243,222569,1,2,0:0:0:0:
12,152,222723,1,2,3:2:0:0:
268,136,222878,5,14,0:0:0:0:
71,237,223033,1,0,3:2:0:0:
312,371,223188,5,2,0:0:0:0:
174,307,223342,1,0,3:2:0:0:
343,174,223497,1,10,0:0:0:0:
333,200,223574,1,8,0:0:0:0:
321,226,223651,1,8,0:0:0:0:
473,376,223806,5,8,0:0:0:0:
473,376,223883,1,8,0:0:0:0:
473,376,223961,5,8,0:0:0:0:
426,343,224038,1,8,0:0:0:0:
411,289,224115,1,10,0:0:0:0:
434,238,224192,1,8,0:0:0:0:
508,207,224270,6,0,B|422:188|422:188|397:144|397:144|308:124,1,227.999993041992,6|10,3:2|0:0,0:0:0:0:
179,20,224734,1,0,0:0:0:0:
17,181,224889,2,0,P|61:229|199:146,1,227.999993041992,2|8,3:2|0:0,0:0:0:0:
346,347,225353,1,2,0:0:0:0:
376,313,225430,1,2,0:0:0:0:
362,269,225507,6,0,B|308:253|275:288|282:297|259:338|186:313,1,170.999994781494,2|0,3:2|0:0,0:0:0:0:
386,247,225816,2,0,P|416:196|376:135,1,113.999996520996,10|0,0:0|0:0,0:0:0:0:
214,23,226126,1,2,3:2:0:0:
159,242,226280,5,8,0:0:0:0:
334,85,226435,1,12,0:0:0:0:
141,257,226590,2,0,P|108:281|89:301,1,56.9999982604981,2|0,0:0|0:0,0:0:0:0:
231,179,226744,6,0,B|204:155|207:106|207:106|180:152|107:153,1,170.999994781494,2|0,3:2|0:0,0:0:0:0:
244,201,227054,2,0,P|296:220|346:197,1,113.999996520996,10|0,0:0|0:0,0:0:0:0:
490,20,227363,6,0,P|477:51|466:85,1,56.9999982604981,2|0,3:2|0:0,0:0:0:0:
414,154,227517,2,0,P|427:185|438:219,1,56.9999982604981,2|0,0:0|0:0,0:0:0:0:
493,343,227672,2,0,P|436:323|375:348,1,113.999996520996,10|0,0:0|0:0,0:0:0:0:
270,102,227981,5,10,0:0:0:0:
391,246,228136,1,8,0:0:0:0:
247,367,228291,1,8,0:0:0:0:
126,223,228445,1,2,3:2:0:0:
126,223,228523,1,0,3:2:0:0:
126,223,228600,1,8,0:0:0:0:
342,172,228755,5,8,0:0:0:0:
296,203,228832,1,8,0:0:0:0:
242,192,228909,1,8,0:0:0:0:
206,157,228987,5,8,0:0:0:0:
157,128,229064,5,8,0:0:0:0:
92,133,229141,5,8,0:0:0:0:
27,179,229218,6,0,B|-27:263|25:338|25:338|52:322|98:314,1,227.999993041992,6|8,3:2|0:0,0:0:0:0:
163,355,229682,1,0,0:0:0:0:
17,155,229837,2,0,P|7:96|69:58,1,113.999996520996,0|0,3:0|0:0,0:0:0:0:
265,166,230146,5,10,0:0:0:0:
119,21,230301,1,14,0:0:0:0:
254,70,230456,5,0,3:0:0:0:
150,238,230610,2,0,B|105:217|121:171|121:171|168:215,1,113.999996520996,2|8,0:0|0:0,0:0:0:0:
344,342,230920,2,0,B|301:278|234:288|234:288|211:345|127:344,1,227.999993041992,2|0,0:0|0:0,0:0:0:0:
366,351,231383,6,0,P|386:328|403:295,1,56.9999982604981,10|0,0:0|0:0,0:0:0:0:
477,228,231538,2,0,P|458:196|448:166,1,56.9999982604981
335,83,231693,6,0,B|414:76|428:9|428:9|360:23,1,170.999994781494,2|0,3:2|0:0,0:0:0:0:
313,95,232002,2,0,P|293:162|337:201,1,113.999996520996,10|0,0:0|0:0,0:0:0:0:
160,341,232311,5,2,3:2:0:0:
233,262,232466,1,2,0:0:0:0:
262,365,232621,1,10,0:0:0:0:
164,147,232775,5,14,0:0:0:0:
72,332,232930,1,0,3:0:0:0:
233,262,233084,5,2,0:0:0:0:
49,155,233239,1,12,0:0:0:0:
276,50,233394,1,10,0:0:0:0:
236,71,233471,1,8,0:0:0:0:
195,49,233548,1,8,0:0:0:0:
342,159,233703,5,8,0:0:0:0:
380,147,233780,1,8,0:0:0:0:
421,138,233858,2,0,P|426:106|433:79,1,56.9999982604981,8|0,0:0|0:0,0:0:0:0:
500,239,234012,5,8,0:3:0:0:
498,250,234090,5,8,0:3:0:0:
496,261,234167,6,0,B|427:274|427:274|404:311|404:311|328:326,1,170.999994781494,6|0,3:2|0:0,0:0:0:0:
278,379,234476,2,0,P|256:327|283:268,1,113.999996520996,10|0,0:0|0:0,0:0:0:0:
101,111,234785,2,0,B|81:89|81:89|176:107|176:107|208:161|153:212,1,227.999993041992,2|8,3:2|0:0,0:0:0:0:
29,365,235249,6,0,P|18:339|1:311,1,56.9999982604981,2|0,0:0|0:0,0:0:0:0:
148,357,235404,6,0,B|194:335|196:287|196:287|206:338|264:364,1,170.999994781494,2|0,3:2|0:0,0:0:0:0:
128,347,235713,2,0,P|95:296|112:235,1,113.999996520996,10|0,0:0|0:0,0:0:0:0:
287,130,236023,1,2,3:2:0:0:
108,23,236177,1,0,3:0:0:0:
121,48,236255,1,0,3:0:0:0:
133,72,236332,1,8,0:0:0:0:
222,197,236487,1,2,3:2:0:0:
308,326,236641,6,0,B|220:359|220:359|264:366|293:382,1,170.999994781494,6|0,3:2|0:0,0:0:0:0:
336,309,236950,2,0,P|371:260|335:199,1,113.999996520996,10|0,0:0|0:0,0:0:0:0:
217,54,237260,2,0,P|241:108|312:108,1,113.999996520996,2|0,3:2|0:0,0:0:0:0:
500,25,237569,2,0,P|439:64|443:118,1,113.999996520996,10|0,0:0|3:0,0:0:0:0:
440,178,237801,1,0,3:0:0:0:
456,195,237878,5,10,0:0:0:0:
319,313,238033,1,8,0:0:0:0:
182,195,238188,1,8,0:0:0:0:
103,267,238342,5,2,3:2:0:0:
103,267,238420,1,0,3:2:0:0:
103,267,238497,1,10,0:0:0:0:
266,133,238651,5,0,3:2:0:0:
266,133,238729,1,0,3:2:0:0:
266,133,238806,1,8,0:0:0:0:
6,27,239115,6,0,B|70:9|105:60|105:60|80:108|80:108|82:150|82:150|40:213,1,265.999991882324,6|8,3:2|0:0,0:0:0:0:
195,364,239579,2,0,B|143:337|143:337|81:369,1,113.999996520996,2|0,0:0|3:0,0:0:0:0:
165,171,239889,5,2,0:0:0:0:
240,223,240043,1,10,0:0:0:0:
315,275,240198,1,2,0:0:0:0:
272,340,240353,5,10,0:0:0:0:
404,208,240507,1,8,0:0:0:0:
272,76,240662,1,10,0:0:0:0:
356,29,240816,5,0,3:0:0:0:
356,29,240894,1,0,3:0:0:0:
356,29,240971,1,10,0:0:0:0:
255,180,241126,1,0,3:0:0:0:
212,196,241203,1,0,3:0:0:0:
172,175,241280,2,0,P|157:115|138:54,1,113.999996520996,14|0,0:0|0:0,0:0:0:0:
22,273,241590,6,0,P|79:280|103:299,1,75.9999976806641,0|8,3:0|0:0,0:0:0:0:
187,335,241796,5,8,0:0:0:0:
206,341,241899,2,0,P|220:301|243:271,1,75.9999976806641,0|8,3:2|0:0,0:0:0:0:
312,192,242105,5,8,0:0:0:0:
330,179,242208,2,0,P|305:157|282:101,1,75.9999976806641,0|8,3:2|0:0,0:0:0:0:
216,41,242414,5,8,0:0:0:0:
207,60,242517,2,0,B|272:98|334:58|334:58|294:24,1,170.999994781494,0|0,3:0|0:0,0:0:0:0:
398,9,242827,5,14,0:0:0:0:
439,129,242981,1,0,3:0:0:0:
481,249,243136,1,0,3:0:0:0:
211,306,243291,5,14,0:0:0:0:
362,175,243445,1,0,3:0:0:0:
356,372,243600,1,0,3:0:0:0:
186,147,243755,5,14,0:0:0:0:
359,276,243909,1,0,3:0:0:0:
100,369,244064,5,10,0:0:0:0:
127,333,244141,1,8,0:0:0:0:
136,289,244218,1,8,0:0:0:0:
123,246,244295,1,8,0:0:0:0:
88,213,244374,5,10,0:0:0:0:
59,176,244451,1,8,0:0:0:0:
50,130,244528,1,10,0:0:0:0:
63,85,244605,1,8,0:0:0:0:
95,50,244682,6,8,P|124:34|156:32,1,56.9999982604981,10|8,0:0|0:0,0:0:0:0:
235,134,244837,2,0,P|214:112|208:80,1,56.9999982604981,2|0,3:2|3:2,3:2:0:0:
339,26,244992,2,0,P|371:36|409:53,1,56.9999982604981,2|0,3:2|3:2,3:2:0:0:
472,164,245146,1,2,3:2:0:0:
459,190,245224,1,0,3:0:0:0:
449,208,245301,6,0,B|438:267|407:294|355:298|355:298|375:277|402:275,1,190,14|0,0:0|0:0,0:0:0:0:
394,344,246538,6,0,B|361:321|363:285|363:285|346:325|299:342,1,142.5,6|0,3:2|0:0,0:0:0:0:
236,337,246847,5,8,0:0:0:0:
118,229,247002,1,0,3:2:0:0:
315,148,247157,5,8,0:0:0:0:
230,188,247311,1,2,3:2:0:0:
145,148,247466,1,2,0:0:0:0:
251,26,247621,1,0,3:0:0:0:
246,44,247698,1,0,3:0:0:0:
241,62,247775,5,8,0:0:0:0:
118,229,247930,2,0,P|61:208|68:89,1,190,0|0,3:0|3:0,0:0:0:0:
243,243,248394,5,14,0:0:0:0:
91,358,248548,1,0,3:0:0:0:
267,237,248703,6,0,P|310:252|357:270,1,85.4999973907472,10|0,0:0|0:0,0:0:0:0:
455,340,249012,6,0,P|421:285|462:210,1,142.5,4|0,3:2|0:0,0:0:0:0:
499,162,249322,1,8,0:0:0:0:
378,45,249476,2,0,P|330:58|259:81,1,95,2|8,3:2|0:0,0:0:0:0:
124,237,249785,5,2,3:2:0:0:
202,168,249940,1,2,0:0:0:0:
213,268,250095,1,0,3:0:0:0:
213,268,250172,1,0,3:0:0:0:
213,268,250249,5,8,0:0:0:0:
99,114,250404,2,0,B|3:139|3:139|-19:177|26:225,1,190,0|0,3:0|3:0,0:0:0:0:
48,241,250791,1,0,3:0:0:0:
72,263,250868,5,10,0:0:0:0:
240,364,251100,5,10,0:0:0:0:
408,263,251332,5,10,0:0:0:0:
344,321,251487,5,6,3:2:0:0:
299,252,251641,1,2,3:2:0:0:
254,183,251796,1,10,0:0:0:0:
406,44,251950,5,0,3:0:0:0:
444,140,252105,2,0,P|399:125|340:108,1,95,8|0,0:0|3:0,0:0:0:0:
179,13,252414,2,0,P|149:62|169:108,1,95,2|0,0:0|3:0,0:0:0:0:
176,121,252646,1,0,3:0:0:0:
197,140,252724,5,14,0:0:0:0:
342,267,252878,2,0,B|362:249|362:249|295:224|295:224|244:240|248:304,1,190,0|0,3:0|3:0,0:0:0:0:
469,369,253342,2,0,B|445:320|445:320|478:282,1,95,14|0,0:0|3:0,0:0:0:0:
369,129,253651,5,8,0:0:0:0:
329,154,253728,1,8,0:3:0:0:
283,158,253805,1,8,0:3:0:0:
240,139,253882,1,8,0:3:0:0:
212,101,253961,6,0,P|195:50|176:0,1,95,14|0,0:0|3:0,0:0:0:0:
18,150,254270,5,8,0:0:0:0:
136,213,254425,1,0,3:0:0:0:
241,343,254579,5,8,0:0:0:0:
367,260,254734,1,0,3:0:0:0:
433,325,254889,5,2,0:0:0:0:
285,194,255043,1,0,3:0:0:0:
265,150,255121,1,0,3:0:0:0:
291,110,255198,5,10,0:0:0:0:
36,26,255507,5,8,0:3:0:0:
150,101,255662,5,8,0:3:0:0:
203,216,255816,5,8,0:3:0:0:
161,307,255971,5,8,0:3:0:0:
94,350,256126,5,8,0:0:0:0:
279,176,256280,2,1,B|360:125|409:160|394:201|489:259|577:158|498:96|388:107|464:185,1,342.00000834961,14|0,0:0|0:0,0:0:0:0:
