osu file format v14

[General]
AudioFilename: audio.mp3
AudioLeadIn: 0
PreviewTime: 160984
Countdown: 0
SampleSet: Soft
StackLeniency: 0.7
Mode: 0
LetterboxInBreaks: 0
WidescreenStoryboard: 1

[Editor]
Bookmarks: 22651,43994,65328,65494,65661,65828,65994,66161,66328,66494,66661,66828,66994,67161,67328,67494,67661,67828,67994,68161,68328,68494,68661,68828,68994,69161,69328,69494,69661,69828,69994,70161,70328,70494,70661,70828,70994,71161,71328,71494,71661,71828,71994,72161,72328,72494,72661,72828,72994,73161,73328,73494,73661,73828,73994,74161,74328,74494,74661,74828,74994,75161,75328,75494,75661,75828,75994,86661,97328,99661,102328,104994,107994,110328,117661,136661,147994,171328,199661,200328,203994,224328
DistanceSpacing: 0.2
BeatDivisor: 8
GridSize: 32
TimelineZoom: 1.5

[Metadata]
Title:Saikai (produced by Ayase)
TitleUnicode:再会 (produced by Ayase)
Artist:LiSA x Uru
ArtistUnicode:LiSA×Uru
Creator:Akito
Version:FuJu x Gibune's Hard
Source:
Tags:the first take japanese pop agatsu fuju gibune
BeatmapID:2751441
BeatmapSetID:1307032

[Difficulty]
HPDrainRate:4
CircleSize:3.5
OverallDifficulty:6.5
ApproachRate:7.5
SliderMultiplier:2.4
SliderTickRate:1

[Events]
//Background and Video events
0,0,"83499589_p0.jpg",0,0
//Break Periods
2,65328,74661
//Storyboard Layer 0 (Background)
//Storyboard Layer 1 (Fail)
//Storyboard Layer 2 (Pass)
//Storyboard Layer 3 (Foreground)
//Storyboard Layer 4 (Overlay)
//Storyboard Sound Samples

[TimingPoints]
1328,666.666666666667,4,2,1,30,1,0
1328,-125,4,2,1,30,0,0
11994,-117.647058823529,4,2,1,30,0,0
20494,-166.666666666667,4,2,1,30,0,0
22661,-90.9090909090909,4,2,1,40,0,0
46651,-80,4,2,1,70,0,0
75994,-90.9090909090909,4,2,1,40,0,0
107994,-90.9090909090909,4,2,1,50,0,0
118661,-80,4,2,1,70,0,0
136661,-100,4,2,1,70,0,0
137328,-125,4,2,1,70,0,0
147994,-90.9090909090909,4,2,1,70,0,0
158328,-166.666666666667,4,2,1,50,0,0
158661,-166.666666666667,4,2,1,30,0,0
161328,-125,4,2,1,30,0,0
171994,-111.111111111111,4,2,1,40,0,0
182661,-80,4,2,1,70,0,0
219328,-80,4,2,1,60,0,0
225328,-125,4,2,1,60,0,0
227994,-166.666666666667,4,2,1,30,0,0
235994,1132.07547169811,4,2,1,100,1,0
236560,810.810810810811,4,2,1,100,1,0
236965,1000,4,2,1,100,1,0

[Colours]
Combo1 : 71,101,243
Combo2 : 244,185,186
Combo3 : 255,88,100
Combo4 : 164,183,249

[HitObjects]
115,365,1328,6,0,L|95:270,1,96,2|0,0:0|0:0,0:0:0:0:
25,212,1828,1,2,0:0:0:0:
25,212,1994,2,0,P|60:181|107:183,1,96,0|2,0:0|0:0,0:0:0:0:
189,24,2661,2,0,B|163:117,1,96,2|0,0:0|0:0,0:0:0:0:
191,197,3161,2,0,B|238:209|238:209|239:211|239:211|284:223,2,96,0|2|0,0:0|0:0|0:0,0:0:0:0:
276,130,3994,6,0,B|323:142|323:142|324:144|324:144|369:156,2,96,0|0|2,0:0|0:0|0:0,0:0:0:0:
296,307,4994,1,0,0:0:0:0:
452,368,5328,2,0,P|387:300|294:307,1,192,2|2,0:0|0:0,0:0:0:0:
146,219,6328,1,2,0:0:0:0:
188,384,6661,38,0,L|206:289,1,96,2|0,0:0|0:0,0:0:0:0:
146,219,7161,1,2,0:0:0:0:
146,219,7328,2,0,L|164:124,1,96
41,15,7994,2,0,P|73:48|120:47,1,96,2|0,0:0|0:0,0:0:0:0:
281,39,8661,2,0,P|248:5|201:6,1,96
273,218,9328,6,0,L|368:200,1,96,2|0,0:0|0:0,0:0:0:0:
451,157,9828,1,0,0:0:0:0:
451,157,9994,2,0,P|469:113|449:71,2,96,2|0|2,0:0|0:0|0:0,0:0:0:0:
427,283,10994,1,0,0:0:0:0:
331,366,11328,37,2,0:0:0:0:
331,366,11494,2,0,L|283:357,1,48,2|0,0:0|0:0,0:0:0:0:
184,384,11828,1,0,0:0:0:0:
184,384,11994,6,0,P|167:337|192:294,1,102.000001945496,0|0,1:0|0:0,0:0:0:0:
263,219,12494,1,2,1:2:0:0:
263,219,12661,2,0,P|252:170|249:119,1,102.000001945496
70,0,13328,2,0,P|81:49|84:100,1,102.000001945496,2|0,0:0|0:0,0:0:0:0:
37,172,13828,1,0,0:0:0:0:
43,353,14161,38,0,L|92:341,1,51.0000009727478
170,384,14494,1,0,0:0:0:0:
170,384,14661,2,0,P|145:341|159:293,1,102.000001945496,2|0,1:2|0:0,0:0:0:0:
193,206,15161,1,0,1:2:0:0:
193,206,15328,2,0,L|293:227,1,102.000001945496
449,52,15994,6,0,B|404:40|366:66|384:89|352:113|303:99,1,153.000002918243,2|0,0:0|0:0,0:0:0:0:
246,46,16661,1,0,0:0:0:0:
417,172,16994,2,0,L|369:187,1,51.0000009727478,2|0,0:0|0:0,0:0:0:0:
293,227,17328,38,0,P|244:216|207:249,1,102.000001945496,2|0,1:2|0:0,0:0:0:0:
170,333,17828,1,2,1:2:0:0:
170,333,17994,2,0,P|121:317|70:316,1,102.000001945496
59,158,18661,1,2,0:0:0:0:
197,96,18994,2,0,P|233:129|233:179,2,102.000001945496,0|2|2,0:0|0:0|0:0,0:0:0:0:
59,158,19994,6,0,P|74:109|75:58,1,102.000001945496,2|0,1:2|0:0,0:0:0:0:
164,0,20494,1,0,1:0:0:0:
164,0,20661,2,0,P|197:12|233:17,2,71.9999978027344
59,158,21661,1,0,1:0:0:0:
369,27,22661,6,0,L|376:169,1,132.00000402832,4|0,1:2|0:0,0:0:0:0:
329,238,23161,1,0,1:0:0:0:
329,238,23328,1,8,0:1:0:0:
445,357,23661,1,0,0:0:0:0:
329,238,23994,1,2,0:0:0:0:
223,321,24328,5,0,1:0:0:0:
223,321,24494,2,0,B|176:348|176:348|81:340,1,132.00000402832,2|2,0:2|0:2,0:0:0:0:
26,300,24994,1,0,0:0:0:0:
86,246,25161,1,0,3:0:0:0:
15,206,25328,38,0,P|86:204|151:215,1,132.00000402832,2|2,1:2|0:0,0:0:0:0:
227,176,25828,1,0,1:0:0:0:
293,119,25994,2,0,L|358:113,1,66.0000020141602,8|0,0:1|0:0,0:0:0:0:
286,38,26328,2,0,L|216:27,1,66.0000020141602
138,37,26661,2,0,L|-4:27,1,132.00000402832,0|0,0:0|1:0,0:0:0:0:
146,145,27328,1,8,0:1:0:0:
6,27,27661,1,0,0:0:0:0:
39,98,27828,1,0,3:0:0:0:
15,173,27994,6,0,P|17:245|79:270,1,132.00000402832,2|0,1:2|0:0,0:0:0:0:
166,241,28494,1,2,1:2:0:0:
148,362,28661,2,0,P|178:302|160:233,1,132.00000402832,8|0,0:1|0:0,0:0:0:0:
220,175,29161,1,0,3:0:0:0:
220,175,29328,1,0,0:0:0:0:
378,281,29661,38,0,B|386:233|386:233|383:194|383:194|389:150,2,132.00000402832,0|8|2,1:0|0:1|0:0,0:0:0:0:
417,350,30494,1,0,3:0:0:0:
315,378,30661,6,0,P|257:354|185:372,1,132.00000402832,2|0,1:2|0:0,0:0:0:0:
122,326,31161,1,0,1:0:0:0:
47,360,31328,2,0,L|43:217,1,132.00000402832,8|0,0:1|0:0,0:0:0:0:
99,110,31994,1,2,0:0:0:0:
219,161,32328,2,0,L|361:174,1,132.00000402832,0|8,1:0|0:1,0:0:0:0:
426,132,32828,1,0,0:0:0:0:
273,14,33161,5,0,0:0:0:0:
181,0,33328,2,0,L|194:139,1,132.00000402832,2|0,1:2|0:0,0:0:0:0:
274,192,33828,1,2,1:2:0:0:
196,250,33994,2,0,L|209:389,1,132.00000402832
293,354,34494,1,0,0:0:0:0:
293,354,34661,1,2,0:0:0:0:
419,301,34994,5,0,1:0:0:0:
493,364,35161,2,0,L|498:286,1,66.0000020141602,2|8,0:0|0:1,0:0:0:0:
444,218,35494,2,0,L|352:232,1,66.0000020141602,2|0,0:0|0:0,0:0:0:0:
484,142,35828,1,0,3:0:0:0:
484,142,35994,38,0,P|503:80|477:17,1,132.00000402832,2|0,1:2|0:0,0:0:0:0:
379,66,36494,1,0,1:0:0:0:
379,66,36661,2,0,B|327:73|327:73|303:83|303:83|240:90,2,132.00000402832,8|0|2,0:1|0:0|0:0,0:0:0:0:
309,179,37661,1,0,1:0:0:0:
379,66,37994,2,0,L|386:137,1,66.0000020141602,8|0,0:1|0:0,0:0:0:0:
464,199,38328,2,0,L|390:216,1,66.0000020141602
335,261,38661,5,0,1:0:0:0:
398,379,38994,1,0,0:0:0:0:
323,340,39161,1,0,1:0:0:0:
239,354,39328,2,0,L|76:340,1,132.00000402832,8|0,0:1|0:0,0:0:0:0:
46,285,39828,2,0,L|38:210,2,66.0000020141602
126,228,40328,2,0,P|190:232|249:191,2,132.00000402832,2|8|2,1:2|0:1|0:0,0:0:0:0:
201,273,41161,1,2,0:0:0:0:
201,273,41328,38,0,P|286:284|333:242,1,132.00000402832,2|0,1:2|0:0,0:0:0:0:
394,220,41828,1,2,1:2:0:0:
473,242,41994,2,0,P|504:304|476:371,1,132.00000402832,8|0,0:1|0:0,0:0:0:0:
396,365,42494,1,2,0:0:0:0:
396,365,42661,2,0,B|341:368|341:368|314:376|314:376|262:378,3,132.00000402832,2|0|8|2,0:0|1:0|0:1|0:0,0:0:0:0:
320,259,43994,5,4,0:3:0:0:
316,253,44494,1,4,0:3:0:0:
312,247,44994,1,4,0:3:0:0:
491,39,46661,6,0,P|420:25|363:69,1,150,4|0,1:2|0:0,0:0:0:0:
273,114,47161,1,2,0:0:0:0:
273,114,47328,2,0,P|256:81|262:44,1,75,8|0,0:0|0:0,0:0:0:0:
363,69,47661,1,2,0:0:0:0:
484,214,47994,6,0,P|500:246|494:283,1,75,2|0,1:2|0:0,0:0:0:0:
444,351,48328,1,0,0:0:0:0:
325,188,48661,2,0,L|396:210,1,75,10|0,0:2|0:0,0:0:0:0:
369,284,48994,1,2,0:0:0:0:
365,290,49078,1,2,0:0:0:0:
361,296,49161,1,0,1:0:0:0:
299,367,49328,38,0,B|225:342|225:342|222:343|222:343|156:321,1,150,0|2,1:0|0:3,0:0:0:0:
210,233,49828,1,2,0:3:0:0:
144,176,49994,2,0,P|118:202|117:239,1,75,8|2,0:0|0:3,0:0:0:0:
156,321,50328,1,2,0:3:0:0:
156,321,50494,1,0,0:0:0:0:
231,370,50661,6,0,B|270:334|317:350|317:350|338:387|378:387,1,150,2|0,1:2|0:0,0:0:0:0:
485,204,51328,2,0,P|414:227|340:236,1,150,10|2,0:0|0:2,0:0:0:0:
281,164,51828,37,2,0:0:0:0:
281,164,51994,2,0,P|239:105|266:39,1,150,2|0,1:2|0:0,0:0:0:0:
422,17,52494,1,0,1:0:0:0:
422,17,52661,2,0,L|405:90,1,75,10|0,0:0|0:0,0:0:0:0:
322,96,52994,1,2,1:2:0:0:
406,303,53328,6,0,P|440:290|478:287,1,75,0|0,1:0|0:0,0:0:0:0:
485,204,53661,1,2,0:0:0:0:
325,356,53994,2,0,P|305:324|310:288,1,75,10|0,0:0|0:0,0:0:0:0:
354,221,54328,1,2,0:0:0:0:
359,216,54411,1,2,0:0:0:0:
365,211,54494,1,0,1:0:0:0:
273,163,54661,38,0,L|124:186,1,150,4|2,1:2|0:3,0:0:0:0:
88,100,55161,1,2,0:3:0:0:
13,154,55328,2,0,L|0:227,1,75,10|2,0:0|0:3,0:0:0:0:
85,271,55661,1,2,0:3:0:0:
85,271,55828,1,2,0:3:0:0:
162,318,55994,6,0,P|91:302|38:351,1,150,4|0,1:0|0:0,0:0:0:0:
234,354,56661,2,0,B|279:345|279:345|317:300|317:300|361:292,1,150,10|2,0:0|0:0,0:0:0:0:
366,201,57161,37,0,1:0:0:0:
366,201,57328,2,0,L|512:232,1,150,4|0,1:2|0:0,0:0:0:0:
512,335,57828,1,2,0:0:0:0:
512,335,57994,2,0,L|438:318,1,75,8|0,0:0|0:0,0:0:0:0:
361,292,58328,1,2,0:0:0:0:
281,52,58661,6,0,L|354:68,1,75,2|0,1:2|0:0,0:0:0:0:
409,129,58995,1,0,0:0:0:0:
227,197,59328,2,0,L|210:123,1,75,10|0,0:2|0:0,0:0:0:0:
133,81,59661,1,2,0:0:0:0:
135,73,59745,1,2,0:0:0:0:
137,66,59828,1,0,1:0:0:0:
31,29,59994,6,0,L|60:176,1,150,2|0,1:2|0:0,0:0:0:0:
137,257,60494,1,2,0:3:0:0:
68,316,60661,2,0,P|32:325|-1:309,1,75,8|2,0:0|0:3,0:0:0:0:
137,257,60994,1,2,0:3:0:0:
137,257,61161,1,2,0:3:0:0:
205,334,61328,6,0,P|254:282|323:300,1,150,2|0,1:2|0:0,0:0:0:0:
394,119,61994,2,0,P|445:168|427:237,1,150,10|2,0:0|0:3,0:0:0:0:
347,218,62494,1,2,0:3:0:0:
347,218,62661,38,0,B|263:192|263:192|224:204|246:250,1,150,2|0,1:2|0:0,0:0:0:0:
181,138,63161,1,0,0:0:0:0:
181,138,63328,2,0,P|201:106|194:70,1,75,10|0,0:0|0:0,0:0:0:0:
130,15,63661,1,2,0:0:0:0:
130,15,63994,5,4,0:3:0:0:
245,193,64328,1,4,0:3:0:0:
112,111,75994,6,0,P|162:86|244:98,1,132.00000402832,4|0,1:2|0:0,0:0:0:0:
289,155,76494,1,2,1:2:0:0:
359,118,76661,2,0,L|447:133,1,66.0000020141602,8|0,0:1|0:0,0:0:0:0:
469,197,76994,2,0,L|483:272,1,66.0000020141602
431,326,77328,1,2,0:0:0:0:
431,326,77661,5,0,0:0:0:0:
345,342,77828,2,0,L|331:267,1,66.0000020141602,2|8,0:2|0:1,0:0:0:0:
356,197,78161,2,0,P|353:127|397:88,1,132.00000402832,0|0,0:2|3:0,0:0:0:0:
296,56,78661,38,0,L|210:46,1,66.0000020141602,2|0,1:2|0:0,0:0:0:0:
161,91,78994,2,0,L|166:163,1,66.0000020141602,2|0,0:0|1:0,0:0:0:0:
240,218,79328,2,0,B|232:271|232:271|237:295|237:295|228:368,2,132.00000402832,8|0|2,0:1|0:0|0:0,0:0:0:0:
290,152,80161,5,0,0:0:0:0:
290,152,80328,1,0,0:0:0:0:
157,59,80661,2,0,P|88:53|37:93,1,132.00000402832,8|0,0:1|0:0,0:0:0:0:
63,172,81161,1,0,3:0:0:0:
63,172,81328,38,0,L|45:307,1,132.00000402832,2|0,1:2|0:0,0:0:0:0:
114,359,81828,1,2,1:2:0:0:
165,287,81994,2,0,L|306:305,1,132.00000402832,8|0,0:1|0:0,0:0:0:0:
362,367,82494,1,0,0:0:0:0:
362,367,82661,5,0,0:0:0:0:
416,219,82994,2,0,P|412:189|399:156,1,66.0000020141602,2|0,0:0|0:0,0:0:0:0:
326,106,83328,2,0,P|312:143|308:184,1,66.0000020141602,8|0,0:1|0:0,0:0:0:0:
332,247,83661,2,0,L|268:265,1,66.0000020141602,2|0,0:0|3:0,0:0:0:0:
194,189,83994,38,0,P|132:171|50:221,1,132.00000402832,2|0,1:2|0:0,0:0:0:0:
1,273,84494,1,0,1:0:0:0:
1,273,84661,2,0,L|77:292,1,66.0000020141602,8|0,0:1|0:0,0:0:0:0:
145,337,84994,2,0,L|221:318,1,66.0000020141602
264,250,85328,6,0,L|404:231,2,132.00000402832,2|0|8,0:0|0:0|0:1,0:0:0:0:
194,202,86161,1,2,0:0:0:0:
194,202,86494,5,0,0:0:0:0:
115,136,86661,2,0,P|86:80|120:27,1,132.00000402832,4|0,1:2|0:0,0:0:0:0:
226,0,87161,1,2,1:2:0:0:
226,0,87328,2,0,L|214:65,1,66.0000020141602,8|0,0:1|0:0,0:0:0:0:
319,102,87661,2,0,L|330:36,1,66.0000020141602
427,22,87994,1,2,0:0:0:0:
385,206,88328,5,0,0:0:0:0:
385,206,88495,2,0,P|355:191|322:190,1,66.0000020141602,2|0,0:0|0:0,0:0:0:0:
233,224,88828,2,0,P|188:268|203:330,1,132.00000402832,2|0,0:0|3:0,0:0:0:0:
71,380,89328,2,0,P|88:352|88:319,1,66.0000020141602,2|0,1:2|0:0,0:0:0:0:
13,258,89661,2,0,L|28:194,1,66.0000020141602,0|0,0:0|1:0,0:0:0:0:
69,99,89994,2,0,P|106:150|170:148,2,132.00000402832,8|2|2,0:1|0:0|0:0,0:0:0:0:
15,26,90828,37,0,0:0:0:0:
15,26,90994,1,0,0:0:0:0:
207,66,91328,2,0,P|169:14|105:16,1,132.00000402832,8|2,0:1|0:0,0:0:0:0:
69,99,91828,1,0,0:0:0:0:
69,99,91995,6,0,B|74:150|74:150|93:177|93:177|96:224,1,132.00000402832,0|0,1:0|0:0,0:0:0:0:
111,318,92494,1,0,1:0:0:0:
196,280,92660,2,0,B|259:283|259:324|326:329,1,132.00000402832,8|0,0:1|0:0,0:0:0:0:
402,303,93161,1,0,0:0:0:0:
402,303,93328,37,0,0:0:0:0:
331,151,93661,6,0,P|345:180|351:212,1,66.0000020141602,2|0,0:2|0:0,0:0:0:0:
402,303,93994,2,0,P|420:275|444:254,1,66.0000020141602,8|0,0:1|0:0,0:0:0:0:
497,165,94328,2,0,P|464:163|433:152,1,66.0000020141602,2|0,0:0|0:0,0:0:0:0:
331,151,94661,38,0,P|359:93|333:34,1,132.00000402832,0|0,1:0|0:0,0:0:0:0:
217,1,95161,1,2,0:3:0:0:
217,1,95328,2,0,L|205:65,1,66.0000020141602,10|0,0:3|0:0,0:0:0:0:
120,114,95661,2,0,L|108:178,1,66.0000020141602,2|0,2:3|0:0,0:0:0:0:
23,227,95994,2,0,L|0:356,1,132.00000402832,2|0,0:3|0:0,0:0:0:0:
88,384,96494,1,2,0:3:0:0:
88,383,96661,2,0,P|136:342|197:357,1,132.00000402832,2|10,0:3|0:3,0:0:0:0:
315,243,97328,38,0,L|385:261,1,66.0000020141602,0|0,1:0|0:0,0:0:0:0:
431,340,97661,1,2,0:0:0:0:
431,340,97828,2,0,L|503:325,1,66.0000020141602,2|0,0:0|1:0,0:0:0:0:
478,248,98161,1,0,0:0:0:0:
478,248,98328,2,0,L|492:176,1,66.0000020141602
432,95,98661,2,0,P|361:78|319:121,2,132.00000402832,2|0|0,1:2|0:0|1:0,0:0:0:0:
205,13,99661,6,0,L|277:28,1,66.0000020141602,2|2,0:0|0:0,0:0:0:0:
218,114,99994,1,2,1:2:0:0:
218,114,100161,2,0,L|146:99,1,66.0000020141602
73,147,100494,2,0,P|56:176|60:213,1,66.0000020141602,2|0,0:0|1:0,0:0:0:0:
73,292,100828,1,0,0:0:0:0:
73,292,100994,2,0,P|80:325|109:348,1,66.0000020141602,2|0,0:0|0:0,0:0:0:0:
194,384,101328,2,0,P|242:341|305:352,2,132.00000402832,2|0|0,1:2|0:0|1:0,0:0:0:0:
228,228,102328,38,0,L|236:151,1,66.0000020141602,2|0,0:0|0:0,0:0:0:0:
310,216,102661,1,2,1:2:0:0:
310,216,102828,2,0,L|380:232,1,66.0000020141602
439,160,103161,2,0,P|427:110|417:92,1,66.0000020141602,2|0,0:0|1:0,0:0:0:0:
356,53,103494,1,0,0:0:0:0:
276,55,103661,2,0,L|204:68,1,66.0000020141602,2|0,0:0|0:0,0:0:0:0:
97,97,103994,2,0,P|147:149|144:222,2,132.00000402832,2|0|0,1:2|0:0|1:0,0:0:0:0:
41,374,104994,6,0,P|34:341|23:310,1,66.0000020141602,2|0,0:0|0:0,0:0:0:0:
142,247,105327,1,2,1:2:0:0:
142,247,105494,2,0,P|131:278|124:310,1,66.0000020141602,0|2,2:0|0:0,0:0:0:0:
191,384,105828,2,0,P|222:373|254:366,1,66.0000020141602,0|0,0:0|1:0,0:0:0:0:
262,246,106160,1,0,0:0:0:0:
323,306,106328,2,0,P|354:316|386:323,1,66.0000020141602,2|0,0:0|0:0,0:0:0:0:
477,273,106661,2,0,P|512:219|493:158,2,132.00000402832,2|2|2,1:2|0:0|1:2,0:0:0:0:
392,82,107661,2,0,P|408:110|405:142,1,66.0000020141602
326,178,107994,38,0,L|253:187,1,66.0000020141602,2|0,1:2|0:0,0:0:0:0:
191,236,108328,1,2,0:0:0:0:
191,236,108494,2,0,L|200:318,1,66.0000020141602,2|8,0:0|0:0,0:0:0:0:
102,331,108828,1,0,0:0:0:0:
102,331,108994,2,0,L|31:328,1,66.0000020141602,2|0,0:0|0:0,0:0:0:0:
2,228,109328,2,0,P|32:158|22:84,2,132.00000402832,2|0|8,1:2|0:0|0:0,0:0:0:0:
99,38,110328,6,0,P|119:63|124:95,1,66.0000020141602,2|0,0:0|0:0,0:0:0:0:
195,159,110661,1,2,1:2:0:0:
195,159,110828,2,0,P|215:133|220:101,1,66.0000020141602
256,25,111161,2,0,P|285:9|318:13,1,66.0000020141602,2|8,2:0|2:0,2:0:0:0:
383,79,111494,1,0,0:0:0:0:
383,79,111661,2,0,P|411:94|444:90,1,66.0000020141602,2|0,0:0|0:0,0:0:0:0:
512,185,111994,2,0,B|496:249|496:249|498:251|498:251|483:313,2,132.00000402832,0|0|10,1:0|0:0|0:0,0:0:0:0:
411,363,112994,2,0,L|345:373,1,66.0000020141602,2|0,0:0|0:0,0:0:0:0:
254,345,113328,6,0,P|215:295|237:235,1,132.00000402832,2|0,1:2|0:0,0:0:0:0:
132,54,113994,2,0,P|170:103|148:163,1,132.00000402832,10|0,0:0|0:0,0:0:0:0:
137,370,114661,2,0,P|74:352|9:352,1,132.00000402832,2|0,1:2|0:0,0:0:0:0:
192,281,115328,2,0,P|219:298|251:308,1,66.0000020141602,10|0,0:2|0:0,0:0:0:0:
317,384,115661,2,0,P|349:376|378:361,1,66.0000020141602,2|0,0:0|0:0,0:0:0:0:
466,312,115994,38,0,P|424:263|361:265,2,132.00000402832,2|0|10,1:2|0:0|0:0,0:0:0:0:
299,204,116994,2,0,L|310:138,1,66.0000020141602,2|0,0:0|0:0,0:0:0:0:
247,74,117328,2,0,L|258:8,1,66.0000020141602,2|0,1:2|0:0,0:0:0:0:
132,66,117661,37,0,0:0:0:0:
132,66,117994,2,0,L|137:134,1,66.0000020141602,10|0,0:0|0:0,0:0:0:0:
55,169,118328,2,0,L|40:244,1,66.0000020141602,2|0,0:0|0:0,0:0:0:0:
162,282,118661,38,0,P|237:312|300:284,1,150,4|0,1:2|0:0,0:0:0:0:
386,273,119161,1,2,0:0:0:0:
329,192,119328,2,0,L|324:108,1,75,8|0,0:0|0:0,0:0:0:0:
415,155,119661,2,0,L|497:168,1,75,2|0,0:0|0:0,0:0:0:0:
460,72,119994,5,2,1:2:0:0:
254,3,120328,2,0,P|238:17|221:76,1,75,2|0,0:0|0:0,0:0:0:0:
286,132,120661,1,10,0:2:0:0:
308,317,120994,1,2,0:0:0:0:
308,317,121078,1,2,0:0:0:0:
308,317,121161,1,0,1:0:0:0:
286,230,121328,38,0,L|112:191,1,150,2|0,1:2|0:0,0:0:0:0:
63,143,121828,1,2,0:3:0:0:
23,225,121994,2,0,L|33:316,1,75,8|2,0:0|0:3,0:0:0:0:
108,375,122328,2,0,L|121:293,1,75,2|2,0:3|0:3,0:0:0:0:
219,321,122661,5,2,1:2:0:0:
171,65,122994,1,0,0:0:0:0:
91,93,123161,1,0,0:0:0:0:
109,172,123328,2,0,L|95:257,1,75,10|0,0:0|0:0,0:0:0:0:
191,219,123661,1,2,0:2:0:0:
253,292,123828,1,2,0:0:0:0:
328,233,123994,38,0,P|383:186|454:201,1,150,2|2,1:2|1:2,0:0:0:0:
508,293,124494,1,0,1:0:0:0:
508,293,124661,2,0,L|423:310,1,75,10|0,0:0|0:0,0:0:0:0:
362,364,124994,2,0,L|277:381,1,75,2|0,1:2|0:0,0:0:0:0:
210,338,125328,5,0,1:0:0:0:
290,188,125661,2,0,P|300:157|299:107,1,75,0|2,0:0|1:2,0:0:0:0:
214,219,125994,2,0,P|181:230|142:262,1,75,10|0,0:0|0:0,0:0:0:0:
77,168,126328,2,0,P|61:199|56:249,1,75,2|0,0:0|0:0,0:0:0:0:
8,320,126661,38,0,P|52:381|126:376,1,150,4|2,1:2|0:3,0:0:0:0:
188,328,127161,1,2,0:3:0:0:
188,328,127328,2,0,B|247:338|247:338|272:333|272:333|342:348,1,150,10|2,0:0|0:3,0:0:0:0:
408,300,127828,1,2,0:3:0:0:
408,300,127994,1,4,1:0:0:0:
301,137,128328,6,0,P|286:163|277:211,1,75
387,168,128661,2,0,P|416:164|464:166,1,75,10|0,0:0|0:0,0:0:0:0:
479,73,128994,2,0,P|448:51|423:15,1,75,2|0,0:0|1:0,0:0:0:0:
300,54,129328,38,0,P|221:62|177:124,1,150,4|2,1:2|0:3,0:0:0:0:
232,203,129828,2,0,L|151:220,2,75,2|8|0,0:0|0:0|0:0,0:0:0:0:
316,243,130328,2,0,L|306:328,1,75,2|0,0:0|0:0,0:0:0:0:
389,196,130661,6,0,L|473:186,1,75,2|0,1:2|0:0,0:0:0:0:
360,115,130994,2,0,L|276:104,1,75,0|2,0:0|0:0,0:0:0:0:
424,61,131328,1,10,0:2:0:0:
473,303,131661,1,2,0:0:0:0:
473,303,131744,1,2,0:0:0:0:
473,303,131828,1,0,1:0:0:0:
375,363,131994,38,0,B|385:301|385:301|380:278|380:278|390:212,1,150,2|0,1:2|0:0,0:0:0:0:
339,150,132494,1,2,0:0:0:0:
339,150,132661,2,0,L|256:137,1,75,8|0,0:0|0:0,0:0:0:0:
201,189,132994,2,0,P|222:227|221:278,1,75,2|0,0:3|0:0,0:0:0:0:
273,354,133328,6,0,L|108:369,1,150,2|0,1:2|0:0,0:0:0:0:
6,177,133994,2,0,P|42:184|79:209,1,75,10|0,0:0|0:0,0:0:0:0:
175,170,134328,2,0,P|167:132|172:88,1,75,2|0,0:0|0:0,0:0:0:0:
124,25,134661,37,2,1:2:0:0:
329,57,134994,1,0,0:0:0:0:
329,57,135161,1,2,0:0:0:0:
376,123,135328,2,0,L|359:202,1,75,8|0,0:0|0:0,0:0:0:0:
270,192,135661,2,0,L|286:279,1,75,2|0,0:0|0:0,0:0:0:0:
406,321,135994,6,0,P|477:287|481:216,1,150,0|0,1:0|0:0,0:0:0:0:
421,166,136494,1,0,0:0:0:0:
421,166,136661,2,0,L|456:-10,1,180,8|0,0:0|0:0,0:0:0:0:
355,61,137328,5,4,1:0:0:0:
355,61,137661,1,0,1:0:0:0:
46,17,138994,5,0,1:0:0:0:
119,68,139328,1,2,0:3:0:0:
82,151,139661,1,2,0:0:0:0:
9,100,139994,1,8,0:2:0:0:
9,100,140328,1,0,1:0:0:0:
14,362,141328,38,0,P|62:313|131:323,1,144,2|0,1:3|0:0,0:0:0:0:
208,280,141994,2,0,L|232:138,1,144,8|0,0:0|1:0,0:0:0:0:
303,87,142661,1,10,0:2:0:0:
303,87,142994,1,0,1:0:0:0:
491,371,144328,5,0,1:0:0:0:
450,294,144661,1,8,0:0:0:0:
365,277,144994,1,2,1:2:0:0:
307,342,145328,1,8,0:0:0:0:
307,342,145661,1,0,1:0:0:0:
140,147,146328,37,0,1:1:0:0:
140,147,146661,2,0,P|95:199|115:265,1,144,8|2,0:2|0:0,0:0:0:0:
81,355,147328,2,0,P|133:307|203:304,1,144,0|0,1:3|0:0,0:0:0:0:
294,371,147994,38,0,L|449:346,1,132.00000402832,4|0,1:2|0:0,0:0:0:0:
467,271,148494,2,0,L|384:261,1,66.0000020141602,2|8,0:0|0:0,0:0:0:0:
352,200,148828,1,2,0:0:0:0:
352,200,148994,1,2,0:0:0:0:
250,49,149328,37,0,1:0:0:0:
250,49,149494,2,0,B|287:37|315:26|314:26,1,66.0000020141602,2|2,0:0|0:0,0:0:0:0:
411,37,149828,1,0,0:0:0:0:
411,37,149994,2,0,P|449:96|444:173,1,132.00000402832,8|0,0:0|0:0,0:0:0:0:
371,184,150494,1,0,0:0:0:0:
290,175,150661,6,0,P|216:171|161:203,1,132.00000402832,2|0,1:2|0:0,0:0:0:0:
230,265,151161,2,0,L|218:350,1,66.0000020141602,2|8,0:0|0:0,0:0:0:0:
144,373,151494,1,2,0:0:0:0:
64,366,151661,1,2,0:0:0:0:
31,293,151828,1,2,0:2:0:0:
51,214,151994,38,0,P|76:159|55:80,1,132.00000402832,0|0,1:1|0:0,0:0:0:0:
249,57,152661,2,0,L|263:132,1,66.0000020141602,10|0,0:0|0:0,0:0:0:0:
179,137,152994,2,0,L|166:72,1,66.0000020141602,2|0,0:0|0:0,0:0:0:0:
61,90,153328,6,0,P|22:147|28:217,1,132.00000402832,2|0,1:2|0:0,0:0:0:0:
215,212,153994,2,0,L|295:209,1,66.0000020141602,10|0,0:0|0:0,0:0:0:0:
289,293,154328,2,0,L|212:297,1,66.0000020141602,2|0,0:0|0:0,0:0:0:0:
351,352,154661,38,0,B|421:340|416:378|501:364,1,132.00000402832,0|0,1:1|0:0,0:0:0:0:
457,285,155161,2,0,L|447:213,1,66.0000020141602,2|8,0:0|0:2,0:0:0:0:
299,87,155661,1,2,0:2:0:0:
485,10,155994,5,0,1:0:0:0:
485,10,156661,1,8,0:0:0:0:
485,10,157328,1,0,1:0:0:0:
485,10,157994,1,8,0:0:0:0:
436,140,158328,38,0,L|348:129,1,71.9999978027344,2|2,0:0|0:0,0:0:0:0:
180,247,161328,6,0,L|210:107,2,144
286,340,162661,2,0,P|190:335|101:368,1,192,2|0,0:0|0:0,0:0:0:0:
410,338,163994,38,0,P|481:321|488:239,2,144,2|0|0,0:0|0:0|0:0,0:0:0:0:
385,242,165328,1,2,0:0:0:0:
385,242,165994,2,0,B|329:240|298:200|242:198,1,144,2|0,0:0|0:0,0:0:0:0:
197,255,166661,6,0,P|141:261|95:296,1,96,2|0,0:0|0:0,0:0:0:0:
26,219,167328,2,0,P|63:182|57:135,1,96,2|0,0:0|0:0,0:0:0:0:
124,68,167994,1,2,0:0:0:0:
217,46,168328,2,0,L|327:62,2,96,0|2|0,0:0|0:0|0:0,0:0:0:0:
228,141,169328,38,0,P|264:206|340:210,1,144,2|0,0:0|0:0,0:0:0:0:
384,162,169994,2,0,L|486:181,1,96
491,285,170661,2,0,L|477:386,1,96,2|0,0:0|0:0,0:0:0:0:
348,382,171328,38,0,L|362:281,1,96
282,202,171994,2,0,P|242:167|189:168,1,107.999996704102,2|0,1:2|0:0,0:0:0:0:
129,227,172494,1,0,0:0:0:0:
129,227,172661,1,2,1:2:0:0:
276,96,172994,1,2,0:0:0:0:
86,40,173328,2,0,L|107:145,1,107.999996704102,2|0,1:2|0:0,0:0:0:0:
188,353,173994,2,0,L|209:247,1,107.999996704102,2|0,1:2|0:0,0:0:0:0:
335,149,174661,38,0,B|394:137|439:182|416:217|465:258|512:243,1,215.999993408203,2|0,1:2|1:0,0:0:0:0:
321,355,175661,1,2,0:0:0:0:
342,249,175994,2,0,L|320:354,1,107.999996704102,2|0,1:2|0:0,0:0:0:0:
189,167,176661,2,0,P|156:126|174:78,1,107.999996704102,2|2,1:2|0:0,0:0:0:0:
126,303,177328,6,0,P|85:335|37:317,1,107.999996704102,2|0,1:2|0:0,0:0:0:0:
68,238,177828,1,0,0:0:0:0:
68,238,177994,1,2,1:2:0:0:
191,366,178328,1,0,0:0:0:0:
319,245,178661,2,0,P|362:276|415:283,1,107.999996704102,2|0,1:2|0:0,0:0:0:0:
488,234,179161,1,2,0:0:0:0:
488,234,179328,2,0,P|469:183|466:129,1,107.999996704102,0|0,1:0|0:0,0:0:0:0:
376,22,179994,38,0,P|398:36|424:39,1,53.9999983520508,2|0,1:2|0:0,0:0:0:0:
505,56,180328,1,2,0:0:0:0:
365,157,180661,2,0,P|342:142|316:139,1,53.9999983520508,2|0,1:2|0:0,0:0:0:0:
217,117,180994,2,0,P|239:165|243:219,1,107.999996704102,2|0,0:0|0:0,0:0:0:0:
65,384,182661,6,0,P|37:314|36:240,1,150,4|0,1:2|0:0,0:0:0:0:
0,125,183161,1,2,0:0:0:0:
0,125,183328,2,0,P|24:98|60:96,1,75,8|0,0:0|0:0,0:0:0:0:
119,179,183661,1,2,0:0:0:0:
238,233,183994,38,0,P|213:260|177:262,1,75,2|0,1:2|0:0,0:0:0:0:
119,179,184328,1,2,0:0:0:0:
269,331,184661,2,0,L|342:348,1,75,10|0,0:2|0:0,0:0:0:0:
422,313,184994,1,2,0:0:0:0:
425,306,185078,1,2,0:0:0:0:
428,300,185161,1,0,1:0:0:0:
489,237,185328,6,0,L|512:88,1,150,0|2,1:0|0:3,0:0:0:0:
478,0,185828,1,2,0:3:0:0:
381,0,185994,2,0,P|356:27|354:64,1,75,8|2,0:0|0:3,0:0:0:0:
425,114,186328,1,2,0:3:0:0:
292,182,186661,38,0,B|261:141|216:153|216:153|191:185|151:173,1,150,2|0,1:2|0:0,0:0:0:0:
23,384,187328,2,0,P|64:326|134:339,1,150,10|2,0:0|0:2,0:0:0:0:
203,286,187828,5,2,0:0:0:0:
203,286,187994,2,0,P|217:216|160:175,1,150,2|0,1:2|0:0,0:0:0:0:
86,231,188494,1,0,1:0:0:0:
86,231,188661,2,0,P|70:197|68:160,1,75,10|0,0:0|0:0,0:0:0:0:
127,94,188994,1,2,1:2:0:0:
305,0,189328,38,0,P|289:33|287:70,1,75,0|0,1:0|0:0,0:0:0:0:
346,137,189661,1,0,0:0:0:0:
482,230,189994,2,0,P|452:207|416:202,1,75,10|0,0:0|0:0,0:0:0:0:
349,258,190328,1,2,0:0:0:0:
344,263,190411,1,2,0:0:0:0:
339,269,190494,1,0,1:1:0:0:
363,360,190661,38,0,P|321:302|249:304,1,150,4|2,1:2|0:3,0:0:0:0:
182,373,191161,1,2,0:3:0:0:
113,316,191328,2,0,P|123:279|125:242,1,75,10|0,0:0|0:0,0:0:0:0:
79,149,191661,1,2,0:3:0:0:
79,149,191828,1,2,0:3:0:0:
161,87,191994,38,0,P|203:145|275:143,1,150,4|0,1:0|0:0,0:0:0:0:
468,119,192661,2,0,P|441:188|426:262,1,150,10|2,0:0|1:2,0:0:0:0:
365,143,193161,5,0,1:2:0:0:
332,227,193328,2,0,P|386:274|363:344,1,150,4|0,1:2|0:0,0:0:0:0:
281,384,193828,1,2,0:0:0:0:
281,384,193994,2,0,L|207:367,1,75,8|0,0:0|0:0,0:0:0:0:
265,295,194328,1,2,0:0:0:0:
67,206,194661,38,0,L|141:223,1,75,2|0,1:2|0:0,0:0:0:0:
88,299,194994,1,0,0:0:0:0:
227,196,195328,2,0,P|241:163|233:127,1,75,10|0,0:2|0:0,0:0:0:0:
174,55,195661,1,2,0:0:0:0:
168,49,195745,1,2,0:0:0:0:
161,46,195828,1,0,1:0:0:0:
260,0,195994,6,0,P|306:56|379:61,1,150,2|0,1:2|0:0,0:0:0:0:
460,121,196494,1,2,0:3:0:0:
400,198,196661,2,0,L|388:272,1,75,8|2,0:0|0:3,0:0:0:0:
437,375,196994,1,2,0:3:0:0:
437,375,197161,1,2,0:3:0:0:
332,384,197328,38,0,B|324:337|324:337|288:296|288:296|280:244,1,150,2|0,1:3|0:0,0:0:0:0:
178,149,197994,2,0,P|128:97|59:116,1,150,8|2,0:0|0:0,0:0:0:0:
17,207,198494,5,0,0:0:0:0:
17,207,198661,2,0,P|44:276|59:350,1,150,2|0,1:2|0:0,0:0:0:0:
150,384,199161,1,2,0:0:0:0:
149,384,199328,2,0,P|168:352|167:315,1,75,8|0,0:2|0:0,0:0:0:0:
236,208,199661,21,2,1:2:0:0:
312,185,199828,1,2,1:2:0:0:
376,233,199994,2,0,P|391:267|388:318,1,75,2|0,1:2|0:0,0:0:0:0:
469,195,200328,22,0,P|454:161|457:110,1,75,2|0,1:2|0:0,0:0:0:0:
373,40,200661,2,0,P|400:15|437:13,1,75,8|0,0:0|1:0,0:0:0:0:
511,59,200994,1,2,0:0:0:0:
361,130,201328,38,0,B|314:118|284:147|303:170|273:201|221:184,1,150,2|0,1:2|0:0,0:1:0:0:
149,156,201828,1,2,0:0:0:0:
149,156,201994,2,0,P|161:121|163:84,1,75,8|0,0:0|0:0,0:0:0:0:
97,26,202328,1,2,1:2:0:0:
63,211,202661,6,0,P|134:204|176:262,1,150,2|0,1:2|0:0,0:0:0:0:
342,383,203328,2,0,P|355:348|356:311,1,75,8|0,0:0|0:0,0:0:0:0:
425,251,203661,2,0,P|462:252|497:265,1,75,2|0,0:0|0:0,0:0:0:0:
373,168,203994,6,0,P|304:163|262:83,1,150,4|0,1:2|0:0,0:0:0:0:
332,11,204494,1,2,0:0:0:0:
332,11,204661,2,0,P|376:14|408:34,1,75,8|0,0:0|0:0,0:0:0:0:
440,111,204994,2,0,P|479:104|514:93,1,75,2|0,0:0|0:0,0:0:0:0:
416,195,205328,6,0,P|416:240|409:288,1,75,2|0,1:2|0:0,0:0:0:0:
346,321,205661,2,0,P|309:325|256:343,1,75,2|0,0:0|0:0,0:0:0:0:
191,319,205994,1,10,0:2:0:0:
125,188,206328,1,2,0:0:0:0:
125,188,206411,1,2,0:0:0:0:
125,188,206494,1,0,1:0:0:0:
46,108,206661,38,0,L|31:270,2,150,0|2|8,1:0|0:3|0:0,0:0:0:0:
240,94,207661,2,0,P|277:81|317:56,1,75,2|0,0:3|0:0,0:0:0:0:
381,4,207994,2,0,P|435:64|424:131,1,150,2|0,1:2|0:0,0:0:0:0:
337,313,208661,2,0,L|259:295,1,75,10|0,0:0|0:0,0:0:0:0:
244,207,208994,1,2,0:2:0:0:
323,171,209161,1,2,0:0:0:0:
383,239,209328,38,0,L|461:257,1,75,2|0,1:2|0:0,0:0:0:0:
472,362,209661,2,0,L|389:381,1,75,2|0,0:0|0:0,0:0:0:0:
285,384,209994,2,0,P|221:342|147:361,1,150,10|2,0:0|0:2,0:0:0:0:
74,327,210494,1,0,2:0:0:0:
74,327,210661,5,0,1:0:0:0:
60,123,210994,2,0,B|140:92|130:152|216:124,1,150,2|10,0:0|0:0,0:0:0:0:
285,178,211494,1,0,0:0:0:0:
285,178,211661,2,0,L|303:95,1,75,2|2,0:0|0:0,0:0:0:0:
368,27,211994,38,0,P|456:9|503:53,1,150,4|2,1:2|0:3,0:0:0:0:
449,139,212494,1,2,0:3:0:0:
449,139,212661,2,0,P|400:204|421:271,1,150,10|2,0:0|0:3,0:0:0:0:
337,88,213328,6,0,P|260:69|194:98,1,150,4|0,1:0|0:0,0:0:0:0:
165,171,213828,1,0,0:0:0:0:
165,171,213994,2,0,P|132:179|85:178,1,75,10|0,0:0|0:0,0:0:0:0:
20,110,214328,2,0,P|8:79|22:39,1,75,2|0,0:0|2:0,0:0:0:0:
120,60,214661,38,0,B|197:55|181:86|267:86,1,150,4|0,1:2|0:0,0:0:0:0:
359,130,215161,2,0,P|373:167|380:207,1,75,2|8,0:0|0:0,0:0:0:0:
276,349,215661,2,0,P|284:311|287:269,1,75,2|0,0:0|0:0,0:0:0:0:
388,327,215994,6,0,L|470:346,1,75,2|0,1:2|0:0,0:0:0:0:
451,256,216328,2,0,P|448:217|431:179,1,75,2|0,0:0|0:0,0:0:0:0:
328,142,216661,1,10,0:2:0:0:
197,246,216994,1,2,0:2:0:0:
197,246,217078,1,2,0:0:0:0:
197,246,217161,1,0,1:0:0:0:
125,326,217328,38,0,B|104:277|104:277|105:237|105:237|81:181,2,150,2|0|8,1:2|0:0|0:0,0:0:0:0:
197,246,218161,1,0,0:0:0:0:
197,246,218328,2,0,L|208:158,1,75,2|2,0:0|0:0,0:0:0:0:
289,310,218661,6,0,P|362:330|446:340,1,150,2|0,1:2|0:0,0:0:0:0:
441,124,219328,2,2,P|459:157|477:197,1,75,8|0,0:0|0:0,0:2:0:0:
365,177,219661,2,0,P|335:175|277:167,1,75,2|0,0:0|0:0,0:0:0:0:
213,104,219994,38,0,L|187:279,1,150,0|0,1:0|0:0,0:0:0:0:
119,195,220494,1,2,0:0:0:0:
51,134,220661,2,0,P|38:108|27:49,1,75,8|0,0:0|0:0,0:0:0:0:
111,21,220994,2,0,P|155:27|189:42,1,75
242,118,221328,6,0,L|409:96,1,150,0|0,1:0|0:0,0:0:0:0:
461,283,221994,2,0,L|450:366,1,75,10|0,0:0|0:0,0:0:0:0:
371,348,222328,2,0,L|380:273,1,75,2|0,0:0|0:0,0:0:0:0:
303,227,222661,38,0,P|221:220|176:271,2,150,2|0|8,1:2|0:0|0:0,0:0:0:0:
366,168,223494,1,0,0:0:0:0:
366,167,223661,2,0,P|381:134|386:96,1,75,0|0,1:0|0:0,0:0:0:0:
278,21,223994,2,0,P|263:54|258:92,1,75,0|0,1:0|0:0,0:0:0:0:
161,163,224328,38,0,P|141:131|140:94,1,75,2|0,0:0|0:0,0:0:0:0:
6,43,224661,2,0,P|37:23|74:22,1,75,10|0,0:0|0:0,0:0:0:0:
140,94,224994,1,0,0:0:0:0:
144,332,225328,38,0,B|64:309|64:309|44:340|10:344,1,144,2|0,0:0|0:0,0:0:0:0:
0,251,225994,2,0,P|29:216|76:219,1,96
215,277,226661,2,0,P|250:306|247:353,1,96,2|0,0:0|0:0,0:0:0:0:
144,331,227161,2,0,P|164:262|170:191,1,144,2|0,0:0|0:0,0:0:0:0:
170,191,227994,6,0,B|239:148|321:207|293:265|365:309|431:268,1,287.999991210938,2|0,0:0|0:0,0:0:0:0:
