osu file format v14

[General]
AudioFilename: unlasting.mp3
AudioLeadIn: 0
PreviewTime: 46368
Countdown: 0
SampleSet: Soft
StackLeniency: 0.7
Mode: 2
LetterboxInBreaks: 0
WidescreenStoryboard: 1

[Editor]
DistanceSpacing: 1.65
BeatDivisor: 12
GridSize: 8
TimelineZoom: 1.6

[Metadata]
Title:unlasting (TV Size)
TitleUnicode:unlasting (TV Size)
Artist:LiSA
ArtistUnicode:LiSA
Creator:Yumeno Himiko
Version:Salad
Source:ソードアート・オンライン アリシゼーション War of Underworld
Tags:Sword Art Online Alicization sao ed ending season 4 キリト Kirito 桐ヶ谷和人 Kirigaya Kazuto アスナ Asuna 結城明日奈 Yuuki Asuna アリス Alice アリス・シンセシス・サーティ Alice Synthesis Thirty examination exam -Luminate
BeatmapID:2201996
BeatmapSetID:1053546

[Difficulty]
HPDrainRate:4
CircleSize:4
OverallDifficulty:6
ApproachRate:6
SliderMultiplier:2.6
SliderTickRate:1

[Events]
//Background and Video events
Video,50,"ed.avi"
0,0,"unlasting.jpg",0,0
//Break Periods
//Storyboard Layer 0 (Background)
//Storyboard Layer 1 (Fail)
//Storyboard Layer 2 (Pass)
//Storyboard Layer 3 (Foreground)
//Storyboard Layer 4 (Overlay)
//Storyboard Sound Samples

[TimingPoints]
1192,1058.82352941114,4,2,1,20,1,0
18133,-100,4,2,1,25,0,0
20250,529.411764861592,4,2,1,20,1,0
20294,-100,4,2,1,10,0,0
20780,1058.82352941114,4,2,1,25,1,0
22368,1058.82352941114,4,2,1,25,1,0
24485,529.411780276817,4,2,1,25,1,0
24529,-100,4,2,1,10,0,0
25015,1058.82352941114,4,2,1,25,1,0
26603,1058.82352941114,4,2,1,25,1,0
30839,-100,4,2,1,30,0,0
32955,529.411766262976,4,2,1,20,1,0
32999,-100,4,2,1,10,0,0
33485,1058.82352941114,4,2,1,30,1,0
34015,-100,4,2,1,35,0,0
35073,1058.82352941114,4,2,1,25,1,0
37190,529.411766262976,4,2,1,20,1,0
37234,-100,4,2,1,10,0,0
37720,1058.82352941114,4,2,1,25,1,0
39308,1058.82352941114,4,2,1,25,1,0
46368,-100,4,2,1,20,0,0
47661,1058.82352941114,4,2,1,20,1,0
47780,1058.82352941114,4,2,2,50,1,0
47780,-71.4285714285714,4,2,2,50,0,1
51858,1058.82352941114,4,2,2,50,1,1
52015,1058.82352941114,4,2,2,50,1,1
52015,-71.4285714285714,4,2,2,50,0,1
56832,1058.82352941114,4,2,2,50,1,1
56971,1058.82352941114,4,2,2,50,1,1
57198,1058.82352941114,4,2,2,50,1,1
57309,1058.82352941114,4,2,2,50,1,1
57309,-71.4285714285714,4,2,2,50,0,1
58368,1058.82346712803,4,2,2,50,1,1
58368,-71.4285714285714,4,2,2,50,0,1
58940,1058.82352941114,4,2,2,50,1,1
59066,1058.82352941114,4,2,2,50,1,1
59262,1058.82352941114,4,2,2,50,1,1
59426,1058.82352941114,4,2,2,50,1,1
59426,-71.4285714285714,4,2,2,50,0,1
60484,1058.82352941114,4,2,2,50,1,1
60484,-71.4285714285714,4,2,2,50,0,1
63307,-71.4285714285714,4,2,2,50,0,0
64590,1058.82352941114,4,2,2,50,1,0
64719,1058.82352941114,4,2,2,50,1,1
64719,-71.4285714285714,4,2,2,50,0,1
81660,-100,4,2,1,20,0,0
83777,529.411766262976,4,2,1,20,1,0
83821,-100,4,2,1,10,0,0
84307,1058.82352941114,4,2,1,20,1,0
85895,1058.82352941114,4,2,1,20,1,0
88012,529.411766262976,4,2,1,20,1,0
88056,-100,4,2,1,10,0,0
88550,1058.82352941114,4,2,1,20,1,0

[Colours]
Combo1 : 51,58,89
Combo2 : 242,240,140

[HitObjects]
176,248,1192,5,2,0:0:0:0:
432,208,2250,1,8,0:0:0:0:
176,184,3309,1,2,0:0:0:0:
400,96,4368,2,0,B|304:96,1,86.6666666666667,10|0,0:0|0:0,0:0:0:0:
416,192,5074,1,0,0:0:0:0:
256,192,5427,5,2,0:0:0:0:
432,232,6486,1,10,0:0:0:0:
176,296,7544,1,2,0:0:0:0:
440,296,8603,2,0,L|312:288,2,86.6666666666667,10|0|0,0:0|0:0|0:0,0:0:0:0:
264,296,9662,5,2,0:0:0:0:
24,192,10721,1,8,0:0:0:0:
280,144,11780,1,2,0:0:0:0:
32,224,12839,2,0,L|144:208,2,86.6666666666667,10|0|0,0:0|0:0|0:0,0:0:0:0:
200,224,13897,5,2,0:0:0:0:
464,224,14956,1,8,0:0:0:0:
256,192,16015,12,0,17427,0:0:0:0:
152,304,18133,6,0,P|128:248|176:176,1,130,2|0,0:0|0:0,0:0:0:0:
368,152,19191,1,8,0:0:0:0:
120,192,20250,6,0,L|112:152,1,21.6666666666667,2|0,0:0|0:0,0:0:0:0:
312,136,20780,1,0,0:0:0:0:
96,136,21309,2,0,P|72:208|136:272,1,173.333333333333,8|0,0:0|0:0,0:0:0:0:
288,272,22368,6,0,P|304:208|240:152,1,130,2|0,0:0|0:0,0:0:0:0:
56,136,23426,1,8,0:0:0:0:
376,112,24485,6,0,L|384:72,1,21.6666666666667,2|0,0:0|0:0,0:0:0:0:
200,128,25015,1,0,0:0:0:0:
408,168,25544,2,0,P|416:224|320:304,1,173.333333333333,8|0,0:0|0:0,0:0:0:0:
160,296,26603,6,0,P|104:280|80:200,1,130,2|0,0:0|0:0,0:0:0:0:
288,176,27661,1,8,0:0:0:0:
464,80,28720,2,0,P|464:128|392:160,1,130,2|0,0:0|0:0,0:0:0:0:
184,176,29779,1,8,0:0:0:0:
440,312,30485,1,0,0:0:0:0:
176,304,30838,6,0,P|168:248|256:184,1,173.333333333333,2|0,0:0|0:0,0:0:0:0:
400,176,31897,2,0,P|384:136|184:48,1,260,8|2,0:0|0:0,0:0:0:0:
200,80,32999,1,0,0:0:0:0:
384,208,33484,1,0,0:0:0:0:
168,224,34014,2,0,L|64:232,2,86.6666666666667,8|2|0,0:0|0:0|0:0,0:0:0:0:
336,208,35073,6,0,P|368:144|328:88,1,130,2|0,0:0|0:0,0:0:0:0:
160,88,36131,1,8,0:0:0:0:
448,304,37190,6,0,L|456:264,1,21.6666666666667,2|0,0:0|0:0,0:0:0:0:
264,224,37720,1,0,0:0:0:0:
472,192,38249,1,8,0:0:0:0:
328,184,38602,2,0,L|240:176,1,86.6666666666667,0|0,0:0|0:0,0:0:0:0:
432,128,39308,6,0,P|424:200|376:224,1,130,2|0,0:0|0:0,0:0:0:0:
128,248,40366,1,8,0:0:0:0:
256,312,40719,2,0,L|152:304,1,86.6666666666667,0|0,0:0|0:0,0:0:0:0:
352,264,41425,6,0,P|408:248|456:184,1,130,2|2,0:0|0:0,0:0:0:0:
200,120,42484,2,0,L|96:112,2,86.6666666666667,8|0|0,0:0|0:0|0:0,0:0:0:0:
376,136,43543,5,2,0:0:0:0:
256,192,43896,12,2,45660,0:0:0:0:
176,264,46366,6,0,L|72:256,2,86.6666666666667,0|0|0,0:0|0:0|0:0,0:0:0:0:
320,272,47425,1,0,0:0:0:0:
32,208,47780,6,0,P|24:160|136:96,1,181.999994445801,6|2,0:0|0:0,0:0:0:0:
488,80,48838,2,0,P|496:152|296:328,1,363.999988891602,8|2,0:0|0:0,0:0:0:0:
88,144,50603,2,0,L|216:152,2,121.333329630534,0|8|0,0:0|0:0|0:0,0:0:0:0:
264,96,51662,1,0,0:0:0:0:
8,112,52015,6,0,P|0:176|112:224,1,181.999994445801,2|2,0:0|0:0,0:0:0:0:
416,280,53074,2,0,L|152:296,1,242.666659261068,8|0,0:0|0:0,0:0:0:0:
472,192,54132,1,0,0:0:0:0:
40,64,55191,1,8,0:0:0:0:
160,224,55544,2,0,L|32:208,1,121.333329630534,0|0,0:0|0:0,0:0:0:0:
360,112,56250,5,2,0:0:0:0:
192,152,56603,1,0,0:0:0:0:
120,208,56832,1,0,0:0:0:0:
112,272,56971,1,0,0:0:0:0:
368,336,57309,6,0,L|488:320,1,121.333329630534,8|0,0:0|0:0,0:0:0:0:
152,112,58368,5,2,0:0:0:0:
328,152,58720,1,0,0:0:0:0:
416,176,58940,1,0,0:0:0:0:
408,224,59066,1,0,0:0:0:0:
128,264,59426,6,0,L|0:248,2,121.333329630534,8|0|0,0:0|0:0|0:0,0:0:0:0:
408,296,60484,6,0,P|448:240|360:176,1,181.999994445801,2|2,0:0|0:0,0:0:0:0:
136,128,61542,1,8,0:0:0:0:
424,320,62425,1,0,0:0:0:0:
320,320,62601,2,0,P|240:290|250:192,1,181.999994445801,2|0,0:0|0:0,0:0:0:0:
344,176,63307,6,0,L|472:168,2,121.333329630534,0|8|0,0:0|0:0|0:0,0:0:0:0:
176,184,64366,1,0,0:0:0:0:
464,192,64719,6,0,P|488:224|392:304,1,181.999994445801,6|2,0:0|0:0,0:0:0:0:
32,176,65777,2,0,L|288:152,1,242.666659261068,8|0,0:0|0:0,0:0:0:0:
16,80,66836,1,2,0:0:0:0:
352,296,67542,6,0,L|488:280,2,121.333329630534,0|8|0,0:0|0:0|0:0,0:0:0:0:
168,216,68601,1,0,0:0:0:0:
424,112,68954,6,0,P|456:128|392:232,1,181.999994445801,2|2,0:0|0:0,0:0:0:0:
24,120,70013,1,8,0:0:0:0:
352,216,70718,1,0,0:0:0:0:
88,224,71071,6,0,P|88:168|336:48,1,363.999988891602,2|8,0:0|0:0,0:0:0:0:
168,56,72483,2,0,L|32:64,1,121.333329630534,0|0,0:0|0:0,0:0:0:0:
336,304,73189,6,0,P|392:296|456:184,1,181.999994445801,2|2,0:0|0:0,0:0:0:0:
208,168,74248,2,0,L|80:160,2,121.333329630534,8|0|0,0:0|0:0|0:0,0:0:0:0:
504,192,75307,1,2,0:0:0:0:
64,304,76366,6,0,L|200:288,2,121.333329630534,8|0|0,0:0|0:0|0:0,0:0:0:0:
328,312,77424,2,0,P|376:312|480:216,1,181.999994445801,2|2,0:0|0:0,0:0:0:0:
80,128,78483,1,8,0:0:0:0:
448,168,79542,1,2,0:0:0:0:
152,304,80248,6,0,L|24:296,2,121.333329630534,0|8|0,0:0|0:0|0:0,0:0:0:0:
376,176,81483,1,0,0:0:0:0:
272,176,81660,6,0,L|136:176,2,130,2|2|8,0:0|0:0|0:0,0:0:0:0:
456,184,83777,6,0,L|464:144,1,21.6666666666667,2|0,0:0|0:0,0:0:0:0:
288,64,84307,1,2,0:0:0:0:
96,64,84836,1,8,0:0:0:0:
360,304,85895,6,0,L|496:288,2,130,0|2|8,0:0|0:0|0:0,0:0:0:0:
64,88,88012,6,0,L|72:120,1,21.6666666666667,2|0,0:0|0:0,0:0:0:0:
256,184,88550,1,0,0:0:0:0:
