osu file format v14

[General]
AudioFilename: audio.mp3
AudioLeadIn: 0
PreviewTime: 46490
Countdown: 0
SampleSet: Soft
StackLeniency: 0.7
Mode: 0
LetterboxInBreaks: 0
WidescreenStoryboard: 1

[Editor]
Bookmarks: 10490,18255,30960,47901,73313,81784
DistanceSpacing: 0.3
BeatDivisor: 6
GridSize: 32
TimelineZoom: 1.6

[Metadata]
Title:unlasting (TV Size)
TitleUnicode:unlasting (TV Size)
Artist:LiSA
ArtistUnicode:LiSA
Creator:Iceluin
Version:Hard
Source:Sword Art Online Alicization War of Underworld
Tags:Dora- doraemonelf ソードアート・オンライン アリシゼーション sao anime japanese ending ed alice zuberg
BeatmapID:2288621
BeatmapSetID:1054011

[Difficulty]
HPDrainRate:5
CircleSize:4
OverallDifficulty:6
ApproachRate:7.5
SliderMultiplier:2.4
SliderTickRate:1

[Events]
//Background and Video events
0,0,"alice.jpg",0,0
Video,-125,"video.avi"
//Break Periods
//Storyboard Layer 0 (Background)
//Storyboard Layer 1 (Fail)
//Storyboard Layer 2 (Pass)
//Storyboard Layer 3 (Foreground)
//Storyboard Layer 4 (Overlay)
//Storyboard Sound Samples

[TimingPoints]
1314,1058.8173010747,4,2,1,45,1,0
2372,-100,4,2,2,45,0,0
5549,-100,4,2,3,45,0,0
6608,-100,4,2,2,45,0,0
9784,-100,4,2,4,45,0,0
10137,-100,4,2,2,45,0,0
10843,-100,4,2,2,45,0,0
14019,-100,4,2,1,45,0,0
16137,-133.333333333333,4,2,1,45,0,0
17548,-133.333333333333,4,2,1,45,0,0
17902,-133.333333333333,4,2,2,45,0,0
18255,-100,4,2,1,50,0,0
18784,-100,4,2,2,50,0,0
22490,-100,4,2,3,50,0,0
23019,-100,4,2,2,50,0,0
23549,-100,4,2,2,50,0,0
26725,-100,4,2,4,50,0,0
27255,-100,4,2,2,50,0,0
27784,-100,4,2,2,50,0,0
30960,-100,4,2,1,50,0,0
31490,-100,4,2,2,50,0,0
45784,-133.333333333333,4,2,2,50,0,0
46490,-133.333333333333,4,2,5,65,0,0
46842,-133.333333333333,4,2,5,50,0,0
47901,-66.6666666666667,4,2,6,80,0,1
48431,-66.6666666666667,4,2,7,80,0,1
48960,-66.6666666666667,4,2,8,80,0,1
49313,-66.6666666666667,4,2,1,80,0,1
50019,-66.6666666666667,4,2,9,80,0,1
50549,-66.6666666666667,4,2,10,80,0,1
50725,-66.6666666666667,4,2,5,80,0,1
51078,-66.6666666666667,4,2,5,80,0,1
52137,-66.6666666666667,4,2,11,80,0,1
52490,-66.6666666666667,4,2,5,80,0,1
52666,-66.6666666666667,4,2,12,80,0,1
53196,-66.6666666666667,4,2,8,80,0,1
53548,-66.6666666666667,4,2,5,80,0,1
54254,-66.6666666666667,4,2,13,80,0,1
54784,-66.6666666666667,4,2,10,80,0,1
55313,-66.6666666666667,4,2,5,80,0,1
56372,-66.6666666666667,4,2,11,80,0,1
56725,-66.6666666666667,4,2,5,80,0,1
56901,-66.6666666666667,4,2,7,80,0,1
57078,-66.6666666666667,4,2,5,80,0,1
57431,-66.6666666666667,4,2,14,80,0,1
57784,-66.6666666666667,4,2,5,80,0,1
58490,-66.6666666666667,4,2,13,80,0,1
58843,-66.6666666666667,4,2,5,80,0,1
59019,-66.6666666666667,4,2,15,80,0,1
59196,-66.6666666666667,4,2,5,80,0,1
59372,-66.6666666666667,4,2,5,80,0,1
59548,-66.6666666666667,4,2,5,80,0,1
60607,-66.6666666666667,4,2,11,80,0,1
61137,-66.6666666666667,4,2,12,80,0,1
61666,-66.6666666666667,4,2,14,80,0,1
62725,-66.6666666666667,4,2,16,80,0,1
63254,-66.6666666666667,4,2,10,80,0,1
63431,-66.6666666666667,4,2,5,80,0,1
63783,-66.6666666666667,4,2,5,80,0,1
64843,-66.6666666666667,4,2,6,80,0,1
65195,-66.6666666666667,4,2,5,80,0,1
65372,-66.6666666666667,4,2,12,80,0,1
65901,-66.6666666666667,4,2,8,80,0,1
66254,-66.6666666666667,4,2,1,80,0,1
66960,-66.6666666666667,4,2,9,80,0,1
67490,-66.6666666666667,4,2,10,80,0,1
67666,-66.6666666666667,4,2,5,80,0,1
68019,-66.6666666666667,4,2,5,80,0,1
69078,-66.6666666666667,4,2,11,80,0,1
69607,-66.6666666666667,4,2,12,80,0,1
69784,-66.6666666666667,4,2,5,80,0,1
70137,-66.6666666666667,4,2,14,80,0,1
70490,-66.6666666666667,4,2,5,80,0,1
71195,-66.6666666666667,4,2,13,80,0,1
71725,-66.6666666666667,4,2,10,80,0,1
72254,-66.6666666666667,4,2,5,80,0,1
73313,-66.6666666666667,4,2,11,80,0,1
73842,-66.6666666666667,4,2,12,80,0,1
74372,-66.6666666666667,4,2,14,80,0,1
74725,-66.6666666666667,4,2,5,80,0,1
75431,-66.6666666666667,4,2,13,80,0,1
75960,-66.6666666666667,4,2,17,80,0,1
76490,-66.6666666666667,4,2,5,80,0,1
77548,-66.6666666666667,4,2,11,80,0,1
78078,-66.6666666666667,4,2,12,80,0,1
78607,-66.6666666666667,4,2,8,80,0,1
78960,-66.6666666666667,4,2,1,80,0,1
79666,-66.6666666666667,4,2,9,80,0,1
80372,-66.6666666666667,4,2,5,80,0,1
80725,-66.6666666666667,4,2,5,80,0,1
81784,-100,4,2,18,65,0,0
82313,-100,4,2,12,65,0,0
82842,-100,4,2,19,65,0,0
83901,-100,4,2,9,65,0,0
84431,-100,4,2,10,65,0,0
84960,-100,4,2,4,65,0,0
86019,-100,4,2,18,65,0,0
86548,-100,4,2,12,65,0,0
87078,-100,4,2,19,65,0,0
88137,-100,4,2,9,65,0,0
88666,-100,4,2,10,65,0,0

[Colours]
Combo1 : 185,255,255
Combo2 : 255,255,128
Combo3 : 0,128,255
Combo4 : 145,64,253

[HitObjects]
307,242,1314,6,0,L|325:124,1,120,2|0,3:2|0:0,0:0:0:0:
114,8,2372,2,0,L|96:126,1,120,2|0,1:2|0:0,0:0:0:0:
307,242,3431,2,0,L|386:229,1,80,2|0,3:2|0:0,0:0:0:0:
399,316,3961,2,0,L|319:328,1,80,0|0,3:0|0:0,0:0:0:0:
239,293,4490,2,0,P|224:256|226:216,2,80,2|0|0,1:2|0:0|0:0,0:0:0:0:
319,328,5372,1,0,0:0:0:0:
319,328,5549,6,0,L|437:309,1,120,2|0,3:2|0:0,0:0:0:0:
495,67,6608,2,0,L|376:85,1,120,2|0,1:2|0:0,0:0:0:0:
153,172,7666,2,0,L|73:159,1,80,2|0,3:2|0:0,0:0:0:0:
88,73,8196,2,0,L|167:86,1,80,0|0,3:0|0:0,0:0:0:0:
235,141,8725,2,0,L|274:134,1,40,2|0,1:2|0:0,0:0:0:0:
345,186,9078,2,0,P|354:224|345:264,1,80,0|0,0:0|0:0,0:0:0:0:
214,356,9784,6,0,L|174:349,1,40,2|0,3:2|0:0,0:0:0:0:
89,324,10137,2,0,B|106:266|106:266|89:208,1,120,2|0,0:2|0:0,0:0:0:0:
32,141,10843,2,0,B|90:158|90:158|148:141,1,120,0|0,1:0|0:0,0:0:0:0:
357,25,11902,2,0,L|437:37,1,80,0|0,3:0|0:0,0:0:0:0:
424,124,12432,2,0,L|345:111,1,80,0|0,3:0|0:0,0:0:0:0:
285,175,12960,2,0,L|291:214,1,40,2|0,1:2|0:0,0:0:0:0:
231,278,13313,2,0,B|192:288|192:288|153:278,1,80,0|0,0:0|0:0,0:0:0:0:
76,137,14019,6,0,B|134:120|134:120|192:137,1,120,2|0,3:2|0:0,0:0:0:0:
406,214,15078,2,0,B|348:231|348:231|290:214,1,120,0|0,1:0|0:0,0:0:0:0:
141,315,16137,2,0,B|188:195|94:195|141:74,1,240.000009155274,0|0,3:0|0:0,0:0:0:0:
138,82,18255,6,0,P|176:91|216:82,1,80,6|0,3:2|0:0,0:0:0:0:
291,36,18784,2,0,P|329:27|368:36,1,80,2|0,0:2|0:0,0:0:0:0:
443,82,19313,2,0,B|426:140|426:140|443:198,1,120,2|0,1:2|0:0,0:0:0:0:
258,351,20372,2,0,B|268:312|268:312|258:273,1,80,2|0,3:2|0:0,0:0:0:0:
213,197,20902,1,2,3:2:0:0:
64,256,21255,1,0,0:0:0:0:
127,195,21431,2,0,L|120:155,1,40,2|0,1:2|0:0,0:0:0:0:
174,86,21784,2,0,P|212:77|251:86,1,80,2|2,0:2|0:2,0:0:0:0:
322,33,22313,1,0,0:0:0:0:
322,33,22490,6,0,B|361:43|361:43|400:33,1,80,2|0,3:2|0:0,0:0:0:0:
458,98,23019,2,0,B|448:137|448:137|458:176,1,80,2|0,0:2|0:0,0:0:0:0:
512,245,23549,2,0,P|455:224|398:245,1,120,2|0,1:2|0:0,0:0:0:0:
193,362,24607,2,0,P|154:370|115:361,1,80,2|0,3:2|0:0,0:0:0:0:
41,312,25137,1,2,3:2:0:0:
154,100,25666,2,0,L|148:61,1,40,2|0,1:2|0:0,0:0:0:0:
220,10,26019,2,0,B|259:20|259:20|298:10,1,80,0|2,0:0|0:2,0:0:0:0:
446,69,26725,6,0,B|407:59|407:59|368:69,1,80,2|0,3:2|0:0,0:0:0:0:
310,136,27255,2,0,P|302:175|311:214,1,80,2|0,0:2|0:0,0:0:0:0:
368,280,27784,1,2,1:2:0:0:
234,368,28137,2,0,L|194:361,1,40,2|0,0:2|0:0,0:0:0:0:
136,294,28490,2,0,L|96:300,1,40,2|0,0:2|0:0,0:0:0:0:
38,232,28843,2,0,B|48:193|48:193|38:154,1,80,2|0,3:2|0:0,0:0:0:0:
3,73,29372,1,2,3:2:0:0:
233,5,29902,2,0,B|199:85|267:85|233:165,1,160,0|2,1:0|0:2,0:0:0:0:
118,233,30960,6,0,B|180:232|180:232|203:250|203:250|270:250,1,160,2|2,3:2|0:2,0:0:0:0:
424,338,32019,2,0,P|382:250|422:162,1,200,2|0,1:2|0:0,0:0:0:0:
374,87,33078,2,0,P|334:78|292:89,1,80,2|0,3:2|0:0,0:0:0:0:
215,121,33607,2,0,P|176:129|137:120,1,80,2|0,3:2|0:0,0:0:0:0:
64,68,34137,1,2,1:2:0:0:
50,97,34490,1,2,0:2:0:0:
47,128,34843,1,2,0:2:0:0:
55,158,35196,6,0,B|80:234|80:234|55:310,1,160,2|2,3:2|0:2,0:0:0:0:
222,365,36254,2,8,B|271:390|322:342|291:324|340:273|389:301,1,200,2|0,1:2|0:0,0:0:0:0:
467,341,37313,2,0,B|477:302|477:302|467:263,1,80,2|0,3:2|0:0,0:0:0:0:
424,185,37843,2,0,B|414:146|414:146|424:107,1,80,2|0,3:2|0:0,0:0:0:0:
469,31,38372,1,0,1:0:0:0:
331,114,38725,2,0,L|290:114,1,40,2|0,0:2|0:0,0:0:0:0:
224,55,39078,2,0,L|184:55,1,40,2|0,0:2|0:0,0:0:0:0:
101,16,39431,6,0,B|111:55|111:55|101:94,1,80,2|0,3:2|0:0,0:0:0:0:
62,176,39960,2,0,B|101:166|101:166|140:176,1,80,2|0,0:2|0:0,0:0:0:0:
205,234,40490,1,2,1:2:0:0:
331,114,40843,2,0,L|371:114,1,40,2|0,0:2|0:0,0:0:0:0:
430,179,41196,2,0,L|430:219,1,40,2|0,0:2|0:0,0:0:0:0:
371,284,41549,2,0,P|330:276|288:287,1,80,2|0,3:2|0:0,0:0:0:0:
214,324,42078,2,0,P|222:285|214:246,1,80,2|0,3:2|0:0,0:0:0:0:
163,174,42607,1,2,1:2:0:0:
192,161,42960,1,2,0:2:0:0:
223,159,43313,1,2,0:2:0:0:
253,167,43666,6,0,P|261:128|253:89,1,80,2|0,0:2|0:0,0:0:0:0:
182,35,44196,2,0,B|144:47|144:47|105:34,1,80,2|0,0:2|0:0,0:0:0:0:
29,79,44725,2,0,P|8:134|28:189,1,120,2|0,0:2|0:0,0:0:0:0:
172,337,45784,2,8,P|194:263|119:271,1,180.000006866455,0|2,0:0|0:2,0:0:0:0:
120,271,47901,6,0,B|178:255|178:255|236:271,1,120.000004577637,6|0,3:2|0:0,0:0:0:0:
332,377,48431,2,0,B|316:319|316:319|332:261,1,120.000004577637,2|0,3:2|0:0,0:0:0:0:
467,204,48960,2,0,B|437:211|437:211|409:204,1,60.0000022888184,2|0,1:2|0:0,0:0:0:0:
331,261,49313,2,0,P|313:204|330:148,1,120.000004577637,8|0,0:2|0:0,0:0:0:0:
375,62,49843,1,0,0:0:0:0:
375,62,50019,6,0,B|302:16|218:85|263:115|183:188|112:141,1,300.000011444092,6|0,0:2|0:0,0:0:0:0:
142,7,51078,2,0,P|154:35|155:65,1,60.0000022888184,2|0,1:2|0:0,0:0:0:0:
4,145,51431,2,0,P|59:127|116:143,1,120.000004577637,2|2,0:2|0:2,0:0:0:0:
175,220,51960,1,0,0:0:0:0:
175,220,52137,6,0,B|191:278|191:278|175:336,1,120.000004577637,6|2,3:2|0:2,0:0:0:0:
59,219,52666,2,0,B|117:235|117:235|175:219,1,120.000004577637,2|0,3:2|0:0,0:0:0:0:
237,87,53196,2,0,B|230:117|230:117|237:145,1,60.0000022888184,2|0,1:2|0:0,0:0:0:0:
297,219,53548,2,0,P|353:236|409:218,1,120.000004577637,8|2,0:2|0:2,0:0:0:0:
353,33,54254,6,0,B|341:83|341:83|366:141|366:141|341:213|341:213|366:276|366:276|353:329,1,300.000011444092,6|0,0:2|0:0,0:0:0:0:
276,371,55313,1,0,1:0:0:0:
110,273,55666,1,2,0:2:0:0:
89,285,56019,1,2,0:2:0:0:
68,297,56372,6,0,L|49:178,1,120.000004577637,6|2,3:2|0:2,0:0:0:0:
120,113,56901,1,2,3:2:0:0:
120,113,57078,2,0,L|179:123,1,60.0000022888184,2|2,0:2|0:2,0:0:0:0:
255,64,57431,2,0,L|314:74,1,60.0000022888184,2|0,1:2|0:0,0:0:0:0:
390,15,57784,2,0,B|355:3|341:31|341:31|360:153,1,180.000006866455,10|0,0:2|0:0,0:0:0:0:
422,225,58490,6,0,B|373:256|373:256|342:253|307:229|307:229|251:260|251:260|205:223|150:241,1,300.000011444092,6|2,0:2|0:2,0:0:0:0:
65,127,59548,2,0,L|73:186,1,60.0000022888184,2|0,1:2|0:0,0:0:0:0:
142,300,59901,2,0,L|151:241,1,60.0000022888184,2|0,0:2|0:0,0:0:0:0:
197,102,60254,2,0,L|205:161,1,60.0000022888184,2|0,0:2|0:0,0:0:0:0:
266,334,60607,6,0,L|284:215,1,120.000004577637,6|0,3:2|0:0,0:0:0:0:
364,161,61137,2,0,P|419:181|475:162,1,120.000004577637,2|0,3:2|0:0,0:0:0:0:
475,31,61666,2,0,B|404:-4|346:39|346:39|325:22|325:22|270:70|197:31,1,300.000011444092,2|0,1:2|0:0,0:0:0:0:
47,125,62725,6,0,B|105:109|105:109|163:125,1,120.000004577637,14|0,0:2|0:0,0:0:0:0:
247,240,63254,2,0,B|231:182|231:182|247:124,1,120.000004577637,2|0,0:2|0:0,0:0:0:0:
382,182,63784,2,0,B|352:189|352:189|324:182,1,60.0000022888184,2|0,1:2|0:0,0:0:0:0:
246,124,64137,1,2,0:2:0:0:
155,317,64490,2,0,B|185:310|185:310|213:317,1,60.0000022888184,2|2,0:2|0:2,0:0:0:0:
325,375,64843,6,0,B|309:317|309:317|325:259,1,120.000004577637,6|2,3:2|0:2,0:0:0:0:
440,259,65372,2,0,B|382:275|382:275|324:259,1,120.000004577637,2|0,3:2|0:0,0:0:0:0:
257,132,65901,2,0,B|264:159|264:159|256:190,1,60.0000022888184,2|0,1:2|0:0,0:0:0:0:
188,259,66254,2,0,P|131:243|75:261,1,120.000004577637,8|0,0:2|0:0,0:0:0:0:
133,338,66784,1,0,0:0:0:0:
133,338,66960,6,0,B|124:297|124:297|149:234|149:234|125:172|125:172|149:121|149:121|132:56,1,300.000011444092,6|0,0:2|0:0,0:0:0:0:
0,107,68019,2,0,P|28:115|58:112,1,60.0000022888184,2|0,1:2|0:0,0:0:0:0:
244,56,68372,2,0,P|187:38|131:55,1,120.000004577637,2|2,0:2|0:2,0:0:0:0:
57,112,68901,1,2,0:2:0:0:
57,112,69078,6,0,B|41:170|41:170|57:228,1,120.000004577637,6|0,3:2|0:0,0:0:0:0:
172,227,69607,2,0,B|114:211|114:211|56:227,1,120.000004577637,2|0,3:2|0:0,0:0:0:0:
120,359,70137,2,8,B|152:376|170:350|170:350|171:227,1,180.000006866455,2|0,1:2|0:0,0:0:0:0:
171,129,70843,1,2,0:2:0:0:
335,58,71195,6,8,B|401:113|361:214|319:180|274:279|341:332,1,300.000011444092,6|0,0:2|0:0,0:0:0:0:
512,269,72254,2,0,B|455:253|455:253|397:269,1,120.000004577637,0|2,1:0|0:2,0:0:0:0:
238,378,72960,1,2,0:2:0:0:
127,218,73313,6,0,B|143:160|143:160|127:102,1,120.000004577637,6|0,3:2|0:0,0:0:0:0:
20,10,73842,2,0,B|78:26|78:26|136:10,1,120.000004577637,2|0,3:2|0:0,0:0:0:0:
215,65,74372,2,0,B|273:49|273:49|331:65,2,120.000004577637,2|10|2,1:2|0:2|0:2,0:0:0:0:
223,257,75431,6,0,P|331:211|225:160,1,300.000011444092,6|0,0:2|0:0,0:0:0:0:
74,245,76490,1,2,1:2:0:0:
91,276,76842,1,2,0:2:0:0:
91,311,77195,1,2,0:2:0:0:
72,337,77548,6,0,B|130:321|130:321|188:337,1,120.000004577637,6|0,3:2|0:0,0:0:0:0:
355,262,78078,2,0,B|297:278|297:278|239:262,1,120.000004577637,2|0,3:2|0:0,0:0:0:0:
103,204,78607,2,0,B|131:211|131:211|161:204,1,60.0000022888184,2|0,1:2|0:0,0:0:0:0:
239,262,78960,2,0,P|257:205|240:149,1,120.000004577637,8|0,0:2|0:0,0:0:0:0:
28,71,79666,6,8,B|82:136|183:96|149:54|248:9|298:72,1,300.000011444092,6|0,0:2|0:0,0:0:0:0:
464,152,80725,2,0,B|406:136|406:136|348:152,1,120.000004577637,2|2,1:2|0:2,0:0:0:0:
180,261,81431,2,0,B|208:254|208:254|238:261,1,60.0000022888184,2|2,0:2|0:2,0:0:0:0:
318,315,81784,5,6,0:2:0:0:
406,278,82313,1,2,0:2:0:0:
494,241,82842,1,2,1:2:0:0:
494,241,83901,2,0,L|491:226,1,15,2|0,0:2|0:0,0:0:0:0:
510,144,84431,1,2,0:2:0:0:
427,94,84960,1,0,1:0:0:0:
427,94,86019,5,2,0:2:0:0:
339,131,86548,1,2,0:2:0:0:
251,168,87077,1,2,1:2:0:0:
251,168,88137,2,0,L|248:153,1,15,2|0,0:2|0:0,0:0:0:0:
196,86,88667,1,2,0:2:0:0:
