osu file format v14

[General]
AudioFilename: audio.mp3
AudioLeadIn: 0
PreviewTime: 46490
Countdown: 0
SampleSet: Soft
StackLeniency: 0.7
Mode: 0
LetterboxInBreaks: 0
WidescreenStoryboard: 1

[Editor]
Bookmarks: 18255,30960,46843,47901,73313,81784
DistanceSpacing: 1
BeatDivisor: 6
GridSize: 32
TimelineZoom: 0.8

[Metadata]
Title:unlasting (TV Size)
TitleUnicode:unlasting (TV Size)
Artist:LiSA
ArtistUnicode:LiSA
Creator:Iceluin
Version:Easy
Source:Sword Art Online Alicization War of Underworld
Tags:Dora- doraemonelf ソードアート・オンライン アリシゼーション sao anime japanese ending ed alice zuberg
BeatmapID:2202413
BeatmapSetID:1054011

[Difficulty]
HPDrainRate:2
CircleSize:3
OverallDifficulty:2
ApproachRate:3
SliderMultiplier:1.2
SliderTickRate:1

[Events]
//Background and Video events
0,0,"alice.jpg",0,0
Video,-125,"video.avi"
//Break Periods
//Storyboard Layer 0 (Background)
//Storyboard Layer 1 (Fail)
//Storyboard Layer 2 (Pass)
//Storyboard Layer 3 (Foreground)
//Storyboard Layer 4 (Overlay)
//Storyboard Sound Samples

[TimingPoints]
1314,1058.8173010747,4,2,1,45,1,0
2372,-100,4,2,2,45,0,0
5549,-100,4,2,3,45,0,0
6608,-100,4,2,2,45,0,0
9784,-100,4,2,4,45,0,0
10137,-100,4,2,2,45,0,0
10843,-100,4,2,2,45,0,0
14019,-100,4,2,1,45,0,0
17548,-100,4,2,1,45,0,0
17902,-100,4,2,2,45,0,0
18255,-100,4,2,1,50,0,0
18784,-100,4,2,2,50,0,0
22490,-100,4,2,3,50,0,0
23019,-100,4,2,2,50,0,0
23548,-100,4,2,2,50,0,0
26725,-100,4,2,4,50,0,0
27255,-100,4,2,2,50,0,0
27783,-100,4,2,2,50,0,0
30960,-100,4,2,1,50,0,0
31490,-100,4,2,2,50,0,0
46490,-100,4,2,5,65,0,0
46842,-100,4,2,5,50,0,0
47901,-66.6666666666667,4,2,6,80,0,1
48431,-66.6666666666667,4,2,7,80,0,1
48960,-66.6666666666667,4,2,8,80,0,1
49313,-66.6666666666667,4,2,1,80,0,1
50019,-66.6666666666667,4,2,9,80,0,1
50549,-66.6666666666667,4,2,10,80,0,1
50725,-66.6666666666667,4,2,5,80,0,1
52137,-66.6666666666667,4,2,11,80,0,1
52490,-66.6666666666667,4,2,5,80,0,1
52666,-66.6666666666667,4,2,12,80,0,1
53196,-66.6666666666667,4,2,8,80,0,1
53548,-66.6666666666667,4,2,5,80,0,1
54254,-66.6666666666667,4,2,13,80,0,1
54784,-66.6666666666667,4,2,10,80,0,1
55313,-66.6666666666667,4,2,5,80,0,1
56372,-66.6666666666667,4,2,11,80,0,1
56725,-66.6666666666667,4,2,5,80,0,1
56901,-66.6666666666667,4,2,7,80,0,1
57078,-66.6666666666667,4,2,5,80,0,1
57431,-66.6666666666667,4,2,14,80,0,1
57784,-66.6666666666667,4,2,5,80,0,1
58490,-66.6666666666667,4,2,13,80,0,1
58843,-66.6666666666667,4,2,5,80,0,1
59019,-66.6666666666667,4,2,15,80,0,1
59196,-66.6666666666667,4,2,5,80,0,1
59548,-66.6666666666667,4,2,5,80,0,1
60607,-66.6666666666667,4,2,11,80,0,1
61137,-66.6666666666667,4,2,12,80,0,1
61666,-66.6666666666667,4,2,14,80,0,1
62725,-66.6666666666667,4,2,16,80,0,1
63254,-66.6666666666667,4,2,10,80,0,1
63431,-66.6666666666667,4,2,5,80,0,1
63784,-66.6666666666667,4,2,5,80,0,1
64843,-66.6666666666667,4,2,6,80,0,1
65195,-66.6666666666667,4,2,5,80,0,1
65372,-66.6666666666667,4,2,12,80,0,1
65901,-66.6666666666667,4,2,8,80,0,1
65902,-66.6666666666667,4,2,8,80,0,1
66254,-66.6666666666667,4,2,1,80,0,1
66960,-66.6666666666667,4,2,9,80,0,1
67490,-66.6666666666667,4,2,10,80,0,1
67666,-66.6666666666667,4,2,5,80,0,1
69078,-66.6666666666667,4,2,11,80,0,1
69607,-66.6666666666667,4,2,12,80,0,1
69784,-66.6666666666667,4,2,5,80,0,1
70137,-66.6666666666667,4,2,14,80,0,1
70490,-66.6666666666667,4,2,5,80,0,1
71195,-66.6666666666667,4,2,13,80,0,1
71725,-66.6666666666667,4,2,10,80,0,1
72254,-66.6666666666667,4,2,5,80,0,1
73313,-66.6666666666667,4,2,11,80,0,1
73842,-66.6666666666667,4,2,12,80,0,1
74372,-66.6666666666667,4,2,14,80,0,1
74725,-66.6666666666667,4,2,5,80,0,1
75431,-66.6666666666667,4,2,13,80,0,1
75960,-66.6666666666667,4,2,17,80,0,1
76490,-66.6666666666667,4,2,5,80,0,1
77548,-66.6666666666667,4,2,11,80,0,1
78078,-66.6666666666667,4,2,12,80,0,1
78607,-66.6666666666667,4,2,8,80,0,1
78960,-66.6666666666667,4,2,1,80,0,1
79666,-66.6666666666667,4,2,9,80,0,1
80372,-66.6666666666667,4,2,5,80,0,1
81784,-100,4,2,18,65,0,0
82313,-100,4,2,12,65,0,0
82842,-100,4,2,19,65,0,0
83901,-100,4,2,9,65,0,0
84431,-100,4,2,10,65,0,0
84960,-100,4,2,4,65,0,0
86019,-100,4,2,18,65,0,0
86548,-100,4,2,12,65,0,0
87078,-100,4,2,19,65,0,0
88137,-100,4,2,9,65,0,0
88666,-100,4,2,10,65,0,0

[Colours]
Combo1 : 185,255,255
Combo2 : 255,255,128
Combo3 : 0,128,255
Combo4 : 145,64,253

[HitObjects]
306,141,1314,5,2,3:2:0:0:
395,60,2372,1,2,1:2:0:0:
476,149,3431,2,0,B|496:204|496:204|475:261,1,120,2|2,3:2|1:2,0:0:0:0:
386,342,5549,5,2,3:2:0:0:
305,253,6608,1,2,1:2:0:0:
216,334,7666,2,0,P|158:349|101:333,1,120,2|2,3:2|1:2,0:0:0:0:
78,301,9078,2,0,L|84:261,1,40,0|0,0:0|0:0,0:0:0:0:
65,225,9784,5,2,3:2:0:0:
154,144,10843,1,0,1:0:0:0:
235,233,11902,2,0,P|293:248|350:232,1,120,0|2,3:0|1:2,0:0:0:0:
373,200,13313,2,0,L|367:160,1,40,0|0,0:0|0:0,0:0:0:0:
386,124,14019,5,2,3:2:0:0:
297,43,15078,1,0,1:0:0:0:
216,132,16137,2,0,B|134:161|134:103|56:132,1,160,0|0,3:0|0:0,0:0:0:0:
7,194,18255,6,0,L|16:252,1,60,6|2,3:2|0:2,0:0:0:0:
26,311,19313,1,2,1:2:0:0:
139,273,20372,2,0,L|257:291,1,120,2|2,3:2|1:2,0:0:0:0:
352,364,22490,6,0,L|411:354,1,60,2|2,3:2|0:2,0:0:0:0:
470,346,23548,1,2,1:2:0:0:
432,231,24607,2,0,B|412:176|412:176|433:119,1,120,2|2,3:2|1:2,0:0:0:0:
401,93,26019,2,0,L|361:99,1,40,0|2,0:0|0:2,0:0:0:0:
332,71,26725,6,0,P|274:56|217:72,1,120,2|2,3:2|1:2,0:0:0:0:
188,99,28137,2,0,L|148:92,1,40,2|2,0:2|0:2,0:0:0:0:
116,119,28843,2,0,B|137:176|137:176|117:231,1,120,2|0,3:2|1:0,0:0:0:0:
197,320,30960,5,2,3:2:0:0:
286,239,32019,1,2,1:2:0:0:
367,328,33078,2,0,L|426:319,2,60,2|2|2,3:2|3:2|1:2,0:0:0:0:
286,239,35196,5,2,3:2:0:0:
375,158,36254,1,2,1:2:0:0:
294,69,37313,2,0,L|234:78,2,60,2|2|0,3:2|3:2|1:0,0:0:0:0:
332,79,38725,2,0,L|371:72,1,40,2|2,0:2|0:2,0:0:0:0:
409,81,39431,5,2,3:2:0:0:
490,170,40490,1,2,1:2:0:0:
490,170,40843,2,0,L|483:209,1,40,2|2,0:2|0:2,0:0:0:0:
466,245,41549,2,0,P|408:230|351:246,1,120,2|2,3:2|1:2,0:0:0:0:
270,334,43666,5,2,0:2:0:0:
180,254,44725,1,2,0:2:0:0:
260,164,45784,2,0,B|284:104|236:104|260:44,1,120,0|2,0:0|0:2,0:0:0:0:
437,64,47901,6,0,L|451:152,1,90.0000034332277,6|2,3:2|3:2,0:0:0:0:
465,242,48960,1,2,1:2:0:0:
315,342,50019,2,0,B|255:361|255:361|195:342,1,120.000004577637,6|2,0:2|0:2,0:0:0:0:
145,318,51078,2,0,L|85:327,1,60.0000022888184,2|2,1:2|0:2,0:0:0:0:
30,301,51784,1,2,0:2:0:0:
30,301,52137,6,0,L|44:213,1,90.0000034332277,6|2,3:2|3:2,0:0:0:0:
58,123,53196,1,2,1:2:0:0:
216,37,54254,2,0,B|245:42|245:42|278:27|278:27|319:42|319:42|354:27|354:27|385:37,1,180.000006866455,6|0,0:2|1:0,0:0:0:0:
431,75,55666,2,0,L|421:134,1,60.0000022888184,2|2,0:2|0:2,0:0:0:0:
464,176,56372,6,0,L|450:264,1,90.0000034332277,6|2,3:2|3:2,0:0:0:0:
436,354,57431,1,2,1:2:0:0:
264,298,58490,2,0,B|234:292|234:292|201:307|201:307|160:292|160:292|125:307|125:307|94:298,1,180.000006866455,6|2,0:2|1:2,0:0:0:0:
47,260,59901,2,0,L|56:200,1,60.0000022888184,2|2,0:2|0:2,0:0:0:0:
14,155,60607,5,6,3:2:0:0:
133,20,61666,1,2,1:2:0:0:
309,55,62725,1,14,0:2:0:0:
367,224,63784,1,2,1:2:0:0:
249,358,64843,6,0,L|161:344,1,90.0000034332277,6|2,3:2|3:2,0:0:0:0:
71,330,65902,1,2,1:2:0:0:
10,160,66960,2,0,B|70:141|70:141|124:158,1,120.000004577637,6|2,0:2|0:2,0:0:0:0:
162,204,68019,2,0,L|222:194,1,60.0000022888184,2|2,1:2|0:2,0:0:0:0:
262,237,68725,1,2,0:2:0:0:
262,237,69078,6,0,L|350:223,1,90.0000034332277,6|2,3:2|3:2,0:0:0:0:
440,208,70137,2,0,L|421:88,1,120.000004577637,2|2,1:2|0:2,0:0:0:0:
372,54,71195,2,0,L|194:82,1,180.000006866455,6|0,0:2|1:0,0:0:0:0:
142,52,72607,2,0,L|82:61,1,60.0000022888184,2|2,0:2|0:2,0:0:0:0:
29,33,73313,5,6,3:2:0:0:
102,197,74372,1,2,1:2:0:0:
102,197,74725,2,0,L|161:187,1,60.0000022888184,10|2,0:2|0:2,0:0:0:0:
212,218,75431,2,0,B|389:189,1,180.000006866455,6|2,0:2|1:2,0:0:0:0:
439,221,76842,2,0,L|448:281,1,60.0000022888184,2|2,0:2|0:2,0:0:0:0:
413,329,77548,6,0,B|318:386|234:344|256:312|160:268|73:327,1,360.000013732911,6|6,3:2|0:2,0:0:0:0:
125,154,80725,1,2,1:2:0:0:
125,154,81078,2,0,L|115:94,1,60.0000022888184,2|2,0:2|0:2,0:0:0:0:
147,43,81784,5,6,0:2:0:0:
254,96,82842,1,2,1:2:0:0:
348,22,83901,2,0,L|407:31,1,60,2|2,0:2|0:2,0:0:0:0:
466,40,84960,1,0,1:0:0:0:
395,137,86019,5,2,0:2:0:0:
466,233,87078,1,2,1:2:0:0:
395,330,88137,2,0,L|335:320,1,60,2|2,0:2|0:2,0:0:0:0:
