osu file format v14

[General]
AudioFilename: audio.mp3
AudioLeadIn: 0
PreviewTime: 46490
Countdown: 0
SampleSet: Soft
StackLeniency: 0.7
Mode: 0
LetterboxInBreaks: 0
WidescreenStoryboard: 1

[Editor]
Bookmarks: 18255,30960,47901,73313,81784
DistanceSpacing: 2
BeatDivisor: 6
GridSize: 32
TimelineZoom: 1.6

[Metadata]
Title:unlasting (TV Size)
TitleUnicode:unlasting (TV Size)
Artist:LiSA
ArtistUnicode:LiSA
Creator:Iceluin
Version:Advanced
Source:Sword Art Online Alicization War of Underworld
Tags:Dora- doraemonelf ソードアート・オンライン アリシゼーション sao anime japanese ending ed alice zuberg
BeatmapID:2245358
BeatmapSetID:1054011

[Difficulty]
HPDrainRate:4
CircleSize:4
OverallDifficulty:5.5
ApproachRate:6.5
SliderMultiplier:2.2
SliderTickRate:1

[Events]
//Background and Video events
0,0,"alice.jpg",0,0
Video,-125,"video.avi"
//Break Periods
//Storyboard Layer 0 (Background)
//Storyboard Layer 1 (Fail)
//Storyboard Layer 2 (Pass)
//Storyboard Layer 3 (Foreground)
//Storyboard Layer 4 (Overlay)
//Storyboard Sound Samples

[TimingPoints]
1314,1058.8173010747,4,2,1,45,1,0
2372,-100,4,2,2,45,0,0
5549,-100,4,2,3,45,0,0
6608,-100,4,2,2,45,0,0
9784,-100,4,2,4,45,0,0
10137,-100,4,2,2,45,0,0
10843,-100,4,2,2,45,0,0
14019,-100,4,2,1,45,0,0
16137,-133.333333333333,4,2,1,45,0,0
17548,-133.333333333333,4,2,1,45,0,0
17902,-133.333333333333,4,2,2,45,0,0
18255,-100,4,2,1,50,0,0
18784,-100,4,2,2,50,0,0
22490,-100,4,2,3,50,0,0
23019,-100,4,2,2,50,0,0
23549,-100,4,2,2,50,0,0
26725,-100,4,2,4,50,0,0
27255,-100,4,2,2,50,0,0
27784,-100,4,2,2,50,0,0
30960,-100,4,2,1,50,0,0
31490,-100,4,2,2,50,0,0
45784,-133.333333333333,4,2,2,50,0,0
46490,-133.333333333333,4,2,5,65,0,0
46842,-133.333333333333,4,2,5,50,0,0
47901,-66.6666666666667,4,2,6,80,0,1
48431,-66.6666666666667,4,2,7,80,0,1
48960,-66.6666666666667,4,2,8,80,0,1
49313,-66.6666666666667,4,2,1,80,0,1
50019,-66.6666666666667,4,2,9,80,0,1
50549,-66.6666666666667,4,2,10,80,0,1
50725,-66.6666666666667,4,2,5,80,0,1
51078,-66.6666666666667,4,2,5,80,0,1
52137,-66.6666666666667,4,2,11,80,0,1
52490,-66.6666666666667,4,2,5,80,0,1
52666,-66.6666666666667,4,2,12,80,0,1
53196,-66.6666666666667,4,2,8,80,0,1
53548,-66.6666666666667,4,2,5,80,0,1
54254,-66.6666666666667,4,2,13,80,0,1
54784,-66.6666666666667,4,2,10,80,0,1
55313,-66.6666666666667,4,2,5,80,0,1
56372,-66.6666666666667,4,2,11,80,0,1
56725,-66.6666666666667,4,2,5,80,0,1
56901,-66.6666666666667,4,2,7,80,0,1
57078,-66.6666666666667,4,2,5,80,0,1
57431,-66.6666666666667,4,2,14,80,0,1
57784,-66.6666666666667,4,2,5,80,0,1
58490,-66.6666666666667,4,2,13,80,0,1
58843,-66.6666666666667,4,2,5,80,0,1
59019,-66.6666666666667,4,2,15,80,0,1
59196,-66.6666666666667,4,2,5,80,0,1
59372,-66.6666666666667,4,2,5,80,0,1
59548,-66.6666666666667,4,2,5,80,0,1
60607,-66.6666666666667,4,2,11,80,0,1
61137,-66.6666666666667,4,2,12,80,0,1
61666,-66.6666666666667,4,2,14,80,0,1
62725,-66.6666666666667,4,2,16,80,0,1
63254,-66.6666666666667,4,2,10,80,0,1
63431,-66.6666666666667,4,2,5,80,0,1
63783,-66.6666666666667,4,2,5,80,0,1
64843,-66.6666666666667,4,2,6,80,0,1
65195,-66.6666666666667,4,2,5,80,0,1
65372,-66.6666666666667,4,2,12,80,0,1
65901,-66.6666666666667,4,2,8,80,0,1
66254,-66.6666666666667,4,2,1,80,0,1
66960,-66.6666666666667,4,2,9,80,0,1
67490,-66.6666666666667,4,2,10,80,0,1
67666,-66.6666666666667,4,2,5,80,0,1
68019,-66.6666666666667,4,2,5,80,0,1
69078,-66.6666666666667,4,2,11,80,0,1
69607,-66.6666666666667,4,2,12,80,0,1
69784,-66.6666666666667,4,2,5,80,0,1
70137,-66.6666666666667,4,2,14,80,0,1
70490,-66.6666666666667,4,2,5,80,0,1
71195,-66.6666666666667,4,2,13,80,0,1
71725,-66.6666666666667,4,2,10,80,0,1
72254,-66.6666666666667,4,2,5,80,0,1
73313,-66.6666666666667,4,2,11,80,0,1
73842,-66.6666666666667,4,2,12,80,0,1
74372,-66.6666666666667,4,2,14,80,0,1
74725,-66.6666666666667,4,2,5,80,0,1
75431,-66.6666666666667,4,2,13,80,0,1
75960,-66.6666666666667,4,2,17,80,0,1
76490,-66.6666666666667,4,2,5,80,0,1
77548,-66.6666666666667,4,2,11,80,0,1
78078,-66.6666666666667,4,2,12,80,0,1
78607,-66.6666666666667,4,2,8,80,0,1
78960,-66.6666666666667,4,2,1,80,0,1
79666,-66.6666666666667,4,2,9,80,0,1
80372,-66.6666666666667,4,2,5,80,0,1
80725,-66.6666666666667,4,2,5,80,0,1
81784,-100,4,2,18,65,0,0
82313,-100,4,2,12,65,0,0
82842,-100,4,2,19,65,0,0
83901,-100,4,2,9,65,0,0
84431,-100,4,2,10,65,0,0
84960,-100,4,2,4,65,0,0
86019,-100,4,2,18,65,0,0
86548,-100,4,2,12,65,0,0
87078,-100,4,2,19,65,0,0
88137,-100,4,2,9,65,0,0
88666,-100,4,2,10,65,0,0

[Colours]
Combo1 : 185,255,255
Combo2 : 255,255,128
Combo3 : 0,128,255
Combo4 : 145,64,253

[HitObjects]
204,244,1314,6,0,P|256:259|308:244,1,110,2|0,3:2|0:0,0:0:0:0:
412,50,2372,2,0,P|360:34|307:48,1,110,2|0,1:2|0:0,0:0:0:0:
204,244,3431,2,0,B|214:280|214:280|204:316,1,73.3333333333333,2|0,3:2|0:0,0:0:0:0:
123,314,3961,2,0,B|113:278|113:278|123:242,1,73.3333333333333,0|0,3:0|0:0,0:0:0:0:
163,172,4490,2,0,P|171:135|163:98,2,73.3333333333333,2|0|0,1:2|0:0|0:0,0:0:0:0:
122,243,5372,1,0,0:0:0:0:
122,243,5549,6,0,B|68:258|68:258|14:243,1,110,2|0,3:2|0:0,0:0:0:0:
111,35,6608,2,0,B|165:20|165:20|219:35,1,110,2|0,1:2|0:0,0:0:0:0:
412,135,7666,2,0,P|448:142|483:134,1,73.3333333333333,2|0,3:2|0:0,0:0:0:0:
483,53,8196,2,0,P|447:46|411:53,1,73.3333333333333,0|0,3:0|0:0,0:0:0:0:
340,95,8725,1,2,1:2:0:0:
413,218,9078,1,0,0:0:0:0:
290,291,9431,2,0,L|253:291,1,36.6666666666667,0|0,0:0|0:0,0:0:0:0:
197,232,9784,6,0,L|161:238,1,36.6666666666667,2|0,3:2|0:0,0:0:0:0:
100,291,10137,2,0,P|115:239|100:187,1,110,2|0,0:2|0:0,0:0:0:0:
47,125,10843,2,0,B|101:140|101:140|155:125,1,110,0|0,1:0|0:0,0:0:0:0:
340,10,11902,2,0,P|375:1|411:7,1,73.3333333333333,0|0,3:0|0:0,0:0:0:0:
411,88,12431,2,0,P|375:94|339:85,1,73.3333333333333,0|0,3:0|0:0,0:0:0:0:
275,47,12960,1,2,1:2:0:0:
152,125,13313,1,0,0:0:0:0:
230,248,13666,2,0,L|224:283,1,36.6666666666667,0|0,0:0|0:0,0:0:0:0:
282,340,14019,6,0,B|336:325|336:325|390:340,1,110,2|0,3:2|0:0,0:0:0:0:
493,145,15078,2,0,B|439:160|439:160|385:145,1,110,0|0,1:0|0:0,0:0:0:0:
258,42,16137,2,0,P|208:115|297:110,1,220.000008392334,0|0,3:0|0:0,0:0:0:0:
296,110,18255,6,0,B|306:146|306:146|296:182,1,73.3333333333333,6|0,3:2|0:0,0:0:0:0:
244,242,18784,2,0,B|235:276|235:276|245:312,1,73.3333333333333,2|0,0:2|0:0,0:0:0:0:
297,374,19313,2,0,P|245:357|194:373,1,110,2|0,1:2|0:0,0:0:0:0:
88,179,20372,2,0,P|140:196|191:180,1,110,2|2,3:2|3:2,0:0:0:0:
353,30,21431,2,0,L|389:30,1,36.6666666666667,2|0,1:2|0:0,0:0:0:0:
450,83,21784,2,0,P|456:118|450:154,1,73.3333333333333,2|2,0:2|0:2,0:0:0:0:
389,209,22313,1,0,0:0:0:0:
389,209,22490,6,0,B|353:217|353:217|317:209,1,73.3333333333333,2|0,3:2|0:0,0:0:0:0:
257,154,23019,2,0,B|221:146|221:146|185:154,1,73.3333333333333,2|0,0:2|0:0,0:0:0:0:
126,209,23549,2,0,P|109:261|125:312,1,110,2|0,1:2|0:0,0:0:0:0:
316,312,24607,2,0,P|333:260|316:208,1,110,2|2,3:2|3:2,0:0:0:0:
126,97,25666,2,0,B|90:105|90:105|54:97,2,73.3333333333333,2|0|2,1:2|0:0|0:2,0:0:0:0:
257,31,26725,6,0,B|311:16|311:16|365:31,1,110,2|2,3:2|0:2,0:0:0:0:
505,198,27784,1,2,1:2:0:0:
399,300,28137,2,0,P|364:306|328:300,1,73.3333333333333,2|2,0:2|0:2,0:0:0:0:
194,236,28843,2,0,P|141:220|88:236,1,110,2|2,3:2|3:2,0:0:0:0:
0,33,29902,2,0,B|74:64|74:2|141:30,1,146.666666666667,0|2,1:0|0:2,0:0:0:0:
239,138,30960,6,0,P|223:62|275:-6,1,146.666666666667,2|2,3:2|0:2,0:0:0:0:
402,29,32019,2,0,B|439:107|375:162|375:162|392:192,1,183.333333333333,2|0,1:2|0:0,0:0:0:0:
443,255,33078,2,0,P|391:238|340:254,1,110,2|2,3:2|3:2,0:0:0:0:
142,352,34137,1,2,1:2:0:0:
142,352,34490,1,2,0:2:0:0:
142,352,34843,1,2,0:2:0:0:
142,352,35196,6,0,B|69:335|69:335|-4:352,1,146.666666666667,2|2,3:2|0:2,0:0:0:0:
0,204,36254,2,0,B|73:221|73:221|128:205|128:205|151:216|151:216|177:207,1,183.333333333333,2|0,1:2|0:0,0:0:0:0:
236,260,37313,2,0,B|221:206|221:206|236:152,1,110,2|2,3:2|3:2,0:0:0:0:
443,82,38372,2,0,B|451:118|451:118|443:154,1,73.3333333333333,0|2,1:0|0:2,0:0:0:0:
323,239,39078,2,0,L|329:276,1,36.6666666666667,2|0,0:2|0:0,0:0:0:0:
287,344,39431,6,0,B|233:359|233:359|179:344,1,110,2|2,3:2|0:2,0:0:0:0:
9,206,40490,1,2,1:2:0:0:
102,92,40843,2,0,L|138:86,1,36.6666666666667,2|0,0:2|0:0,0:0:0:0:
201,137,41196,2,0,L|236:131,1,36.6666666666667,2|0,0:2|0:0,0:0:0:0:
302,178,41549,2,0,P|354:195|405:179,1,110,2|2,3:2|3:2,0:0:0:0:
354,41,42431,1,0,0:0:0:0:
354,41,42607,2,0,B|346:77|346:77|354:113,1,73.3333333333333,2|2,1:2|0:2,0:0:0:0:
487,174,43313,2,0,L|481:210,1,36.6666666666667,2|0,0:2|0:0,0:0:0:0:
466,287,43666,5,2,0:2:0:0:
267,382,44196,1,2,0:2:0:0:
121,217,44725,2,0,B|175:232|175:232|229:217,1,110,2|0,0:2|0:0,0:0:0:0:
353,112,45784,2,0,P|290:79|282:149,1,165.000006294251,0|2,0:0|0:2,0:0:0:0:
281,148,47901,6,0,B|228:133|228:133|175:148,1,110.000004196167,6|0,3:2|0:0,0:0:0:0:
103,95,48431,2,0,B|88:146|88:146|103:200,1,110.000004196167,2|0,3:2|0:0,0:0:0:0:
184,235,48960,2,0,B|192:263|192:263|185:288,1,55.0000020980836,2|0,1:2|0:0,0:0:0:0:
134,360,49313,2,0,P|186:344|238:360,1,110.000004196167,8|0,0:2|0:0,0:0:0:0:
408,314,50019,6,0,B|397:269|397:269|420:218|420:218|397:154|397:154|420:99|420:99|408:52,1,275.000010490418,6|0,0:2|0:0,0:0:0:0:
330,15,51078,2,0,B|302:7|302:7|277:14,1,55.0000020980836,2|0,1:2|0:0,0:0:0:0:
199,55,51431,2,0,B|184:108|184:108|199:161,1,110.000004196167,2|2,0:2|0:2,0:0:0:0:
252,230,51960,1,0,0:0:0:0:
252,230,52137,6,0,B|199:215|199:215|146:230,1,110.000004196167,6|2,3:2|0:2,0:0:0:0:
93,300,52666,2,0,B|146:315|146:315|199:300,1,110.000004196167,2|0,3:2|0:0,0:0:0:0:
275,345,53196,2,0,B|303:337|303:337|328:344,1,55.0000020980836,2|0,1:2|0:0,0:0:0:0:
404,300,53548,2,0,P|389:249|405:197,1,110.000004196167,8|2,0:2|0:2,0:0:0:0:
467,30,54254,6,0,B|402:-6|334:56|373:79|294:138|226:104,1,275.000010490418,6|0,0:2|0:0,0:0:0:0:
150,59,55313,1,0,1:0:0:0:
39,196,55666,1,2,0:2:0:0:
39,196,56019,1,2,0:2:0:0:
39,196,56372,6,0,P|55:248|39:300,1,110.000004196167,6|2,3:2|0:2,0:0:0:0:
113,347,56901,1,2,3:2:0:0:
113,347,57078,2,0,L|168:339,1,55.0000020980836,2|2,0:2|0:2,0:0:0:0:
247,377,57431,1,2,1:2:0:0:
372,253,57784,2,0,B|289:286|289:220|206:253,1,165.000006294251,10|0,0:2|0:0,0:0:0:0:
126,270,58490,6,0,B|143:215|143:215|113:172|113:172|131:121|131:121|87:77|116:10,1,275.000010490418,6|2,0:2|0:2,0:0:0:0:
190,58,59548,2,0,L|245:50,1,55.0000020980836,2|0,1:2|0:0,0:0:0:0:
294,122,59901,2,0,L|349:114,1,55.0000020980836,2|0,0:2|0:0,0:0:0:0:
398,186,60254,2,0,L|453:178,1,55.0000020980836,2|0,0:2|0:0,0:0:0:0:
502,250,60607,6,0,B|462:238|419:267|435:289|392:308|351:292,2,165.000006294251,6|2|2,3:2|3:2|1:2,0:0:0:0:
10,56,62725,2,0,B|50:44|93:73|77:95|120:114|161:98,2,165.000006294251,14|2|2,0:2|0:2|1:2,0:0:0:0:
352,292,64843,6,0,P|337:239|352:187,1,110.000004196167,6|2,3:2|0:2,0:0:0:0:
404,116,65372,2,0,B|351:101|351:101|298:116,1,110.000004196167,2|0,3:2|0:0,0:0:0:0:
224,164,65901,2,0,B|196:172|196:172|171:165,1,55.0000020980836,2|0,1:2|0:0,0:0:0:0:
98,112,66254,2,0,P|116:164|98:215,1,110.000004196167,8|0,0:2|0:0,0:0:0:0:
1,364,66960,6,0,B|46:353|46:353|97:376|97:376|161:353|161:353|216:376|216:376|263:364,1,275.000010490418,6|0,0:2|0:0,0:0:0:0:
330,312,68019,2,0,B|358:304|358:304|383:311,1,55.0000020980836,2|0,1:2|0:0,0:0:0:0:
452,364,68372,2,0,B|437:311|437:311|452:258,1,110.000004196167,2|2,0:2|0:2,0:0:0:0:
504,187,68901,1,2,0:2:0:0:
504,187,69078,6,0,P|452:171|400:187,1,110.000004196167,6|0,3:2|0:0,0:0:0:0:
323,229,69607,2,0,B|270:244|270:244|217:229,1,110.000004196167,2|0,3:2|0:0,0:0:0:0:
149,286,70137,2,0,B|93:176|205:176|149:66,1,220.000008392334,2|2,1:2|0:2,0:0:0:0:
0,163,71195,6,0,B|66:196|120:155|120:155|140:171|140:171|193:131|259:163,1,275.000010490418,6|0,0:2|0:0,0:0:0:0:
328,209,72254,2,0,P|381:224|433:209,1,110.000004196167,0|2,1:0|0:2,0:0:0:0:
380,40,72960,1,2,0:2:0:0:
254,161,73313,6,0,B|239:212|239:212|254:266,1,110.000004196167,6|0,3:2|0:0,0:0:0:0:
308,336,73842,2,0,B|254:321|254:321|203:336,1,110.000004196167,2|0,3:2|0:0,0:0:0:0:
121,299,74372,2,0,P|70:314|18:298,2,110.000004196167,2|10|2,1:2|0:2|0:2,0:0:0:0:
186,135,75431,2,0,P|105:92|75:231,1,275.000010490418,6|0,0:2|0:0,0:0:0:0:
132,312,76490,1,2,1:2:0:0:
132,312,76842,1,2,0:2:0:0:
132,312,77195,1,2,0:2:0:0:
132,312,77548,6,0,B|185:297|185:297|238:312,1,110.000004196167,6|0,3:2|0:0,0:0:0:0:
307,364,78078,2,0,B|360:379|360:379|413:364,1,110.000004196167,2|0,3:2|0:0,0:0:0:0:
467,296,78607,2,0,L|458:242,1,55.0000020980836,2|0,1:2|0:0,0:0:0:0:
512,172,78960,2,0,B|459:187|459:187|406:172,1,110.000004196167,8|0,0:2|0:0,0:0:0:0:
296,33,79666,6,0,B|228:-1|149:58|188:81|120:143|55:107,1,275.000010490418,6|0,0:2|0:0,0:0:0:0:
0,176,80725,2,0,L|17:284,1,110.000004196167,2|2,1:2|0:2,0:0:0:0:
181,348,81431,2,0,L|235:339,1,55.0000020980836,2|2,0:2|0:2,0:0:0:0:
316,372,81784,5,6,0:2:0:0:
402,325,82313,1,2,0:2:0:0:
488,278,82842,1,2,1:2:0:0:
488,278,83901,2,0,L|484:255,1,13.75,2|0,0:2|0:0,0:0:0:0:
468,179,84431,1,2,0:2:0:0:
388,237,84960,1,0,1:0:0:0:
388,237,86019,5,2,0:2:0:0:
293,206,86548,1,2,0:2:0:0:
200,175,87077,1,2,1:2:0:0:
200,175,88137,2,0,L|205:153,1,13.75,2|0,0:2|0:0,0:0:0:0:
224,77,88667,1,2,0:2:0:0:
