osu file format v14

[General]
AudioFilename: 04 - traumerei -TV ver.-.mp3
AudioLeadIn: 0
PreviewTime: 42494
Countdown: 0
SampleSet: Soft
StackLeniency: 0.7
Mode: 0
LetterboxInBreaks: 0
WidescreenStoryboard: 0

[Editor]
DistanceSpacing: 0.5
BeatDivisor: 4
GridSize: 8
TimelineZoom: 1

[Metadata]
Title:traumerei -TV ver.-
TitleUnicode:träumerei -TV ver.-
Artist:LiSA
ArtistUnicode:LiSA
Creator:Kite
Version:Insane
Source:幻影ヲ駆ケル太陽
Tags:cilvery lunarsakuya Genei wo Kakeru Taiyou Day Break Illusion Hideo Nekota akkin Aniplex
BeatmapID:320958
BeatmapSetID:126289

[Difficulty]
HPDrainRate:6
CircleSize:4
OverallDifficulty:8
ApproachRate:9
SliderMultiplier:1.9
SliderTickRate:1

[Events]
//Background and Video events
0,0,"traumerei.png",0,0
//Break Periods
//Storyboard Layer 0 (Background)
//Storyboard Layer 1 (Fail)
//Storyboard Layer 2 (Pass)
//Storyboard Layer 3 (Foreground)
//Storyboard Layer 4 (Overlay)
//Storyboard Sound Samples

[TimingPoints]
4758,315.789473684211,4,2,0,70,1,0
9100,-100,4,2,0,50,0,0
9810,-111.111111111111,4,2,0,70,0,0
19915,-105.263157894737,4,2,0,70,0,0
26310,-117.647058823529,4,2,0,70,0,0
26784,-105.263157894737,4,2,0,70,0,0
30021,-133.333333333333,4,2,0,70,0,0
37600,-105.263157894737,4,2,0,70,0,0
41310,-133.333333333333,4,2,0,70,0,0
42652,-95.2380952380952,4,2,0,80,0,1
62863,-111.111111111111,4,2,0,80,0,1
72968,-95.2380952380952,4,2,0,80,0,1
81731,-95.2380952380952,4,1,0,50,0,1
82915,-95.2380952380952,4,2,0,80,0,1
85600,-100,4,2,0,80,0,0

[Colours]
Combo1 : 196,43,213
Combo2 : 251,147,253
Combo3 : 254,230,255
Combo4 : 237,47,253

[HitObjects]
65,211,4758,6,0,P|52:262|41:305,1,95,4|0,1:0|0:0,0:0:0:0:
117,364,5073,1,0,0:0:0:0:
205,351,5231,1,0,1:0:0:0:
292,337,5389,2,0,P|323:273|277:170,1,190,0|0,0:0|1:0,0:0:0:0:
124,107,5863,5,0,1:0:0:0:
124,107,6021,2,0,P|112:159|101:204,1,95,0|0,0:0|1:0,0:0:0:0:
228,62,6336,2,0,P|305:37|410:67,1,190,0|0,0:0|1:0,0:0:0:0:
459,156,6810,1,0,0:0:0:0:
459,260,6968,2,0,P|439:316|421:357,1,95,0|0,1:0|0:0,0:0:0:0:
308,209,7284,6,0,B|234:187|234:187|195:186|195:186|119:164,1,190,4|0,1:0|0:0,0:0:0:0:
230,277,7758,1,0,1:0:0:0:
230,277,7915,2,0,P|285:295|322:306,1,95
459,156,8231,6,0,B|439:104|386:78|386:78|342:87|303:65,1,190,0|0,1:0|0:0,0:0:0:0:
188,27,8705,1,0,1:0:0:0:
132,135,8863,1,0,0:0:0:0:
56,40,9021,1,0,0:0:0:0:
132,135,9179,1,0,3:0:0:0:
137,153,9258,1,0,3:0:0:0:
142,170,9336,1,0,3:0:0:0:
147,188,9415,1,0,3:0:0:0:
152,206,9494,1,0,3:0:0:0:
158,223,9573,1,0,3:0:0:0:
164,241,9652,1,0,3:0:0:0:
170,258,9731,1,0,3:0:0:0:
176,274,9810,6,0,P|223:303|317:248,1,170.999994781494,4|0,0:0|1:0,0:0:0:0:
445,51,10442,1,0,0:0:0:0:
374,113,10600,1,0,0:0:0:0:
457,147,10758,2,0,P|463:193|469:235,1,85.4999973907472,0|0,1:0|0:0,0:0:0:0:
388,356,11073,2,0,P|343:368|297:350,1,85.4999973907472
219,284,11389,2,0,P|198:195|177:111,1,170.999994781494,0|0,1:0|0:0,0:0:0:0:
158,35,11863,1,0,0:0:0:0:
93,105,12021,2,0,P|106:158|116:197,1,85.4999973907472,0|0,1:0|0:0,0:0:0:0:
74,28,12336,1,0,0:0:0:0:
260,113,12494,6,0,P|304:120|338:96,1,85.4999973907472,0|0,0:0|1:0,0:0:0:0:
238,37,12810,1,0,0:0:0:0:
345,23,12968,2,0,P|404:56|393:148,1,170.999994781494,0|0,0:0|1:0,0:0:0:0:
304,207,13442,2,0,B|273:245|290:289|290:289|310:335|292:369,1,170.999994781494
216,333,13915,1,0,1:0:0:0:
216,333,14073,1,0,0:0:0:0:
361,260,14231,2,0,P|405:257|450:254,1,85.4999973907472
316,186,14547,1,0,1:0:0:0:
316,186,14705,1,0,0:0:0:0:
214,271,14863,6,0,P|122:290|81:236,1,170.999994781494,0|0,0:0|1:0,0:0:0:0:
199,31,15494,1,0,0:0:0:0:
211,114,15652,1,0,0:0:0:0:
136,87,15810,2,0,P|93:86|55:106,1,85.4999973907472,0|0,1:0|0:0,0:0:0:0:
268,186,16126,6,0,P|287:142|302:103,1,85.4999973907472
413,47,16442,1,0,1:0:0:0:
459,126,16600,1,0,0:0:0:0:
440,225,16758,2,0,P|403:245|355:229,1,85.4999973907472
271,110,17073,1,0,1:0:0:0:
271,110,17231,1,0,0:0:0:0:
177,194,17389,6,0,P|173:240|171:282,1,85.4999973907472
255,333,17705,2,0,P|260:262|266:159,1,170.999994781494,0|0,1:0|0:0,0:0:0:0:
344,271,18179,2,0,P|342:321|340:365,1,85.4999973907472,0|0,0:0|1:0,0:0:0:0:
435,267,18494,2,0,P|439:182|442:91,1,170.999994781494
355,24,18968,1,0,1:0:0:0:
289,114,19126,1,0,0:0:0:0:
203,39,19284,1,0,3:0:0:0:
183,29,19363,1,0,3:0:0:0:
162,24,19442,1,0,3:0:0:0:
140,21,19521,1,0,3:0:0:0:
118,21,19600,1,0,3:0:0:0:
97,25,19679,1,0,3:0:0:0:
76,31,19758,1,0,3:0:0:0:
58,42,19836,1,0,3:0:0:0:
41,57,19915,6,0,B|26:128|26:128|33:163|33:163|19:236,1,180.49999518013,4|2,0:0|3:0,0:0:0:0:
61,338,20389,1,0,0:0:0:0:
146,255,20547,2,0,P|194:237|230:247,1,90.2499975900651
193,320,20863,1,0,1:0:0:0:
269,179,21021,1,0,0:0:0:0:
273,185,21336,5,0,0:0:0:0:
354,224,21494,2,0,P|363:271|370:313,1,90.2499975900651,2|0,3:0|0:0,0:0:0:0:
447,193,21810,1,0,0:0:0:0:
463,106,21968,1,0,0:0:0:0:
403,33,22126,1,0,1:0:0:0:
403,33,22284,2,0,P|349:23|314:17,1,90.2499975900651
236,137,22600,5,0,0:0:0:0:
163,83,22758,2,0,P|90:65|37:143,1,180.49999518013,2|0,3:0|0:0,0:0:0:0:
184,338,23389,1,0,1:0:0:0:
273,354,23547,2,0,P|330:345|459:324,1,180.49999518013
317,268,24021,2,0,P|377:258|415:251,1,90.2499975900651,2|0,3:0|0:0,0:0:0:0:
277,188,24336,1,0,0:0:0:0:
392,56,24652,1,2,3:2:0:0:
227,265,24968,6,0,P|175:292|77:230,1,180.49999518013,4|2,0:0|3:0,0:0:0:0:
71,135,25442,1,0,0:0:0:0:
172,136,25600,2,0,P|192:89|205:44,1,90.2499975900651
135,8,25915,1,0,1:0:0:0:
270,108,26073,1,0,0:0:0:0:
276,114,26389,6,0,P|286:167|305:274,1,161.500003080368,2|0,0:0|0:0,0:0:0:0:
357,344,26863,1,0,0:0:0:0:
464,277,27021,2,0,P|476:226|465:184,1,90.2499975900651,0|0,0:0|1:0,0:0:0:0:
400,123,27336,1,0,0:0:0:0:
299,232,27494,6,0,P|258:246|213:226,1,90.2499975900651
149,147,27810,2,0,P|156:97|162:51,1,90.2499975900651,2|0,3:0|0:0,0:0:0:0:
46,153,28126,2,0,P|35:231|20:333,1,180.49999518013,0|0,0:0|1:0,0:0:0:0:
123,251,28600,2,0,B|170:240|204:269|204:269|243:303|292:286,1,180.49999518013
373,233,29073,1,4,0:0:0:0:
297,175,29231,5,0,0:0:0:0:
295,161,29310,1,0,0:0:0:0:
294,147,29389,1,0,0:0:0:0:
304,68,29547,1,0,0:0:0:0:
370,24,29705,1,0,0:0:0:0:
449,28,29863,1,0,0:0:0:0:
505,85,30021,6,2,P|511:150|508:228,1,142.500005435944,4|2,0:0|0:0,0:0:0:0:
465,317,30652,1,0,3:0:0:0:
371,352,30968,1,0,3:0:0:0:
273,331,31284,1,0,3:0:0:0:
196,267,31600,1,2,0:0:0:0:
98,246,31915,1,0,3:0:0:0:
5,283,32231,1,2,0:0:0:0:
98,246,32547,6,0,P|103:170|103:101,1,142.500005435944,0|0,1:0|0:0,0:0:0:0:
224,35,33179,2,0,P|215:112|216:181,1,142.500005435944,4|0,0:0|0:0,0:0:0:0:
258,267,33810,1,2,0:0:0:0:
354,291,34126,1,0,0:0:0:0:
450,264,34442,1,2,0:0:0:0:
487,171,34758,1,0,0:0:0:0:
455,76,35073,6,0,P|389:59|312:39,1,142.500005435944,4|0,1:0|0:0,0:0:0:0:
217,30,35705,1,0,1:0:0:0:
261,119,36021,1,2,0:0:0:0:
261,119,36179,1,0,0:0:0:0:
261,119,36336,2,0,P|263:180|259:263,1,142.500005435944,0|2,0:0|0:0,0:0:0:0:
196,339,36968,1,0,1:0:0:0:
97,355,37284,1,0,0:0:0:0:
14,302,37600,6,0,B|10:224|10:224|19:193|19:193|17:123,1,180.49999518013,4|0,1:0|1:0,0:0:0:0:
115,37,38073,1,2,0:0:0:0:
176,152,38231,2,0,P|263:184|324:128,1,180.49999518013,0|0,1:0|1:0,0:0:0:0:
414,31,38705,1,2,0:0:0:0:
466,154,38863,6,0,P|470:247|473:342,1,180.49999518013,0|0,1:0|1:0,0:0:0:0:
273,263,39494,1,0,1:0:0:0:
264,345,39652,1,0,0:0:0:0:
339,312,39810,1,0,1:0:0:0:
112,246,40126,6,0,P|101:195|92:155,1,90.2499975900651,0|0,1:0|0:0,0:0:0:0:
89,139,40363,1,0,0:0:0:0:
85,121,40442,1,0,1:0:0:0:
181,39,40600,1,0,0:0:0:0:
269,130,40758,1,0,1:0:0:0:
275,146,40836,1,0,0:0:0:0:
279,163,40915,1,0,0:0:0:0:
281,180,40994,1,0,0:0:0:0:
280,198,41073,1,0,1:0:0:0:
276,215,41152,1,0,0:0:0:0:
269,231,41231,1,0,0:0:0:0:
265,248,41310,1,0,0:0:0:0:
267,267,41389,6,0,P|277:307|285:336,1,71.2500027179719,0|0,3:0|0:0,0:0:0:0:
395,242,41705,2,0,P|386:202|378:170,1,71.2500027179719,2|0,0:0|0:0,0:0:0:0:
204,68,42179,2,0,P|196:127|185:212,1,142.500005435944,2|0,0:0|0:0,0:0:0:0:
248,341,42652,6,0,P|297:355|345:332,1,99.7499969558717,4|0,0:0|0:0,0:0:0:0:
401,167,42968,2,0,P|346:164|314:198,1,99.7499969558717,0|0,1:0|0:0,0:0:0:0:
466,217,43284,2,0,P|483:168|470:121,1,99.7499969558717,2|0,0:0|0:0,0:0:0:0:
288,26,43600,2,0,P|280:83|274:125,1,99.7499969558717,0|0,1:0|0:0,0:0:0:0:
151,332,43915,2,0,P|136:264|108:136,1,199.499993911743,2|0,0:0|1:0,0:0:0:0:
299,309,44547,1,2,0:0:0:0:
398,336,44705,1,0,0:0:0:0:
483,278,44863,2,0,P|492:223|496:176,1,99.7499969558717,0|0,1:0|0:0,0:0:0:0:
457,69,45179,5,2,0:0:0:0:
457,69,45336,1,0,0:0:0:0:
372,25,45494,2,0,P|332:11|278:27,1,99.7499969558717,0|0,1:0|0:0,0:0:0:0:
156,151,45810,2,0,P|207:168|248:154,1,99.7499969558717,2|0,0:0|0:0,0:0:0:0:
90,82,46126,1,0,1:0:0:0:
47,172,46284,1,0,0:0:0:0:
73,271,46442,6,0,B|117:315|181:291|181:291|227:302|236:346,1,199.499993911743,2|0,0:0|1:0,0:0:0:0:
328,362,46915,1,0,0:0:0:0:
410,319,47073,2,0,P|417:264|413:213,1,99.7499969558717,2|0,0:0|0:0,0:0:0:0:
310,127,47389,1,0,1:0:0:0:
403,40,47547,1,0,0:0:0:0:
246,67,47705,6,0,P|220:129|305:215,1,199.499993911743,4|0,0:0|1:0,0:0:0:0:
41,141,48336,2,0,P|40:83|41:38,1,99.7499969558717,2|0,0:0|0:0,0:0:0:0:
103,215,48652,2,0,B|94:286|69:333|69:333|107:268|113:262,1,199.499993911743,0|2,1:0|0:0,0:0:0:0:
208,170,49126,2,0,P|255:156|305:169,1,99.7499969558717,0|0,0:0|1:0,0:0:0:0:
370,250,49442,1,0,0:0:0:0:
470,235,49600,2,0,B|479:176|443:131|443:131|444:86|478:50,1,199.499993911743,2|0,0:0|1:0,0:0:0:0:
476,51,50073,1,0,0:0:0:0:
370,250,50231,6,0,P|326:284|286:275,1,99.7499969558717,4|0,0:0|0:0,0:0:0:0:
208,170,50547,1,0,1:0:0:0:
102,237,50705,1,0,1:0:0:0:
290,133,50863,6,0,P|297:82|303:27,1,99.7499969558717,0|0,3:0|3:0,0:0:0:0:
394,139,51179,2,0,B|411:203|411:203|412:260|412:260|432:335,1,199.499993911743,0|4,1:0|0:0,0:0:0:0:
492,149,51652,1,0,0:0:0:0:
492,149,51731,1,0,0:0:0:0:
492,149,51810,2,0,P|477:98|463:53,1,99.7499969558717,0|0,1:0|0:0,0:0:0:0:
306,284,52126,5,0,3:0:0:0:
291,297,52205,1,0,3:0:0:0:
274,307,52284,1,0,3:0:0:0:
255,314,52363,1,0,3:0:0:0:
235,318,52442,1,0,3:0:0:0:
215,318,52521,1,0,3:0:0:0:
195,315,52600,1,0,3:0:0:0:
175,309,52679,1,0,3:0:0:0:
156,300,52758,6,0,P|128:248|134:208,1,99.7499969558717,4|0,0:0|0:0,0:0:0:0:
281,86,53073,2,0,P|284:138|257:177,1,99.7499969558717,0|0,1:0|0:0,0:0:0:0:
219,37,53389,2,0,P|266:10|314:16,1,99.7499969558717,2|0,0:0|0:0,0:0:0:0:
158,137,53705,2,0,P|107:127|58:117,1,99.7499969558717,0|0,1:0|0:0,0:0:0:0:
82,299,54021,2,0,B|146:325|188:283|188:283|235:271|270:299,1,199.499993911743,2|0,0:0|1:0,0:0:0:0:
440,82,54652,1,2,0:0:0:0:
356,43,54810,1,0,0:0:0:0:
271,77,54968,2,0,P|280:136|287:181,1,99.7499969558717,0|0,1:0|0:0,0:0:0:0:
211,295,55284,5,2,0:0:0:0:
211,295,55442,1,0,0:0:0:0:
297,355,55600,2,0,P|349:369|388:351,1,99.7499969558717,0|0,1:0|0:0,0:0:0:0:
127,249,55915,2,0,P|134:182|136:144,1,99.7499969558717,2|0,0:0|0:0,0:0:0:0:
293,35,56231,6,0,B|320:83|304:126|304:126|280:186|308:233,1,199.499993911743,0|2,1:0|0:0,0:0:0:0:
386,178,56705,1,0,0:0:0:0:
464,237,56863,2,0,P|475:293|463:335,1,99.7499969558717,0|0,1:0|0:0,0:0:0:0:
386,178,57179,2,0,P|392:119|396:75,1,99.7499969558717,2|0,0:0|0:0,0:0:0:0:
338,265,57494,1,0,1:0:0:0:
253,304,57652,1,0,0:0:0:0:
163,281,57810,6,0,P|112:209|168:123,1,199.499993911743,4|0,0:0|1:0,0:0:0:0:
450,251,58442,2,0,P|458:315|463:356,1,99.7499969558717,2|0,0:0|0:0,0:0:0:0:
354,195,58758,2,0,B|332:144|375:104|421:113|421:113|465:123|482:114|497:91,1,199.499993911743,0|2,1:0|0:0,0:0:0:0:
373,40,59231,2,0,P|312:69|289:106,1,99.7499969558717,0|0,0:0|1:0,0:0:0:0:
250,208,59547,1,0,0:0:0:0:
174,130,59705,2,0,P|126:106|31:192,1,199.499993911743,2|0,0:0|1:0,0:0:0:0:
54,309,60179,1,0,0:0:0:0:
150,361,60336,6,0,P|206:351|248:344,1,99.7499969558717,2|0,0:0|0:0,0:0:0:0:
381,235,60652,1,0,1:0:0:0:
381,235,60810,1,0,1:0:0:0:
232,193,60968,2,0,P|217:140|234:95,1,99.7499969558717,2|0,0:0|0:0,0:0:0:0:
340,27,61284,1,0,1:0:0:0:
256,192,61442,12,0,62547,0:0:0:0:
428,215,62863,6,0,P|431:274|432:306,2,85.4999973907472,0|0|0,1:0|0:0|3:0,0:0:0:0:
349,137,63336,2,0,P|346:78|345:46,2,85.4999973907472,0|0|0,1:0|0:0|3:0,0:0:0:0:
313,247,63810,1,0,1:0:0:0:
221,306,63968,1,0,0:0:0:0:
103,292,64126,6,0,P|74:248|53:213,1,85.4999973907472,0|0,1:0|0:0,0:0:0:0:
156,157,64442,2,0,P|146:109|137:69,1,85.4999973907472,0|0,3:0|0:0,0:0:0:0:
282,132,64758,1,0,1:0:0:0:
309,230,64915,1,0,0:0:0:0:
442,130,65073,2,0,P|461:78|472:40,1,85.4999973907472,0|0,1:0|0:0,0:0:0:0:
309,231,65389,6,0,P|303:290|300:324,2,85.4999973907472,0|0|0,1:0|0:0|3:0,0:0:0:0:
370,120,65863,2,0,P|368:68|364:33,2,85.4999973907472,0|0|0,1:0|0:0|3:0,0:0:0:0:
438,260,66336,2,0,P|448:312|454:347,1,85.4999973907472,0|0,1:0|3:0,0:0:0:0:
345,205,66652,1,0,1:0:0:0:
290,293,66810,2,0,P|195:322|146:280,1,170.999994781494,0|0,1:0|0:0,0:0:0:0:
96,224,67284,2,0,P|134:203|176:213,1,85.4999973907472,0|0,1:0|0:0,0:0:0:0:
73,300,67600,1,0,1:0:0:0:
19,239,67758,1,0,1:0:0:0:
26,157,67915,6,0,L|32:109|37:69,2,85.4999973907472,0|0|0,1:0|0:0|3:0,0:0:0:0:
163,264,68389,2,0,P|153:308|143:349,2,85.4999973907472,0|0|0,1:0|0:0|3:0,0:0:0:0:
197,165,68863,1,0,1:0:0:0:
275,94,69021,2,0,P|354:67|416:117,1,170.999994781494,0|0,3:0|1:0,0:0:0:0:
345,227,69494,2,0,P|331:180|340:146,1,85.4999973907472,0|0,3:0|0:0,0:0:0:0:
448,257,69810,2,0,P|450:307|451:343,1,85.4999973907472,0|0,1:0|0:0,0:0:0:0:
429,157,70126,2,0,P|442:104|450:67,1,85.4999973907472,0|0,1:0|0:0,0:0:0:0:
375,300,70442,6,0,B|339:337|285:330|285:330|255:312|209:322,1,170.999994781494,0|0,1:0|3:0,0:0:0:0:
127,343,70915,1,0,1:0:0:0:
44,303,71073,2,0,P|39:232|32:130,1,170.999994781494,0|0,3:0|1:0,0:0:0:0:
132,39,71547,5,0,3:0:0:0:
132,39,71626,1,0,3:0:0:0:
132,39,71705,2,0,P|130:88|129:125,1,85.4999973907472,0|0,1:0|1:0,0:0:0:0:
224,174,72021,2,0,P|223:224|222:262,1,85.4999973907472,0|0,1:0|0:0,0:0:0:0:
324,122,72336,2,0,B|364:95|411:112|411:112|457:128|491:104,1,170.999994781494,0|0,1:0|1:0,0:0:0:0:
269,334,72968,6,0,P|218:352|176:334,1,99.7499969558717,4|0,0:0|0:0,0:0:0:0:
93,185,73284,2,0,P|143:177|182:206,1,99.7499969558717,0|0,1:0|0:0,0:0:0:0:
35,238,73600,2,0,P|13:191|26:146,1,99.7499969558717,2|0,0:0|0:0,0:0:0:0:
109,263,73915,2,0,P|105:316|102:364,1,99.7499969558717,0|0,1:0|0:0,0:0:0:0:
181,203,74231,2,0,B|236:180|286:220|286:220|331:222|364:182,1,199.499993911743,2|0,0:0|1:0,0:0:0:0:
174,29,74863,1,2,0:0:0:0:
174,29,75021,1,0,0:0:0:0:
108,81,75179,2,0,P|97:131|86:178,1,99.7499969558717,0|0,1:0|0:0,0:0:0:0:
160,338,75494,5,2,0:0:0:0:
245,365,75652,1,0,0:0:0:0:
330,345,75810,2,0,P|357:301|353:253,1,99.7499969558717,0|0,1:0|0:0,0:0:0:0:
265,140,76126,1,2,0:0:0:0:
265,140,76284,1,0,0:0:0:0:
354,82,76442,2,0,P|402:65|450:81,1,99.7499969558717,0|0,1:0|0:0,0:0:0:0:
301,214,76758,6,0,B|261:236|207:219|188:173|188:173|152:188|115:163,1,199.499993911743,2|0,0:0|1:0,0:0:0:0:
78,98,77231,1,0,0:0:0:0:
46,181,77389,2,0,P|44:238|43:285,1,99.7499969558717,2|0,0:0|0:0,0:0:0:0:
160,102,77705,2,0,P|167:53|163:4,1,99.7499969558717,0|0,1:0|0:0,0:0:0:0:
132,241,78021,6,0,B|161:289|218:290|218:290|258:261|309:279,1,199.499993911743,4|0,0:0|1:0,0:0:0:0:
435,61,78652,2,0,P|386:46|339:32,1,99.7499969558717,2|0,0:0|0:0,0:0:0:0:
445,153,78968,2,0,B|473:200|449:249|449:249|424:296|449:346,1,199.499993911743,0|2,1:0|0:0,0:0:0:0:
375,203,79442,2,0,P|322:189|278:206,1,99.7499969558717,0|0,0:0|1:0,0:0:0:0:
205,272,79758,1,0,0:0:0:0:
107,244,79915,2,0,P|79:179|159:97,1,199.499993911743,2|0,0:0|1:0,0:0:0:0:
257,142,80389,1,0,0:0:0:0:
364,105,80547,6,0,P|379:61|368:8,1,99.7499969558717,2|0,0:0|0:0,0:0:0:0:
257,142,80863,2,0,P|252:201|248:244,1,99.7499969558717,0|0,1:0|0:0,0:0:0:0:
345,348,81179,2,0,P|395:361|439:338,1,99.7499969558717,2|0,0:0|0:0,0:0:0:0:
355,204,81494,1,0,1:0:0:0:
355,204,81652,1,0,0:0:0:0:
273,322,81810,5,0,0:0:0:0:
255,331,81889,1,0,0:0:0:0:
235,336,81968,1,0,0:0:0:0:
215,337,82047,1,0,0:0:0:0:
195,333,82126,1,0,0:0:0:0:
176,326,82205,1,0,0:0:0:0:
157,319,82284,1,0,0:0:0:0:
137,315,82363,1,0,0:0:0:0:
117,316,82442,2,0,L|66:327,3,49.8749984779358,0|0|0|0,0:0|0:0|0:0|0:0,0:0:0:0:
48,321,82758,1,2,3:0:0:0:
276,155,83073,6,0,P|290:106|275:58,1,99.7499969558717,0|0,1:0|0:0,0:0:0:0:
200,16,83389,1,2,0:0:0:0:
228,222,83547,2,0,P|277:236|325:221,1,99.7499969558717,0|0,1:0|0:0,0:0:0:0:
367,146,83863,1,2,0:0:0:0:
161,173,84021,2,0,P|147:222|162:270,1,99.7499969558717,0|0,1:0|0:0,0:0:0:0:
237,312,84337,1,2,0:0:0:0:
209,106,84494,2,0,P|160:92|112:107,1,99.7499969558717,0|0,1:0|0:0,0:0:0:0:
70,182,84810,1,2,0:0:0:0:
276,155,84968,5,0,1:0:0:0:
276,155,85126,1,2,0:0:0:0:
161,173,85284,1,0,1:0:0:0:
161,173,85442,1,0,0:0:0:0:
256,192,85600,12,0,88521,0:0:0:0:
