osu file format v14

[General]
AudioFilename: audio.mp3
AudioLeadIn: 0
PreviewTime:42185
Countdown: 0
SampleSet: Soft
StackLeniency: 0.2
Mode: 0
LetterboxInBreaks: 0
WidescreenStoryboard: 0

[Editor]
Bookmarks: 4449,9501,19606,29712,37291,41080,42343,62554,72659,82764,85291
DistanceSpacing: 0.3
BeatDivisor: 12
GridSize: 4
TimelineZoom: 1.6

[Metadata]
Title:traumerei (TV Size)
TitleUnicode:träumerei (TV Size)
Artist:LiSA
ArtistUnicode:LiSA
Creator:CallieCube
Version:Extra
Source:幻影ヲ駆ケル太陽
Tags:obamacube day break illusion rock japanese traeumerei Genei wo Kakeru Taiyou il sole penetra le illusioni The Sun That Penetrates Illusions Anime j-rock jrock
BeatmapID:2830487
BeatmapSetID:1368808

[Difficulty]
HPDrainRate:5.5
CircleSize:4.2
OverallDifficulty:8.4
ApproachRate:9.2
SliderMultiplier:1.8
SliderTickRate:1

[Events]
//Background and Video events
0,0,"new traeumerei.jpg",0,0
//Break Periods
//Storyboard Layer 0 (Background)
//Storyboard Layer 1 (Fail)
//Storyboard Layer 2 (Pass)
//Storyboard Layer 3 (Foreground)
//Storyboard Layer 4 (Overlay)
//Storyboard Sound Samples

[TimingPoints]
4449,315.789473684211,4,2,1,70,1,0
4685,-100,4,2,1,5,0,0
4764,-100,4,2,1,70,0,0
5080,-83.3333333333333,4,2,1,70,0,0
5316,-83.3333333333333,4,2,1,5,0,0
5396,-100,4,2,1,70,0,0
5632,-100,4,2,1,5,0,0
5712,-100,4,2,1,70,0,0
6027,-83.3333333333333,4,2,1,70,0,0
6263,-83.3333333333333,4,2,1,5,0,0
6343,-111.111111111111,4,2,1,70,0,0
6579,-111.111111111111,4,2,1,5,0,0
6659,-111.111111111111,4,2,1,70,0,0
6975,-76.9230769230769,4,2,1,70,0,0
7211,-76.9230769230769,4,2,1,5,0,0
7291,-90.9090909090909,4,2,1,70,0,0
7922,-76.9230769230769,4,2,1,70,0,0
8158,-76.9230769230769,4,2,1,5,0,0
8238,-76.9230769230769,4,2,1,70,0,0
9501,-76.9230769230769,4,2,1,55,0,0
9817,-100,4,2,1,55,0,0
11316,-100,4,2,1,5,0,0
11396,-100,4,2,1,55,0,0
12895,-100,4,2,1,5,0,0
12975,-100,4,2,1,55,0,0
13133,-83.3333333333333,4,2,1,55,0,0
13449,-100,4,2,1,55,0,0
13843,-100,4,2,1,5,0,0
13922,-100,4,2,1,55,0,0
17632,-100,4,2,1,5,0,0
17712,-100,4,2,1,55,0,0
18185,-83.3333333333333,4,2,1,55,0,0
18421,-83.3333333333333,4,2,1,5,0,0
18501,-66.6666666666667,4,2,1,70,0,0
19291,-100,4,2,1,70,0,0
19606,-90.9090909090909,4,2,1,70,0,0
20158,-90.9090909090909,4,2,1,5,0,0
20238,-90.9090909090909,4,2,1,70,0,0
22685,-90.9090909090909,4,2,1,5,0,0
22764,-90.9090909090909,4,2,1,70,0,0
23238,-76.9230769230769,4,2,1,70,0,0
23554,-90.9090909090909,4,2,1,70,0,0
23790,-90.9090909090909,4,2,1,5,0,0
23870,-90.9090909090909,4,2,1,70,0,0
24579,-90.9090909090909,4,2,1,5,0,0
24659,-90.9090909090909,4,2,1,70,0,0
25211,-90.9090909090909,4,2,1,5,0,0
25291,-90.9090909090909,4,2,1,70,0,0
28053,-90.9090909090909,4,2,1,5,0,0
28133,-90.9090909090909,4,2,1,70,0,0
28764,-76.9230769230769,4,2,1,70,0,0
29712,-111.111111111111,4,2,1,50,0,0
31842,-111.111111111111,4,2,1,5,0,0
31922,-111.111111111111,4,2,1,50,0,0
32238,-99.9999999999999,4,2,1,50,0,0
32474,-99.9999999999999,4,2,1,5,0,0
32554,-99.9999999999999,4,2,1,50,0,0
33106,-99.9999999999999,4,2,1,5,0,0
33185,-111.111111111111,4,2,1,50,0,0
34685,-111.111111111111,4,2,1,5,0,0
34764,-99.9999999999999,4,2,1,50,0,0
35238,-111.111111111111,4,2,1,50,0,0
36343,-125,4,2,1,60,0,0
36579,-125,4,2,1,5,0,0
36659,-111.111111111111,4,2,1,60,0,0
36895,-111.111111111111,4,2,1,5,0,0
36975,-111.111111111111,4,2,1,60,0,0
37291,-83.3333333333333,4,2,1,70,0,0
37448,-83.3333333333333,4,2,1,5,0,0
37527,-83.3333333333333,4,2,1,70,0,0
38079,-83.3333333333333,4,2,1,5,0,0
38159,-83.3333333333333,4,2,1,70,0,0
38554,-90.9090909090909,4,2,1,70,0,0
39106,-90.9090909090909,4,2,1,5,0,0
39185,-90.9090909090909,4,2,1,70,0,0
39501,-83.3333333333333,4,2,1,70,0,0
39737,-83.3333333333333,4,2,1,5,0,0
39817,-83.3333333333333,4,2,1,70,0,0
42343,-66.6666666666667,4,2,1,70,0,0
42579,-66.6666666666667,4,2,1,5,0,0
42659,-66.6666666666667,4,2,1,70,0,0
42895,-66.6666666666667,4,2,1,5,0,0
42975,-66.6666666666667,4,2,1,70,0,0
44790,-66.6666666666667,4,2,1,5,0,0
44870,-83.3333333333333,4,2,1,70,0,0
45817,-100,4,2,1,70,0,0
46053,-100,4,2,1,5,0,0
46133,-100,4,2,1,70,0,0
46606,-83.3333333333333,4,2,1,70,0,0
46842,-83.3333333333333,4,2,1,5,0,0
46922,-100,4,2,1,70,0,0
47396,-83.3333333333333,4,2,1,70,0,0
47632,-83.3333333333333,4,2,1,5,0,0
47712,-83.3333333333333,4,2,1,70,0,0
48343,-100,4,2,1,70,0,0
48579,-100,4,2,1,5,0,0
48659,-100,4,2,1,70,0,0
48817,-66.6666666666667,4,2,1,70,0,0
49133,-83.3333333333333,4,2,1,70,0,0
49369,-83.3333333333333,4,2,1,5,0,0
49449,-100,4,2,1,70,0,0
49922,-66.6666666666667,4,2,1,70,0,0
50158,-66.6666666666667,4,2,1,5,0,0
50238,-66.6666666666667,4,2,1,70,0,0
50790,-66.6666666666667,4,2,1,5,0,0
50870,-66.6666666666667,4,2,1,70,0,0
51185,-83.3333333333333,4,2,1,70,0,0
52449,-66.6666666666667,4,2,1,70,0,0
52685,-66.6666666666667,4,2,1,5,0,0
52764,-66.6666666666667,4,2,1,70,0,0
53000,-66.6666666666667,4,2,1,5,0,0
53080,-66.6666666666667,4,2,1,70,0,0
54895,-66.6666666666667,4,2,1,5,0,0
54975,-83.3333333333333,4,2,1,70,0,0
55922,-100,4,2,1,70,0,0
56158,-100,4,2,1,5,0,0
56238,-100,4,2,1,70,0,0
56712,-83.3333333333333,4,2,1,70,0,0
56948,-83.3333333333333,4,2,1,5,0,0
57027,-100,4,2,1,70,0,0
57501,-83.3333333333333,4,2,1,70,0,0
57737,-83.3333333333333,4,2,1,5,0,0
57817,-83.3333333333333,4,2,1,70,0,0
58053,-83.3333333333333,4,2,1,5,0,0
58133,-83.3333333333333,4,2,1,70,0,0
58449,-100,4,2,1,70,0,0
58685,-100,4,2,1,5,0,0
58764,-100,4,2,1,70,0,0
58922,-66.6666666666667,4,2,1,70,0,0
59238,-83.3333333333333,4,2,1,70,0,0
59474,-83.3333333333333,4,2,1,5,0,0
59554,-100,4,2,1,70,0,0
60027,-66.6666666666667,4,2,1,70,0,0
60263,-66.6666666666667,4,2,1,5,0,0
60343,-66.6666666666667,4,2,1,70,0,0
60895,-66.6666666666667,4,2,1,5,0,0
60975,-66.6666666666667,4,2,1,70,0,0
61922,-83.3333333333333,4,2,1,70,0,0
62554,-83.3333333333333,4,2,1,70,0,1
62870,-66.6666666666667,4,2,1,70,0,1
69343,-76.9230769230769,4,2,1,70,0,1
70764,-100,4,2,1,70,0,1
71396,-100,4,2,1,70,0,0
72343,-100,4,2,1,70,0,1
72422,-100,4,2,1,70,0,0
72659,-66.6666666666667,4,2,1,70,0,0
72895,-66.6666666666667,4,2,1,5,0,0
72975,-66.6666666666667,4,2,1,70,0,0
73211,-66.6666666666667,4,2,1,5,0,0
73291,-66.6666666666667,4,2,1,70,0,0
75106,-66.6666666666667,4,2,1,5,0,0
75185,-83.3333333333333,4,2,1,70,0,0
76133,-100,4,2,1,70,0,0
76369,-100,4,2,1,5,0,0
76449,-100,4,2,1,70,0,0
76922,-83.3333333333333,4,2,1,70,0,0
77158,-83.3333333333333,4,2,1,5,0,0
77238,-100,4,2,1,70,0,0
77712,-83.3333333333333,4,2,1,70,0,0
77948,-83.3333333333333,4,2,1,5,0,0
78027,-83.3333333333333,4,2,1,70,0,0
78263,-83.3333333333333,4,2,1,5,0,0
78343,-83.3333333333333,4,2,1,70,0,0
78659,-100,4,2,1,70,0,0
78895,-100,4,2,1,5,0,0
78975,-100,4,2,1,70,0,0
79133,-66.6666666666667,4,2,1,70,0,0
79449,-83.3333333333333,4,2,1,70,0,0
79685,-83.3333333333333,4,2,1,5,0,0
79764,-100,4,2,1,70,0,0
80238,-83.3333333333333,4,2,1,70,0,0
80474,-83.3333333333333,4,2,1,5,0,0
80554,-83.3333333333333,4,2,1,70,0,0
81106,-83.3333333333333,4,2,1,5,0,0
81185,-83.3333333333333,4,2,1,70,0,0
84975,-133.333333333333,4,2,1,70,0,0
88449,-50,4,2,1,70,0,0
88527,-50,4,2,1,5,0,0

[Colours]
Combo1 : 214,124,3
Combo2 : 91,81,153
Combo3 : 119,0,68
Combo4 : 140,0,0
Combo5 : 221,72,0

[HitObjects]
32,137,4449,6,0,P|99:139|160:166,1,135,4|0,3:2|2:0,2:0:0:0:
160,166,4764,1,0,2:0:0:0:
72,209,4922,1,8,2:0:0:0:
171,29,5080,2,0,P|220:75|266:187,1,162,2|0,2:0|2:0,2:0:0:0:
288,144,5396,6,0,P|257:203|249:270,1,135,4|0,3:2|2:0,2:0:0:0:
249,270,5712,1,0,2:0:0:0:
349,199,5870,1,8,2:0:0:0:
192,377,6027,2,0,P|157:304|153:224,1,162,2|0,2:0|2:0,2:0:0:0:
157,220,6343,6,0,P|155:281|124:332,1,121.5,4|0,3:2|2:0,2:0:0:0:
124,331,6659,1,0,3:2:0:0:
249,270,6817,1,8,2:0:0:0:
459,337,6975,6,0,L|258:355,1,175.5,6|0,3:2|2:0,2:0:0:0:
303,370,7291,6,0,P|321:324|331:275,1,99,0|0,3:2|2:0,2:0:0:0:
314,125,7606,1,0,2:0:0:0:
253,274,7764,1,8,2:0:0:0:
476,318,7922,2,0,P|460:231|432:148,1,175.5,2|0,3:2|2:0,2:0:0:0:
432,148,8238,5,0,2:0:0:0:
369,202,8396,1,8,3:2:0:0:
290,193,8554,1,8,2:0:0:0:
512,144,8712,1,0,2:0:0:0:
227,237,8870,1,8,2:3:0:0:
133,117,9027,5,8,2:0:0:0:
158,109,9106,1,8,2:0:0:0:
191,123,9185,1,10,2:0:0:0:
236,20,9343,1,8,2:0:0:0:
244,32,9422,1,8,2:0:0:0:
247,51,9501,5,12,3:2:0:0:
369,80,9817,2,0,P|276:90|193:118,1,180,10|0,2:0|3:2,2:0:0:0:
141,176,10291,1,0,2:0:0:0:
217,283,10449,2,0,P|223:238|220:194,1,90,8|0,2:0|3:2,2:0:0:0:
215,189,10922,5,2,3:2:0:0:
299,203,11080,2,0,P|369:198|447:174,1,135,10|0,2:0|2:0,2:0:0:0:
406,179,11396,2,0,P|362:190|321:209,1,90,2|0,3:2|2:0,2:0:0:0:
296,280,11712,1,8,2:0:0:0:
343,338,11870,1,2,3:2:0:0:
347,334,12185,5,2,3:2:0:0:
317,204,12343,1,10,2:0:0:0:
349,124,12501,1,0,2:0:0:0:
310,0,12659,2,0,P|324:85|345:129,1,135,2|0,3:2|2:0,2:0:0:0:
407,63,12975,1,10,2:0:0:0:
280,77,13133,6,0,L|173:68,1,108,2|0,3:0|2:0,2:0:0:0:
467,155,13449,2,0,L|220:176,1,225,2|0,3:2|2:0,2:0:0:0:
242,174,13922,1,0,3:2:0:0:
284,81,14080,1,0,3:2:0:0:
111,68,14238,1,10,2:0:0:0:
132,157,14396,1,0,3:2:0:0:
155,146,14554,5,0,3:2:0:0:
194,56,14870,2,0,P|203:149|196:235,1,180,10|0,2:0|3:2,2:0:0:0:
172,309,15343,1,0,2:0:0:0:
65,384,15501,2,0,P|84:320|113:275,1,90,8|0,2:0|3:2,2:0:0:0:
91,295,15975,5,2,3:2:0:0:
257,288,16133,1,10,2:0:0:0:
176,313,16291,1,0,2:0:0:0:
249,203,16449,1,2,3:2:0:0:
326,234,16606,1,2,3:2:0:0:
393,115,16764,1,10,2:0:0:0:
316,146,16922,1,2,3:2:0:0:
338,162,17080,5,2,3:2:0:0:
380,92,17238,1,0,2:0:0:0:
231,73,17396,2,0,P|232:140|244:206,1,135,10|0,2:0|2:0,2:0:0:0:
250,182,17712,2,0,P|239:138|222:96,1,90,2|0,3:2|3:2,2:0:0:0:
155,52,18027,1,10,2:0:0:0:
147,134,18185,2,0,B|75:143|94:61|4:77,1,162,2|0,2:0|2:0,2:0:0:0:
58,197,18501,6,0,B|62:173|62:173|59:153|59:153|63:131,1,67.5,8|0,3:0|2:0,2:0:0:0:
75,5,18659,2,0,L|84:289,1,270,12|4,2:0|1:3,2:0:0:0:
294,124,19133,1,8,2:0:0:0:
255,109,19212,1,8,2:0:0:0:
219,117,19291,2,0,L|215:176,2,45,8|8|8,2:0|2:0|2:0,2:0:0:0:
295,21,19606,6,0,P|292:67|297:119,1,99,12|0,3:2|2:0,2:0:0:0:
436,277,19922,2,0,P|409:209|347:118,1,148.5,10|0,2:0|2:0,2:0:0:0:
365,149,20238,1,0,3:2:0:0:
303,197,20396,1,0,2:0:0:0:
505,226,20554,1,8,2:0:0:0:
336,362,20712,2,0,B|328:312|328:312|344:266,1,99,0|0,3:2|2:0,2:0:0:0:
413,321,21027,5,2,3:2:0:0:
255,267,21185,1,10,2:0:0:0:
417,214,21343,1,2,2:0:0:0:
487,299,21501,1,2,3:2:0:0:
335,236,21659,1,2,2:0:0:0:
354,151,21817,1,8,2:0:0:0:
508,143,21975,1,2,3:2:0:0:
512,139,22291,5,2,3:2:0:0:
361,154,22449,2,0,P|349:80|355:6,1,148.5,10|0,2:0|2:0,2:0:0:0:
366,34,22764,2,0,P|358:83|342:130,1,99,2|0,3:2|2:0,2:0:0:0:
299,201,23080,1,10,2:0:0:0:
242,14,23238,6,0,L|255:130,1,117,2|0,3:0|2:0,2:0:0:0:
286,352,23554,2,0,L|303:205,1,148.5,2|0,3:2|2:0,2:0:0:0:
303,204,23870,1,8,2:0:0:0:
334,286,24027,1,0,3:2:0:0:
235,107,24185,1,0,3:2:0:0:
129,259,24343,2,0,B|194:293|194:293|204:220,1,148.5,10|0,2:0|2:0,2:0:0:0:
200,216,24659,6,0,P|171:176|154:129,1,99,0|0,3:2|2:0,2:0:0:0:
266,0,24975,2,0,P|268:80|246:158,1,148.5,10|0,2:0|2:0,2:0:0:0:
251,145,25291,1,0,3:2:0:0:
158,125,25449,1,0,2:0:0:0:
310,79,25606,1,8,2:0:0:0:
365,264,25764,2,0,P|353:216|350:166,1,99,0|0,3:2|2:0,2:0:0:0:
402,87,26080,5,2,3:2:0:0:
512,219,26238,1,10,2:0:0:0:
494,51,26396,1,0,2:0:0:0:
419,0,26554,1,2,3:2:0:0:
478,138,26712,1,2,3:2:0:0:
428,204,26870,1,10,2:0:0:0:
455,341,27027,1,2,3:2:0:0:
459,345,27343,5,0,2:0:0:0:
424,200,27501,1,10,2:0:0:0:
346,170,27659,1,0,2:0:0:0:
362,250,27817,2,0,P|385:180|402:108,1,148.5,2|0,3:2|2:0,2:0:0:0:
402,108,28133,1,10,2:0:0:0:
512,116,28291,2,0,P|498:68|480:22,1,99,2|0,2:0|2:0,2:0:0:0:
483,94,28606,1,0,3:2:0:0:
403,233,28764,6,0,B|370:206|370:206|377:133,1,117,12|0,2:0|2:0,2:0:0:0:
377,133,29001,1,8,2:0:0:0:
377,133,29080,1,8,2:0:0:0:
472,271,29238,1,8,2:0:0:0:
358,301,29396,1,8,2:3:0:0:
430,370,29554,1,4,2:3:0:0:
454,341,29712,6,0,P|373:334|293:344,1,162,2|0,3:2|2:0,2:0:0:0:
324,369,30185,1,2,3:2:0:0:
238,248,30343,2,0,P|211:377|121:281,1,324,10|0,2:0|2:0,2:0:0:0:
161,136,31291,6,0,P|170:184|168:220,1,81.0000000000001,2|0,3:2|3:2,2:0:0:0:
66,117,31606,2,0,P|53:176|55:237,1,121.5,10|0,2:0|2:0,2:0:0:0:
58,240,31922,2,0,P|39:197|13:169,1,81.0000000000001,2|0,2:0|2:0,2:0:0:0:
193,8,32238,6,0,P|184:89|163:140,1,135,2|0,3:2|2:0,2:0:0:0:
160,142,32554,2,0,P|138:91|135:44,1,90.0000000000001,2|0,3:2|3:2,2:0:0:0:
335,139,32870,2,0,P|270:214|211:242,1,135,10|0,2:0|2:0,2:0:0:0:
236,235,33185,2,0,P|354:186|308:306,1,324,2|0,2:0|2:0,2:0:0:0:
277,296,33975,1,0,3:2:0:0:
397,380,34133,2,0,P|395:340|383:302,1,81.0000000000001,8|0,2:0|3:2,2:0:0:0:
505,183,34449,2,0,P|480:261|482:326,1,121.5,2|0,2:0|2:0,2:0:0:0:
483,305,34764,6,0,P|457:249|429:223,1,90.0000000000001,2|0,3:2|2:0,2:0:0:0:
354,222,35080,1,0,3:2:0:0:
454,46,35238,2,0,P|422:202|331:70,1,405,2|0,3:2|2:0,2:0:0:0:
446,65,36343,6,0,P|396:54|345:85,1,108,2|0,3:1|2:0,2:0:0:0:
343,83,36659,2,0,P|401:98|451:67,1,121.5,2|0,3:1|2:0,2:0:0:0:
390,23,36975,1,10,2:1:0:0:
394,19,37291,6,0,L|381:170,1,108,6|0,3:1|2:0,2:0:0:0:
376,134,37527,1,2,2:0:0:0:
366,130,37606,2,0,P|396:187|400:267,1,108,8|0,2:0|2:0,2:0:0:0:
300,360,37922,6,0,L|286:252,1,108,2|0,3:2|3:2,2:0:0:0:
300,243,38159,1,2,2:0:0:0:
315,248,38238,2,0,B|272:278|257:231|205:263,1,108,8|0,2:0|2:0,2:0:0:0:
5,343,38554,6,0,P|72:349|118:372,1,99,2|0,3:2|3:2,2:0:0:0:
82,198,38870,2,0,P|148:229|198:283,1,148.5,8|0,2:0|2:0,2:0:0:0:
193,286,39185,6,0,P|171:243|166:194,1,99,0|0,3:2|3:2,2:0:0:0:
435,172,39501,2,0,B|338:238|286:181|286:181,1,162,8|0,2:0|2:0,2:0:0:0:
286,181,39817,5,2,3:1:0:0:
332,17,39975,1,8,2:0:0:0:
352,39,40054,1,8,2:0:0:0:
364,84,40133,1,8,3:2:0:0:
370,295,40370,1,0,3:2:0:0:
370,295,40449,5,8,3:2:0:0:
331,299,40527,1,8,2:0:0:0:
293,301,40606,1,8,2:0:0:0:
253,304,40685,1,8,2:0:0:0:
189,288,40764,5,8,3:1:0:0:
245,290,40843,1,8,2:1:0:0:
294,321,40922,1,8,2:1:0:0:
323,371,41001,1,8,2:1:0:0:
334,370,42343,6,0,B|330:302|323:238|276:178,1,202.5,6|0,1:0|2:0,2:0:0:0:
173,217,42659,2,0,B|221:228|269:183|252:64,1,202.5,10|0,2:0|2:0,2:0:0:0:
209,0,42975,1,2,1:2:0:0:
213,145,43133,1,0,1:2:0:0:
462,71,43291,2,0,B|388:73|417:120|340:123,1,135,10|0,2:0|2:0,2:0:0:0:
209,141,43606,6,0,B|138:138|162:93|75:97,1,135,2|0,1:2|2:0,2:0:0:0:
342,244,43922,2,2,P|297:139|220:222,1,270,8|0,2:0|3:2,2:1:0:0:
317,259,44396,1,0,1:2:0:0:
132,201,44554,2,2,P|103:279|49:215,1,202.5,8|0,2:0|2:0,2:1:0:0:
45,211,44870,6,0,B|3:289|81:278|39:367,1,162,0|0,1:2|2:0,2:0:0:0:
14,360,45185,1,8,2:0:0:0:
76,98,45501,1,0,1:2:0:0:
20,141,45659,1,0,1:2:0:0:
173,111,45817,2,0,P|147:125|18:123,1,135,10|0,2:0|2:0,2:0:0:0:
0,18,46133,5,2,1:2:0:0:
126,213,46291,1,8,2:0:0:0:
153,206,46370,1,2,2:0:0:0:
245,66,46527,1,0,2:0:0:0:
274,74,46606,2,0,B|333:90|333:90|439:86,1,162,10|0,2:0|2:0,2:0:0:0:
447,57,46922,2,0,L|346:61,1,90,2|8,1:2|2:0,2:0:0:0:
247,150,47238,1,2,1:2:0:0:
83,124,47396,6,0,P|140:135|152:241,1,162,0|0,1:2|2:0,2:0:0:0:
221,283,47712,2,0,B|136:238|79:260|78:289,1,162,8|0,2:0|2:0,2:0:0:0:
137,346,48027,1,0,1:2:0:0:
8,245,48185,1,0,1:2:0:0:
159,230,48343,2,0,B|211:231|240:178|280:177,1,135,10|0,2:0|2:0,2:0:0:0:
423,181,48659,5,2,1:2:0:0:
354,16,48817,2,0,B|344:41|344:41|347:86,1,67.5,8|2,2:0|2:0,2:0:0:0:
286,191,49054,1,0,2:0:0:0:
301,200,49133,2,0,B|311:225|311:225|305:367,1,162,10|0,2:0|2:0,2:0:0:0:
278,365,49449,2,0,L|281:275,1,90,2|8,1:2|2:0,2:0:0:0:
205,162,49764,1,2,1:2:0:0:
36,64,49922,6,0,B|77:60|107:92|107:92|117:232,1,202.5,2|0,1:0|2:0,2:0:0:0:
87,281,50238,1,8,2:0:0:0:
40,145,50396,1,8,2:0:0:0:
266,48,50554,2,0,B|257:170|257:170|227:202|186:198,1,202.5,2|0,1:0|2:0,2:0:0:0:
190,107,50870,2,0,B|275:114|230:157|340:163,1,135,8|0,2:0|2:0,2:0:0:0:
458,165,51185,2,0,P|405:166|371:206,1,108,2|0,1:0|2:0,2:0:0:0:
349,291,51501,1,8,2:0:0:0:
358,82,51659,1,0,2:0:0:0:
448,281,51817,1,10,1:0:0:0:
260,360,51975,5,8,2:0:0:0:
207,352,52054,1,8,2:0:0:0:
180,320,52133,1,8,2:0:0:0:
157,294,52212,1,8,2:0:0:0:
118,289,52291,1,8,2:0:0:0:
82,304,52370,1,8,2:0:0:0:
64,330,52449,6,0,B|83:371|172:278|80:172,1,202.5,6|0,1:0|2:0,2:0:0:0:
3,203,52764,2,0,B|52:236|109:108|65:48,1,202.5,10|0,2:0|2:0,2:0:0:0:
8,3,53080,1,2,1:2:0:0:
112,95,53238,1,0,1:2:0:0:
269,0,53396,2,0,B|234:11|234:11|215:66|261:105,1,135,10|0,2:0|2:0,2:0:0:0:
437,150,53712,6,0,B|469:167|469:167|478:225|426:255,1,135,2|0,1:2|2:0,2:0:0:0:
388,16,54027,2,2,B|273:68|417:236|286:262,1,270,8|0,2:0|3:2,2:1:0:0:
424,280,54501,1,0,1:2:0:0:
270,192,54659,2,2,B|188:204|256:334|168:345,1,202.5,8|0,2:0|2:0,2:1:0:0:
164,340,54975,6,0,P|248:308|305:346,1,162,0|0,1:2|2:0,2:0:0:0:
317,365,55291,1,8,2:0:0:0:
133,101,55606,1,0,1:2:0:0:
182,44,55764,1,0,1:2:0:0:
161,172,55922,2,0,P|164:101|145:37,1,135,10|0,2:0|2:0,2:0:0:0:
0,0,56238,5,2,1:2:0:0:
84,184,56396,1,8,2:0:0:0:
95,213,56475,1,2,2:0:0:0:
243,185,56633,1,0,2:0:0:0:
232,214,56712,2,0,P|234:285|342:339,1,162,10|0,2:0|2:0,2:0:0:0:
331,329,57027,2,0,P|308:297|264:276,1,90,2|8,1:2|2:0,2:0:0:0:
97,283,57343,1,2,1:2:0:0:
0,138,57501,6,0,P|84:184|157:163,1,162,0|0,1:2|2:0,2:0:0:0:
182,70,57817,2,0,B|234:57|271:108|237:197,1,162,8|0,2:0|2:0,2:0:0:0:
185,233,58133,1,0,1:2:0:0:
115,103,58291,1,0,1:2:0:0:
258,212,58449,2,0,P|316:185|328:117,1,135,10|0,2:0|2:0,2:0:0:0:
259,6,58764,5,2,1:2:0:0:
410,126,58922,2,0,B|424:119|424:119|480:126,1,67.5,8|2,2:0|2:0,2:0:0:0:
512,276,59159,1,0,2:0:0:0:
493,284,59238,2,0,B|474:291|474:291|320:276,1,162,10|0,2:0|2:0,2:0:0:0:
313,305,59554,2,0,L|425:318,1,90,2|8,1:2|2:0,2:0:0:0:
450,206,59870,1,2,1:2:0:0:
289,204,60027,6,0,B|166:217|246:270|76:273,1,202.5,2|0,1:0|2:0,2:0:0:0:
55,337,60343,1,8,2:0:0:0:
222,365,60501,1,8,2:0:0:0:
151,151,60659,2,0,B|164:274|217:194|220:364,1,202.5,2|0,1:0|2:0,2:0:0:0:
168,291,60975,2,0,P|208:232|224:158,1,135,8|0,2:0|2:0,2:0:0:0:
215,10,61291,5,2,1:0:0:0:
356,85,61449,1,8,2:0:0:0:
328,90,61527,1,8,2:0:0:0:
302,119,61606,1,8,1:2:0:0:
488,217,61764,1,8,2:0:0:0:
456,183,61843,1,8,2:0:0:0:
433,176,61922,2,0,L|377:175,3,54,10|8|8|8,1:0|2:1|2:1|2:1,2:0:0:0:
364,159,62238,1,0,2:0:0:0:
492,113,62396,1,14,2:1:0:0:
497,81,62554,5,8,2:1:0:0:
329,236,62712,1,0,1:2:0:0:
397,340,62870,2,0,B|396:315|383:278|293:264,1,135,0|8,1:2|2:1,2:0:0:0:
239,318,63106,1,8,2:0:0:0:
244,330,63185,1,8,1:2:0:0:
297,166,63343,1,0,1:2:0:0:
268,351,63501,1,8,2:1:0:0:
78,293,63659,6,2,B|100:244|168:256|190:303|137:392,1,202.5,0|0,1:2|3:2,2:1:0:0:
74,297,63975,2,0,P|61:234|127:181,1,135,10|0,2:1|3:2,2:0:0:0:
266,215,64291,1,0,1:2:0:0:
150,12,64449,2,0,B|182:26|191:52|191:52|184:166,1,135,8|0,2:1|1:2,2:0:0:0:
184,216,64685,1,8,2:0:0:0:
178,205,64764,1,8,2:1:0:0:
360,136,64922,6,0,B|410:87|340:8|255:45|254:208,1,270,4|0,1:0|3:2,2:0:0:0:
375,384,65396,2,0,B|398:373|407:354|407:354|375:239,1,135,0|8,1:2|2:1,2:0:0:0:
316,234,65633,1,8,2:0:0:0:
305,245,65712,1,8,1:2:0:0:
124,368,65870,2,0,B|243:357|186:287|293:274,1,202.5,0|0,1:2|2:0,2:0:0:0:
305,352,66185,6,0,B|185:362|229:283|121:289,1,202.5,2|0,1:0|3:2,2:0:0:0:
37,299,66501,1,8,2:1:0:0:
48,384,66659,1,0,1:2:0:0:
83,226,66817,1,0,1:2:0:0:
16,68,66975,2,0,B|118:51|59:182|173:166,1,202.5,8|0,2:1|3:2,2:0:0:0:
18,145,67291,1,8,2:1:0:0:
215,8,67449,1,10,1:0:0:0:
215,8,67527,1,8,1:2:0:0:
215,8,67606,6,0,P|295:1|248:245,1,405,4|8,2:1|2:1,2:0:0:0:
321,45,68238,2,0,P|368:103|349:158,1,135,0|0,1:2|1:2,2:0:0:0:
217,235,68554,1,8,2:1:0:0:
418,312,68712,6,2,B|407:286|382:274|382:274|300:270,1,135,0|0,1:2|3:2,2:1:0:0:
212,325,68949,1,8,2:0:0:0:
229,355,69027,2,0,L|90:338,1,135,10|0,2:1|3:2,2:0:0:0:
0,198,69343,6,2,B|13:174|40:165|40:165|119:171,1,117,0|8,1:2|2:1,2:1:0:0:
180,97,69580,1,8,2:0:0:0:
169,76,69659,2,0,L|293:88,1,117,2|8,1:0|2:1,2:0:0:0:
181,176,69975,1,0,1:2:0:0:
378,122,70133,6,2,P|304:113|286:243,1,234,12|0,1:0|3:2,2:1:0:0:
381,152,70606,1,8,2:1:0:0:
448,323,70764,2,2,P|444:243|365:253,1,180,4|8,1:2|3:1,2:1:0:0:
363,336,71238,1,8,1:2:0:0:
363,336,71317,1,8,1:2:0:0:
363,336,71396,5,2,1:0:0:0:
512,191,71554,1,8,2:1:0:0:
495,111,71712,1,8,2:1:0:0:
232,189,71870,1,12,1:3:0:0:
309,195,72027,1,8,2:3:0:0:
236,158,72185,1,4,1:3:0:0:
9,69,72343,1,12,2:1:0:0:
13,73,72659,6,0,B|49:145|167:125|199:94,1,202.5,6|0,1:0|2:0,2:0:0:0:
309,40,72975,2,0,B|271:5|183:52|232:170,1,202.5,10|0,2:0|2:0,2:0:0:0:
297,202,73291,1,2,1:2:0:0:
115,155,73449,1,0,1:2:0:0:
90,347,73606,2,0,P|127:290|145:225,1,135,10|0,2:0|2:0,2:0:0:0:
374,243,73922,6,0,P|377:175|360:110,1,135,2|0,1:2|2:0,2:0:0:0:
133,196,74238,2,2,B|299:199|225:270|399:271,1,270,8|0,2:0|3:2,2:1:0:0:
328,155,74712,1,0,1:2:0:0:
216,316,74870,2,2,B|88:328|162:375|31:384,1,202.5,8|0,2:0|2:0,2:1:0:0:
36,384,75185,6,0,P|103:369|67:275,1,162,0|0,1:2|2:0,2:0:0:0:
27,309,75501,1,8,2:0:0:0:
272,366,75817,1,0,1:2:0:0:
322,316,75975,1,0,1:2:0:0:
212,320,76133,2,0,P|276:336|347:343,1,135,10|0,2:0|2:0,2:0:0:0:
512,323,76449,5,2,1:2:0:0:
300,217,76606,1,8,2:0:0:0:
290,245,76685,1,2,2:0:0:0:
410,134,76843,1,0,2:0:0:0:
400,106,76922,2,0,P|406:39|503:17,1,162,10|0,2:0|2:0,2:0:0:0:
511,28,77238,2,0,P|470:44|425:41,1,90,2|8,1:2|2:0,2:0:0:0:
283,0,77554,1,2,1:2:0:0:
206,156,77712,6,0,B|237:87|169:65|214:-4,1,162,0|0,1:2|2:0,2:0:0:0:
229,135,78027,2,0,B|251:200|253:278|216:292,1,162,8|0,2:0|2:0,2:0:0:0:
167,238,78343,1,0,1:2:0:0:
312,147,78501,1,0,1:2:0:0:
417,273,78659,2,0,P|391:223|301:251,1,135,10|0,2:0|2:0,2:0:0:0:
265,349,78975,5,2,1:2:0:0:
87,305,79133,2,0,B|98:317|98:317|188:309,1,67.5,8|2,2:0|2:0,2:0:0:0:
232,188,79370,1,0,2:0:0:0:
226,174,79449,2,0,B|205:156|205:156|38:147,1,162,10|0,2:0|2:0,2:0:0:0:
53,123,79764,2,0,L|142:129,1,90,2|8,1:2|2:0,2:0:0:0:
301,146,80080,1,2,1:2:0:0:
368,323,80238,6,0,P|334:285|405:189,1,162,2|0,1:0|2:0,2:1:0:0:
484,209,80554,2,0,P|435:231|383:222,1,108,8|0,2:0|2:0,2:0:0:0:
316,68,80870,6,0,B|266:63|243:89|244:93|246:99|216:132|173:126,1,162,2|0,1:0|2:0,2:0:0:0:
111,82,81185,1,8,2:0:0:0:
297,150,81343,1,0,1:2:0:0:
408,18,81501,5,10,1:0:0:0:
398,55,81580,1,8,2:0:0:0:
395,93,81659,1,8,2:0:0:0:
400,131,81738,1,8,2:0:0:0:
409,169,81817,1,8,2:0:0:0:
416,207,81896,1,8,2:0:0:0:
416,245,81975,1,8,2:0:0:0:
411,283,82054,1,8,2:0:0:0:
481,270,82133,5,10,1:0:0:0:
428,239,82212,1,8,2:1:0:0:
369,243,82291,1,8,2:1:0:0:
323,281,82370,1,8,2:1:0:0:
307,339,82449,1,8,1:0:0:0:
329,359,82764,6,0,P|349:309|341:256,1,108,14|0,2:1|3:2,2:0:0:0:
310,161,83080,1,0,1:2:0:0:
414,6,83238,2,0,P|388:52|387:106,1,108,8|0,2:1|3:2,2:0:0:0:
423,210,83554,1,0,1:2:0:0:
287,141,83712,2,0,P|223:134|175:166,1,108,8|0,2:1|3:2,2:0:0:0:
123,296,84027,1,0,1:2:0:0:
0,181,84185,2,0,P|69:177|101:198,1,108,8|0,2:1|3:2,2:0:0:0:
177,377,84501,1,0,1:2:0:0:
120,99,84659,1,8,2:1:0:0:
99,77,84975,6,2,B|153:109|182:57|234:85,1,135,8|6,2:3|2:1,2:1:0:0:
256,192,85310,12,0,88212,1:0:0:0:
15,36,88449,6,2,B|19:17|19:17|45:55|25:82,1,90,2|0,2:1|2:0,2:1:0:0:
