osu file format v14

[General]
AudioFilename: OP.ogg
AudioLeadIn: 2
PreviewTime: 42229
Countdown: 0
SampleSet: Normal
StackLeniency: 0.7
Mode: 3
LetterboxInBreaks: 0
SpecialStyle: 0
WidescreenStoryboard: 1

[Editor]
DistanceSpacing: 0.8
BeatDivisor: 8
GridSize: 8
TimelineZoom: 3

[Metadata]
Title:traumerei
TitleUnicode:träumerei
Artist:LiSA
ArtistUnicode:LiSA
Creator:FelipeLink
Version:SHD
Source:
Tags:traumerei
BeatmapID:1189254
BeatmapSetID:562520

[Difficulty]
HPDrainRate:5
CircleSize:4
OverallDifficulty:7
ApproachRate:10
SliderMultiplier:1.4
SliderTickRate:1

[Events]
//Background and Video events
0,0,"IMG_0003_zpsbb6decc9.jpg",0,0
//Break Periods
//Storyboard Layer 0 (Background)
//Storyboard Layer 1 (Fail)
//Storyboard Layer 2 (Pass)
//Storyboard Layer 3 (Foreground)
//Storyboard Sound Samples

[TimingPoints]
4454,315.7895,4,1,0,20,1,0

[HitObjects]
448,192,4454,5,0,0:0:0:0:
64,192,4454,1,0,0:0:0:0:
320,192,4454,1,0,0:0:0:0:
192,192,4611,1,0,0:0:0:0:
320,192,4611,1,0,0:0:0:0:
448,192,4769,1,0,0:0:0:0:
64,192,4769,1,0,0:0:0:0:
448,192,4927,1,0,0:0:0:0:
320,192,4927,1,0,0:0:0:0:
192,192,4927,1,0,0:0:0:0:
320,192,5085,1,0,0:0:0:0:
64,192,5085,1,0,0:0:0:0:
448,192,5243,1,0,0:0:0:0:
64,192,5401,1,0,0:0:0:0:
320,192,5401,1,0,0:0:0:0:
192,192,5401,1,0,0:0:0:0:
192,192,5559,1,0,0:0:0:0:
448,192,5559,1,0,0:0:0:0:
320,192,5717,1,0,0:0:0:0:
64,192,5717,1,0,0:0:0:0:
448,192,5875,1,0,0:0:0:0:
320,192,5875,1,0,0:0:0:0:
192,192,5875,1,0,0:0:0:0:
192,192,6032,1,0,0:0:0:0:
448,192,6032,1,0,0:0:0:0:
64,192,6190,1,0,0:0:0:0:
192,192,6348,1,0,0:0:0:0:
448,192,6348,1,0,0:0:0:0:
320,192,6348,1,0,0:0:0:0:
320,192,6506,1,0,0:0:0:0:
64,192,6506,1,0,0:0:0:0:
192,192,6664,1,0,0:0:0:0:
448,192,6664,1,0,0:0:0:0:
320,192,6664,1,0,0:0:0:0:
64,192,6822,1,0,0:0:0:0:
448,192,6822,1,0,0:0:0:0:
320,192,6980,1,0,0:0:0:0:
192,192,6980,1,0,0:0:0:0:
64,192,6980,1,0,0:0:0:0:
448,192,7138,1,0,0:0:0:0:
64,192,7296,1,0,0:0:0:0:
448,192,7296,1,0,0:0:0:0:
192,192,7454,1,0,0:0:0:0:
320,192,7454,1,0,0:0:0:0:
448,192,7454,1,0,0:0:0:0:
64,192,7611,1,0,0:0:0:0:
320,192,7611,1,0,0:0:0:0:
64,192,7769,1,0,0:0:0:0:
448,192,7769,1,0,0:0:0:0:
192,192,7927,1,0,0:0:0:0:
320,192,7927,1,0,0:0:0:0:
448,192,7927,1,0,0:0:0:0:
64,192,8085,1,0,0:0:0:0:
192,192,8243,1,0,0:0:0:0:
448,192,8243,1,0,0:0:0:0:
320,192,8401,1,0,0:0:0:0:
192,192,8401,1,0,0:0:0:0:
64,192,8401,1,0,0:0:0:0:
448,192,8559,1,0,0:0:0:0:
64,192,8559,1,0,0:0:0:0:
192,192,8717,1,0,0:0:0:0:
448,192,8717,1,0,0:0:0:0:
320,192,8875,1,0,0:0:0:0:
64,192,8875,1,0,0:0:0:0:
448,192,9032,1,0,0:0:0:0:
64,192,9190,1,0,0:0:0:0:
448,192,9190,1,0,0:0:0:0:
320,192,9243,1,0,0:0:0:0:
192,192,9296,1,0,0:0:0:0:
64,192,9296,1,0,0:0:0:0:
320,192,9348,1,0,0:0:0:0:
64,192,9401,1,0,0:0:0:0:
448,192,9401,1,0,0:0:0:0:
192,192,9454,1,0,0:0:0:0:
320,192,9506,1,0,0:0:0:0:
448,192,9506,1,0,0:0:0:0:
64,192,9559,1,0,0:0:0:0:
192,192,9611,1,0,0:0:0:0:
448,192,9664,1,0,0:0:0:0:
192,192,9822,1,0,0:0:0:0:
64,192,9822,1,0,0:0:0:0:
320,192,9861,1,0,0:0:0:0:
448,192,9901,1,0,0:0:0:0:
64,192,9940,1,0,0:0:0:0:
192,192,9980,1,0,0:0:0:0:
448,192,10019,1,0,0:0:0:0:
64,192,10059,1,0,0:0:0:0:
320,192,10098,1,0,0:0:0:0:
192,192,10138,1,0,0:0:0:0:
448,192,10177,1,0,0:0:0:0:
64,192,10217,1,0,0:0:0:0:
320,192,10256,1,0,0:0:0:0:
192,192,10296,1,0,0:0:0:0:
448,192,10335,1,0,0:0:0:0:
64,192,10375,1,0,0:0:0:0:
192,192,10414,1,0,0:0:0:0:
448,192,10454,1,0,0:0:0:0:
64,192,10572,1,0,0:0:0:0:
448,192,10611,1,0,0:0:0:0:
320,192,10651,1,0,0:0:0:0:
192,192,10690,1,0,0:0:0:0:
64,192,10730,1,0,0:0:0:0:
448,192,10769,1,0,0:0:0:0:
320,192,10769,1,0,0:0:0:0:
192,192,10927,1,0,0:0:0:0:
448,192,10927,1,0,0:0:0:0:
64,192,10980,1,0,0:0:0:0:
320,192,11032,1,0,0:0:0:0:
192,192,11085,1,0,0:0:0:0:
64,192,11085,1,0,0:0:0:0:
448,192,11138,1,0,0:0:0:0:
192,192,11190,1,0,0:0:0:0:
320,192,11243,1,0,0:0:0:0:
448,192,11296,1,0,0:0:0:0:
192,192,11348,1,0,0:0:0:0:
320,192,11401,1,0,0:0:0:0:
448,192,11401,1,0,0:0:0:0:
64,192,11454,1,0,0:0:0:0:
320,192,11506,1,0,0:0:0:0:
448,192,11559,1,0,0:0:0:0:
64,192,11611,1,0,0:0:0:0:
320,192,11664,1,0,0:0:0:0:
192,192,11717,1,0,0:0:0:0:
448,192,11717,1,0,0:0:0:0:
320,192,11875,1,0,0:0:0:0:
64,192,11875,1,0,0:0:0:0:
192,192,12032,1,0,0:0:0:0:
320,192,12032,1,0,0:0:0:0:
448,192,12032,1,0,0:0:0:0:
64,192,12085,1,0,0:0:0:0:
320,192,12138,1,0,0:0:0:0:
448,192,12190,1,0,0:0:0:0:
192,192,12190,1,0,0:0:0:0:
64,192,12243,1,0,0:0:0:0:
320,192,12296,1,0,0:0:0:0:
192,192,12348,1,0,0:0:0:0:
64,192,12348,1,0,0:0:0:0:
448,192,12401,1,0,0:0:0:0:
192,192,12454,1,0,0:0:0:0:
320,192,12506,1,0,0:0:0:0:
64,192,12506,1,0,0:0:0:0:
448,192,12559,1,0,0:0:0:0:
192,192,12611,1,0,0:0:0:0:
320,192,12664,1,0,0:0:0:0:
448,192,12664,1,0,0:0:0:0:
64,192,12717,1,0,0:0:0:0:
320,192,12769,1,0,0:0:0:0:
192,192,12822,1,0,0:0:0:0:
448,192,12875,1,0,0:0:0:0:
64,192,12927,1,0,0:0:0:0:
192,192,12980,1,0,0:0:0:0:
320,192,12980,1,0,0:0:0:0:
64,192,13138,1,0,0:0:0:0:
448,192,13138,1,0,0:0:0:0:
320,192,13190,1,0,0:0:0:0:
192,192,13243,1,0,0:0:0:0:
448,192,13296,1,0,0:0:0:0:
64,192,13348,1,0,0:0:0:0:
192,192,13401,1,0,0:0:0:0:
448,192,13454,1,0,0:0:0:0:
320,192,13454,1,0,0:0:0:0:
64,192,13506,1,0,0:0:0:0:
192,192,13559,1,0,0:0:0:0:
448,192,13611,1,0,0:0:0:0:
320,192,13664,1,0,0:0:0:0:
64,192,13717,1,0,0:0:0:0:
448,192,13769,1,0,0:0:0:0:
192,192,13822,1,0,0:0:0:0:
320,192,13875,1,0,0:0:0:0:
192,192,13927,1,0,0:0:0:0:
448,192,13927,1,0,0:0:0:0:
64,192,13927,1,0,0:0:0:0:
320,192,13980,1,0,0:0:0:0:
64,192,14032,1,0,0:0:0:0:
448,192,14085,1,0,0:0:0:0:
192,192,14138,1,0,0:0:0:0:
64,192,14190,1,0,0:0:0:0:
320,192,14243,1,0,0:0:0:0:
448,192,14243,1,0,0:0:0:0:
192,192,14296,1,0,0:0:0:0:
448,192,14348,1,0,0:0:0:0:
64,192,14401,1,0,0:0:0:0:
320,192,14454,1,0,0:0:0:0:
192,192,14506,1,0,0:0:0:0:
320,192,14559,1,0,0:0:0:0:
64,192,14559,1,0,0:0:0:0:
448,192,14611,1,0,0:0:0:0:
192,192,14664,1,0,0:0:0:0:
320,192,14717,1,0,0:0:0:0:
64,192,14769,1,0,0:0:0:0:
448,192,14822,1,0,0:0:0:0:
192,192,14875,1,0,0:0:0:0:
320,192,14875,1,0,0:0:0:0:
64,192,14914,1,0,0:0:0:0:
448,192,14954,1,0,0:0:0:0:
320,192,14993,1,0,0:0:0:0:
192,192,15032,1,0,0:0:0:0:
64,192,15072,1,0,0:0:0:0:
448,192,15111,1,0,0:0:0:0:
192,192,15151,1,0,0:0:0:0:
320,192,15190,1,0,0:0:0:0:
64,192,15230,1,0,0:0:0:0:
448,192,15269,1,0,0:0:0:0:
192,192,15309,1,0,0:0:0:0:
64,192,15348,1,0,0:0:0:0:
448,192,15388,1,0,0:0:0:0:
320,192,15427,1,0,0:0:0:0:
192,192,15467,1,0,0:0:0:0:
64,192,15506,1,0,0:0:0:0:
448,192,15546,1,0,0:0:0:0:
192,192,15585,1,0,0:0:0:0:
320,192,15625,1,0,0:0:0:0:
192,192,15664,1,0,0:0:0:0:
448,192,15664,1,0,0:0:0:0:
320,192,15822,1,0,0:0:0:0:
448,192,15822,1,0,0:0:0:0:
64,192,15822,1,0,0:0:0:0:
192,192,15875,1,0,0:0:0:0:
448,192,15927,1,0,0:0:0:0:
192,192,15980,1,0,0:0:0:0:
320,192,15980,1,0,0:0:0:0:
64,192,16032,1,0,0:0:0:0:
448,192,16085,1,0,0:0:0:0:
320,192,16138,1,0,0:0:0:0:
192,192,16138,1,0,0:0:0:0:
64,192,16190,1,0,0:0:0:0:
320,192,16243,1,0,0:0:0:0:
64,192,16296,1,0,0:0:0:0:
448,192,16296,1,0,0:0:0:0:
192,192,16348,1,0,0:0:0:0:
320,192,16401,1,0,0:0:0:0:
192,192,16454,1,0,0:0:0:0:
448,192,16454,1,0,0:0:0:0:
64,192,16506,1,0,0:0:0:0:
320,192,16559,1,0,0:0:0:0:
448,192,16611,1,0,0:0:0:0:
192,192,16611,1,0,0:0:0:0:
64,192,16664,1,0,0:0:0:0:
320,192,16717,1,0,0:0:0:0:
192,192,16769,1,0,0:0:0:0:
64,192,16769,1,0,0:0:0:0:
64,192,16927,1,0,0:0:0:0:
320,192,16927,1,0,0:0:0:0:
320,192,17085,1,0,0:0:0:0:
448,192,17085,1,0,0:0:0:0:
192,192,17085,1,0,0:0:0:0:
64,192,17138,1,0,0:0:0:0:
320,192,17190,1,0,0:0:0:0:
192,192,17243,1,0,0:0:0:0:
64,192,17243,1,0,0:0:0:0:
448,192,17296,1,0,0:0:0:0:
320,192,17348,1,0,0:0:0:0:
192,192,17401,1,0,0:0:0:0:
64,192,17401,1,0,0:0:0:0:
448,192,17454,1,0,0:0:0:0:
192,192,17506,1,0,0:0:0:0:
320,192,17559,1,0,0:0:0:0:
64,192,17611,1,0,0:0:0:0:
192,192,17664,1,0,0:0:0:0:
320,192,17717,1,0,0:0:0:0:
448,192,17717,1,0,0:0:0:0:
64,192,17769,1,0,0:0:0:0:
448,192,17822,1,0,0:0:0:0:
192,192,17875,1,0,0:0:0:0:
320,192,17875,1,0,0:0:0:0:
64,192,17927,1,0,0:0:0:0:
320,192,17980,1,0,0:0:0:0:
192,192,18032,1,0,0:0:0:0:
448,192,18032,1,0,0:0:0:0:
64,192,18085,1,0,0:0:0:0:
448,192,18138,1,0,0:0:0:0:
320,192,18190,1,0,0:0:0:0:
192,192,18190,1,0,0:0:0:0:
64,192,18243,1,0,0:0:0:0:
448,192,18296,1,0,0:0:0:0:
192,192,18348,1,0,0:0:0:0:
320,192,18401,1,0,0:0:0:0:
448,192,18454,1,0,0:0:0:0:
64,192,18506,1,0,0:0:0:0:
320,192,18559,1,0,0:0:0:0:
192,192,18611,1,0,0:0:0:0:
64,192,18664,1,0,0:0:0:0:
448,192,18717,1,0,0:0:0:0:
192,192,18769,1,0,0:0:0:0:
320,192,18822,1,0,0:0:0:0:
448,192,18822,1,0,0:0:0:0:
64,192,18980,1,0,0:0:0:0:
448,192,18980,1,0,0:0:0:0:
320,192,19032,1,0,0:0:0:0:
192,192,19085,1,0,0:0:0:0:
64,192,19085,1,0,0:0:0:0:
320,192,19138,1,0,0:0:0:0:
448,192,19190,1,0,0:0:0:0:
64,192,19190,1,0,0:0:0:0:
192,192,19243,1,0,0:0:0:0:
320,192,19296,1,0,0:0:0:0:
448,192,19296,1,0,0:0:0:0:
64,192,19348,1,0,0:0:0:0:
192,192,19401,1,0,0:0:0:0:
320,192,19401,1,0,0:0:0:0:
448,192,19454,1,0,0:0:0:0:
192,192,19506,1,0,0:0:0:0:
64,192,19506,1,0,0:0:0:0:
448,192,19559,1,0,0:0:0:0:
320,192,19611,1,0,0:0:0:0:
192,192,19611,1,0,0:0:0:0:
64,192,19664,1,0,0:0:0:0:
448,192,19717,1,0,0:0:0:0:
192,192,19769,1,0,0:0:0:0:
320,192,19822,1,0,0:0:0:0:
64,192,19875,1,0,0:0:0:0:
448,192,19927,1,0,0:0:0:0:
192,192,19927,1,0,0:0:0:0:
320,192,19967,1,0,0:0:0:0:
64,192,20006,1,0,0:0:0:0:
448,192,20046,1,0,0:0:0:0:
192,192,20085,1,0,0:0:0:0:
320,192,20125,1,0,0:0:0:0:
64,192,20164,1,0,0:0:0:0:
448,192,20204,1,0,0:0:0:0:
320,192,20243,1,0,0:0:0:0:
192,192,20282,1,0,0:0:0:0:
64,192,20322,1,0,0:0:0:0:
448,192,20361,1,0,0:0:0:0:
192,192,20401,1,0,0:0:0:0:
320,192,20440,1,0,0:0:0:0:
64,192,20480,1,0,0:0:0:0:
448,192,20519,1,0,0:0:0:0:
192,192,20559,1,0,0:0:0:0:
320,192,20598,1,0,0:0:0:0:
448,192,20638,1,0,0:0:0:0:
64,192,20677,1,0,0:0:0:0:
320,192,20717,1,0,0:0:0:0:
192,192,20717,1,0,0:0:0:0:
192,192,21032,1,0,0:0:0:0:
320,192,21032,1,0,0:0:0:0:
448,192,21085,1,0,0:0:0:0:
64,192,21138,1,0,0:0:0:0:
192,192,21190,1,0,0:0:0:0:
320,192,21190,1,0,0:0:0:0:
448,192,21243,1,0,0:0:0:0:
192,192,21296,1,0,0:0:0:0:
448,192,21348,1,0,0:0:0:0:
64,192,21348,1,0,0:0:0:0:
320,192,21401,1,0,0:0:0:0:
192,192,21454,1,0,0:0:0:0:
320,192,21506,1,0,0:0:0:0:
64,192,21506,1,0,0:0:0:0:
448,192,21559,1,0,0:0:0:0:
192,192,21611,1,0,0:0:0:0:
64,192,21664,1,0,0:0:0:0:
448,192,21664,1,0,0:0:0:0:
320,192,21717,1,0,0:0:0:0:
64,192,21769,1,0,0:0:0:0:
448,192,21822,1,0,0:0:0:0:
320,192,21822,1,0,0:0:0:0:
192,192,21875,1,0,0:0:0:0:
448,192,21927,1,0,0:0:0:0:
320,192,21980,1,0,0:0:0:0:
64,192,21980,1,0,0:0:0:0:
192,192,22032,1,0,0:0:0:0:
448,192,22085,1,0,0:0:0:0:
64,192,22296,1,0,0:0:0:0:
192,192,22296,1,0,0:0:0:0:
448,192,22348,1,0,0:0:0:0:
320,192,22401,1,0,0:0:0:0:
192,192,22454,1,0,0:0:0:0:
64,192,22454,1,0,0:0:0:0:
448,192,22506,1,0,0:0:0:0:
192,192,22559,1,0,0:0:0:0:
320,192,22611,1,0,0:0:0:0:
64,192,22664,1,0,0:0:0:0:
192,192,22717,1,0,0:0:0:0:
448,192,22769,1,0,0:0:0:0:
320,192,22769,1,0,0:0:0:0:
64,192,22822,1,0,0:0:0:0:
448,192,22875,1,0,0:0:0:0:
192,192,22927,1,0,0:0:0:0:
320,192,23085,1,0,0:0:0:0:
448,192,23085,1,0,0:0:0:0:
64,192,23138,1,0,0:0:0:0:
320,192,23190,1,0,0:0:0:0:
448,192,23243,1,0,0:0:0:0:
192,192,23243,1,0,0:0:0:0:
64,192,23296,1,0,0:0:0:0:
320,192,23348,1,0,0:0:0:0:
192,192,23401,1,0,0:0:0:0:
64,192,23559,1,0,0:0:0:0:
448,192,23559,1,0,0:0:0:0:
320,192,23598,1,0,0:0:0:0:
192,192,23638,1,0,0:0:0:0:
448,192,23677,1,0,0:0:0:0:
64,192,23717,1,0,0:0:0:0:
192,192,23756,1,0,0:0:0:0:
320,192,23796,1,0,0:0:0:0:
448,192,23835,1,0,0:0:0:0:
64,192,23875,1,0,0:0:0:0:
320,192,23914,1,0,0:0:0:0:
192,192,23954,1,0,0:0:0:0:
448,192,23993,1,0,0:0:0:0:
320,192,24032,1,0,0:0:0:0:
192,192,24348,1,0,0:0:0:0:
64,192,24348,1,0,0:0:0:0:
448,192,24401,1,0,0:0:0:0:
192,192,24454,1,0,0:0:0:0:
320,192,24506,1,0,0:0:0:0:
64,192,24559,1,0,0:0:0:0:
448,192,24611,1,0,0:0:0:0:
320,192,24664,1,0,0:0:0:0:
192,192,24664,1,0,0:0:0:0:
64,192,24717,1,0,0:0:0:0:
448,192,24769,1,0,0:0:0:0:
192,192,24822,1,0,0:0:0:0:
448,192,24875,1,0,0:0:0:0:
64,192,24927,1,0,0:0:0:0:
192,192,24980,1,0,0:0:0:0:
448,192,24980,1,0,0:0:0:0:
320,192,25019,1,0,0:0:0:0:
64,192,25059,1,0,0:0:0:0:
448,192,25098,1,0,0:0:0:0:
192,192,25138,1,0,0:0:0:0:
320,192,25177,1,0,0:0:0:0:
64,192,25217,1,0,0:0:0:0:
192,192,25256,1,0,0:0:0:0:
320,192,25296,1,0,0:0:0:0:
448,192,25335,1,0,0:0:0:0:
64,192,25375,1,0,0:0:0:0:
320,192,25414,1,0,0:0:0:0:
192,192,25454,1,0,0:0:0:0:
64,192,25493,1,0,0:0:0:0:
448,192,25532,1,0,0:0:0:0:
320,192,25572,1,0,0:0:0:0:
192,192,25611,1,0,0:0:0:0:
320,192,26085,1,0,0:0:0:0:
192,192,26085,1,0,0:0:0:0:
448,192,26138,1,0,0:0:0:0:
64,192,26190,1,0,0:0:0:0:
192,192,26243,1,0,0:0:0:0:
320,192,26243,1,0,0:0:0:0:
448,192,26296,1,0,0:0:0:0:
64,192,26348,1,0,0:0:0:0:
448,192,26401,1,0,0:0:0:0:
192,192,26401,1,0,0:0:0:0:
320,192,26454,1,0,0:0:0:0:
64,192,26506,1,0,0:0:0:0:
192,192,26559,1,0,0:0:0:0:
320,192,26559,1,0,0:0:0:0:
448,192,26611,1,0,0:0:0:0:
64,192,26664,1,0,0:0:0:0:
448,192,26717,1,0,0:0:0:0:
320,192,26717,1,0,0:0:0:0:
192,192,26769,1,0,0:0:0:0:
64,192,26822,1,0,0:0:0:0:
448,192,26875,1,0,0:0:0:0:
192,192,26875,1,0,0:0:0:0:
320,192,26927,1,0,0:0:0:0:
64,192,26980,1,0,0:0:0:0:
192,192,27032,1,0,0:0:0:0:
320,192,27032,1,0,0:0:0:0:
448,192,27085,1,0,0:0:0:0:
64,192,27138,1,0,0:0:0:0:
64,192,27348,1,0,0:0:0:0:
320,192,27348,1,0,0:0:0:0:
192,192,27401,1,0,0:0:0:0:
320,192,27454,1,0,0:0:0:0:
64,192,27506,1,0,0:0:0:0:
448,192,27506,1,0,0:0:0:0:
192,192,27559,1,0,0:0:0:0:
448,192,27611,1,0,0:0:0:0:
64,192,27664,1,0,0:0:0:0:
192,192,27664,1,0,0:0:0:0:
320,192,27717,1,0,0:0:0:0:
64,192,27769,1,0,0:0:0:0:
192,192,27822,1,0,0:0:0:0:
448,192,27822,1,0,0:0:0:0:
320,192,27875,1,0,0:0:0:0:
64,192,27927,1,0,0:0:0:0:
320,192,27980,1,0,0:0:0:0:
192,192,27980,1,0,0:0:0:0:
448,192,28032,1,0,0:0:0:0:
320,192,28085,1,0,0:0:0:0:
64,192,28138,1,0,0:0:0:0:
192,192,28138,1,0,0:0:0:0:
448,192,28190,1,0,0:0:0:0:
64,192,28243,1,0,0:0:0:0:
448,192,28296,1,0,0:0:0:0:
320,192,28296,1,0,0:0:0:0:
192,192,28348,1,0,0:0:0:0:
64,192,28401,1,0,0:0:0:0:
448,192,28454,1,0,0:0:0:0:
192,192,28611,1,0,0:0:0:0:
320,192,28611,1,0,0:0:0:0:
448,192,28769,1,0,0:0:0:0:
320,192,28769,1,0,0:0:0:0:
64,192,28769,1,0,0:0:0:0:
448,192,28927,1,0,0:0:0:0:
320,192,28927,1,0,0:0:0:0:
64,192,28980,1,0,0:0:0:0:
192,192,29032,1,0,0:0:0:0:
320,192,29032,1,0,0:0:0:0:
448,192,29085,1,0,0:0:0:0:
320,192,29138,1,0,0:0:0:0:
64,192,29138,1,0,0:0:0:0:
192,192,29190,1,0,0:0:0:0:
448,192,29243,1,0,0:0:0:0:
320,192,29243,1,0,0:0:0:0:
64,192,29296,1,0,0:0:0:0:
192,192,29348,1,0,0:0:0:0:
448,192,29401,1,0,0:0:0:0:
320,192,29401,1,0,0:0:0:0:
64,192,29717,1,0,0:0:0:0:
448,192,29717,1,0,0:0:0:0:
320,192,29717,1,0,0:0:0:0:
192,192,29875,1,0,0:0:0:0:
192,192,30032,1,0,0:0:0:0:
448,192,30032,1,0,0:0:0:0:
192,192,30190,1,0,0:0:0:0:
320,192,30190,1,0,0:0:0:0:
192,192,30348,1,0,0:0:0:0:
448,192,30348,1,0,0:0:0:0:
64,192,30348,1,0,0:0:0:0:
192,192,30506,1,0,0:0:0:0:
192,192,30664,1,0,0:0:0:0:
448,192,30664,1,0,0:0:0:0:
192,192,30822,1,0,0:0:0:0:
192,192,30980,1,0,0:0:0:0:
448,192,30980,1,0,0:0:0:0:
192,192,31138,1,0,0:0:0:0:
192,192,31296,1,0,0:0:0:0:
64,192,31296,1,0,0:0:0:0:
448,192,31296,1,0,0:0:0:0:
192,192,31454,1,0,0:0:0:0:
64,192,31454,1,0,0:0:0:0:
192,192,31611,1,0,0:0:0:0:
448,192,31611,1,0,0:0:0:0:
192,192,31769,1,0,0:0:0:0:
192,192,31927,1,0,0:0:0:0:
320,192,31927,1,0,0:0:0:0:
192,192,32085,1,0,0:0:0:0:
192,192,32243,1,0,0:0:0:0:
320,192,32243,1,0,0:0:0:0:
448,192,32243,1,0,0:0:0:0:
192,192,32401,1,0,0:0:0:0:
192,192,32559,1,0,0:0:0:0:
64,192,32559,1,0,0:0:0:0:
448,192,32559,1,0,0:0:0:0:
192,192,32717,1,0,0:0:0:0:
64,192,32717,1,0,0:0:0:0:
192,192,32875,1,0,0:0:0:0:
320,192,32875,1,0,0:0:0:0:
448,192,32875,1,0,0:0:0:0:
64,192,32875,1,0,0:0:0:0:
192,192,33032,1,0,0:0:0:0:
192,192,33190,1,0,0:0:0:0:
320,192,33190,1,0,0:0:0:0:
448,192,33190,1,0,0:0:0:0:
192,192,33348,1,0,0:0:0:0:
192,192,33506,1,0,0:0:0:0:
320,192,33506,1,0,0:0:0:0:
192,192,33664,1,0,0:0:0:0:
192,192,33822,1,0,0:0:0:0:
448,192,33822,1,0,0:0:0:0:
192,192,33980,1,0,0:0:0:0:
192,192,34138,1,0,0:0:0:0:
64,192,34138,1,0,0:0:0:0:
448,192,34138,1,0,0:0:0:0:
192,192,34296,1,0,0:0:0:0:
192,192,34454,1,0,0:0:0:0:
320,192,34454,1,0,0:0:0:0:
448,192,34454,1,0,0:0:0:0:
192,192,34611,1,0,0:0:0:0:
192,192,34769,1,0,0:0:0:0:
448,192,34769,1,0,0:0:0:0:
64,192,34769,1,0,0:0:0:0:
192,192,34927,1,0,0:0:0:0:
192,192,35085,1,0,0:0:0:0:
64,192,35085,1,0,0:0:0:0:
192,192,35243,1,0,0:0:0:0:
448,192,35243,1,0,0:0:0:0:
192,192,35401,1,0,0:0:0:0:
64,192,35401,1,0,0:0:0:0:
320,192,35401,1,0,0:0:0:0:
192,192,35559,1,0,0:0:0:0:
192,192,35717,1,0,0:0:0:0:
448,192,35717,1,0,0:0:0:0:
192,192,35875,1,0,0:0:0:0:
192,192,36032,1,0,0:0:0:0:
448,192,36032,1,0,0:0:0:0:
192,192,36190,1,0,0:0:0:0:
192,192,36348,1,0,0:0:0:0:
64,192,36348,1,0,0:0:0:0:
448,192,36348,1,0,0:0:0:0:
192,192,36506,1,0,0:0:0:0:
192,192,36664,1,0,0:0:0:0:
448,192,36664,1,0,0:0:0:0:
64,192,36664,1,0,0:0:0:0:
192,192,36822,1,0,0:0:0:0:
192,192,36980,1,0,0:0:0:0:
320,192,36980,1,0,0:0:0:0:
448,192,36980,1,0,0:0:0:0:
64,192,36980,1,0,0:0:0:0:
192,192,37138,1,0,0:0:0:0:
192,192,37296,1,0,0:0:0:0:
64,192,37296,1,0,0:0:0:0:
448,192,37296,1,0,0:0:0:0:
320,192,37348,1,0,0:0:0:0:
192,192,37401,1,0,0:0:0:0:
64,192,37454,1,0,0:0:0:0:
448,192,37506,1,0,0:0:0:0:
192,192,37559,1,0,0:0:0:0:
320,192,37611,1,0,0:0:0:0:
64,192,37611,1,0,0:0:0:0:
448,192,37664,1,0,0:0:0:0:
192,192,37717,1,0,0:0:0:0:
448,192,37769,1,0,0:0:0:0:
320,192,37769,1,0,0:0:0:0:
64,192,37822,1,0,0:0:0:0:
320,192,37875,1,0,0:0:0:0:
192,192,37927,1,0,0:0:0:0:
64,192,37927,1,0,0:0:0:0:
448,192,37980,1,0,0:0:0:0:
192,192,38032,1,0,0:0:0:0:
64,192,38085,1,0,0:0:0:0:
448,192,38138,1,0,0:0:0:0:
192,192,38190,1,0,0:0:0:0:
320,192,38243,1,0,0:0:0:0:
64,192,38243,1,0,0:0:0:0:
448,192,38296,1,0,0:0:0:0:
192,192,38348,1,0,0:0:0:0:
64,192,38401,1,0,0:0:0:0:
448,192,38454,1,0,0:0:0:0:
320,192,38559,1,0,0:0:0:0:
64,192,38559,1,0,0:0:0:0:
192,192,38598,1,0,0:0:0:0:
448,192,38638,1,0,0:0:0:0:
64,192,38677,1,0,0:0:0:0:
192,192,38717,1,0,0:0:0:0:
320,192,38756,1,0,0:0:0:0:
448,192,38796,1,0,0:0:0:0:
64,192,38835,1,0,0:0:0:0:
320,192,38875,1,0,0:0:0:0:
192,192,38914,1,0,0:0:0:0:
448,192,38954,1,0,0:0:0:0:
64,192,38993,1,0,0:0:0:0:
320,192,39032,1,0,0:0:0:0:
192,192,39072,1,0,0:0:0:0:
64,192,39111,1,0,0:0:0:0:
448,192,39151,1,0,0:0:0:0:
192,192,39190,1,0,0:0:0:0:
64,192,39230,1,0,0:0:0:0:
320,192,39269,1,0,0:0:0:0:
192,192,39309,1,0,0:0:0:0:
448,192,39348,1,0,0:0:0:0:
64,192,39388,1,0,0:0:0:0:
320,192,39427,1,0,0:0:0:0:
192,192,39467,1,0,0:0:0:0:
64,192,39506,1,0,0:0:0:0:
448,192,39546,1,0,0:0:0:0:
192,192,39585,1,0,0:0:0:0:
320,192,39625,1,0,0:0:0:0:
64,192,39664,1,0,0:0:0:0:
448,192,39704,1,0,0:0:0:0:
192,192,39743,1,0,0:0:0:0:
320,192,39782,1,0,0:0:0:0:
64,192,39822,1,0,0:0:0:0:
448,192,39822,1,0,0:0:0:0:
320,192,39980,1,0,0:0:0:0:
448,192,39980,1,0,0:0:0:0:
192,192,40032,1,0,0:0:0:0:
64,192,40085,1,0,0:0:0:0:
448,192,40085,1,0,0:0:0:0:
320,192,40138,1,0,0:0:0:0:
64,192,40401,1,0,0:0:0:0:
192,192,40401,1,0,0:0:0:0:
448,192,40454,1,0,0:0:0:0:
320,192,40506,1,0,0:0:0:0:
192,192,40506,1,0,0:0:0:0:
64,192,40559,1,0,0:0:0:0:
192,192,40611,1,0,0:0:0:0:
448,192,40611,1,0,0:0:0:0:
320,192,40664,1,0,0:0:0:0:
64,192,40717,1,0,0:0:0:0:
448,192,40717,1,0,0:0:0:0:
192,192,40769,1,0,0:0:0:0:
320,192,40822,1,0,0:0:0:0:
448,192,40822,1,0,0:0:0:0:
64,192,40875,1,0,0:0:0:0:
192,192,40927,1,0,0:0:0:0:
320,192,40927,1,0,0:0:0:0:
448,192,40980,1,0,0:0:0:0:
64,192,41032,1,0,0:0:0:0:
320,192,41085,1,0,0:0:0:0:
192,192,41085,128,0,41243:0:0:0:0:
448,192,41243,128,0,41401:0:0:0:0:
320,192,41243,1,0,0:0:0:0:
192,192,41401,128,0,41559:0:0:0:0:
320,192,41401,1,0,0:0:0:0:
448,192,41559,128,0,41875:0:0:0:0:
64,192,41559,128,0,41875:0:0:0:0:
320,192,41875,128,0,42190:0:0:0:0:
192,192,41875,128,0,42190:0:0:0:0:
64,192,42348,5,0,0:0:0:0:
448,192,42348,1,0,0:0:0:0:
320,192,42388,1,0,0:0:0:0:
192,192,42427,1,0,0:0:0:0:
448,192,42467,1,0,0:0:0:0:
64,192,42506,1,0,0:0:0:0:
320,192,42546,1,0,0:0:0:0:
192,192,42585,1,0,0:0:0:0:
448,192,42625,1,0,0:0:0:0:
320,192,42664,1,0,0:0:0:0:
64,192,42664,1,0,0:0:0:0:
192,192,42704,1,0,0:0:0:0:
448,192,42743,1,0,0:0:0:0:
320,192,42782,1,0,0:0:0:0:
64,192,42822,1,0,0:0:0:0:
192,192,42861,1,0,0:0:0:0:
320,192,42901,1,0,0:0:0:0:
448,192,42940,1,0,0:0:0:0:
64,192,42980,1,0,0:0:0:0:
192,192,42980,1,0,0:0:0:0:
320,192,43019,1,0,0:0:0:0:
448,192,43059,1,0,0:0:0:0:
64,192,43098,1,0,0:0:0:0:
320,192,43138,1,0,0:0:0:0:
192,192,43177,1,0,0:0:0:0:
64,192,43217,1,0,0:0:0:0:
320,192,43256,1,0,0:0:0:0:
448,192,43296,1,0,0:0:0:0:
192,192,43296,1,0,0:0:0:0:
64,192,43335,1,0,0:0:0:0:
320,192,43375,1,0,0:0:0:0:
192,192,43414,1,0,0:0:0:0:
448,192,43454,1,0,0:0:0:0:
64,192,43493,1,0,0:0:0:0:
320,192,43532,1,0,0:0:0:0:
192,192,43572,1,0,0:0:0:0:
448,192,43611,1,0,0:0:0:0:
64,192,43611,1,0,0:0:0:0:
320,192,43651,1,0,0:0:0:0:
192,192,43690,1,0,0:0:0:0:
448,192,43730,1,0,0:0:0:0:
64,192,43769,1,0,0:0:0:0:
320,192,43809,1,0,0:0:0:0:
192,192,43848,1,0,0:0:0:0:
64,192,43888,1,0,0:0:0:0:
320,192,43927,1,0,0:0:0:0:
448,192,43927,1,0,0:0:0:0:
192,192,43967,1,0,0:0:0:0:
64,192,44006,1,0,0:0:0:0:
448,192,44046,1,0,0:0:0:0:
192,192,44085,1,0,0:0:0:0:
320,192,44125,1,0,0:0:0:0:
64,192,44164,1,0,0:0:0:0:
192,192,44204,1,0,0:0:0:0:
448,192,44243,1,0,0:0:0:0:
320,192,44282,1,0,0:0:0:0:
64,192,44322,1,0,0:0:0:0:
448,192,44361,1,0,0:0:0:0:
192,192,44401,1,0,0:0:0:0:
64,192,44559,1,0,0:0:0:0:
320,192,44559,1,0,0:0:0:0:
448,192,44611,1,0,0:0:0:0:
192,192,44664,1,0,0:0:0:0:
320,192,44664,1,0,0:0:0:0:
64,192,44717,1,0,0:0:0:0:
448,192,44769,1,0,0:0:0:0:
192,192,44769,1,0,0:0:0:0:
320,192,44822,1,0,0:0:0:0:
448,192,44875,1,0,0:0:0:0:
64,192,44875,1,0,0:0:0:0:
192,192,44927,1,0,0:0:0:0:
320,192,44980,1,0,0:0:0:0:
448,192,44980,1,0,0:0:0:0:
192,192,45032,1,0,0:0:0:0:
64,192,45085,1,0,0:0:0:0:
320,192,45085,1,0,0:0:0:0:
448,192,45138,1,0,0:0:0:0:
192,192,45190,1,0,0:0:0:0:
64,192,45190,1,0,0:0:0:0:
320,192,45243,1,0,0:0:0:0:
448,192,45296,1,0,0:0:0:0:
64,192,45296,1,0,0:0:0:0:
192,192,45348,1,0,0:0:0:0:
320,192,45401,1,0,0:0:0:0:
448,192,45401,1,0,0:0:0:0:
192,192,45506,1,0,0:0:0:0:
64,192,45506,1,0,0:0:0:0:
192,192,45664,1,0,0:0:0:0:
320,192,45664,1,0,0:0:0:0:
64,192,45822,1,0,0:0:0:0:
320,192,45822,1,0,0:0:0:0:
448,192,45861,1,0,0:0:0:0:
192,192,45901,1,0,0:0:0:0:
320,192,45940,1,0,0:0:0:0:
64,192,45980,1,0,0:0:0:0:
192,192,46019,1,0,0:0:0:0:
448,192,46059,1,0,0:0:0:0:
64,192,46098,1,0,0:0:0:0:
192,192,46138,1,0,0:0:0:0:
320,192,46138,1,0,0:0:0:0:
448,192,46177,1,0,0:0:0:0:
64,192,46217,1,0,0:0:0:0:
192,192,46256,1,0,0:0:0:0:
320,192,46296,1,0,0:0:0:0:
448,192,46296,1,0,0:0:0:0:
64,192,46335,1,0,0:0:0:0:
448,192,46375,1,0,0:0:0:0:
192,192,46414,1,0,0:0:0:0:
320,192,46454,1,0,0:0:0:0:
64,192,46493,1,0,0:0:0:0:
448,192,46532,1,0,0:0:0:0:
320,192,46572,1,0,0:0:0:0:
192,192,46611,1,0,0:0:0:0:
64,192,46611,1,0,0:0:0:0:
448,192,46651,1,0,0:0:0:0:
192,192,46690,1,0,0:0:0:0:
320,192,46730,1,0,0:0:0:0:
64,192,46769,1,0,0:0:0:0:
448,192,46809,1,0,0:0:0:0:
192,192,46848,1,0,0:0:0:0:
320,192,46888,1,0,0:0:0:0:
448,192,46927,1,0,0:0:0:0:
64,192,46927,1,0,0:0:0:0:
192,192,46967,1,0,0:0:0:0:
448,192,47006,1,0,0:0:0:0:
64,192,47046,1,0,0:0:0:0:
320,192,47085,1,0,0:0:0:0:
64,192,47243,1,0,0:0:0:0:
192,192,47243,1,0,0:0:0:0:
448,192,47296,1,0,0:0:0:0:
192,192,47348,1,0,0:0:0:0:
320,192,47348,1,0,0:0:0:0:
64,192,47401,1,0,0:0:0:0:
448,192,47454,1,0,0:0:0:0:
320,192,47454,1,0,0:0:0:0:
192,192,47506,1,0,0:0:0:0:
64,192,47559,1,0,0:0:0:0:
448,192,47559,1,0,0:0:0:0:
192,192,47611,1,0,0:0:0:0:
320,192,47664,1,0,0:0:0:0:
448,192,47664,1,0,0:0:0:0:
64,192,47717,1,0,0:0:0:0:
192,192,47769,1,0,0:0:0:0:
320,192,47769,1,0,0:0:0:0:
448,192,47822,1,0,0:0:0:0:
192,192,47875,1,0,0:0:0:0:
64,192,47875,1,0,0:0:0:0:
320,192,47927,1,0,0:0:0:0:
448,192,47980,1,0,0:0:0:0:
64,192,47980,1,0,0:0:0:0:
448,192,48190,1,0,0:0:0:0:
320,192,48190,1,0,0:0:0:0:
192,192,48348,1,0,0:0:0:0:
448,192,48348,1,0,0:0:0:0:
320,192,48388,1,0,0:0:0:0:
64,192,48427,1,0,0:0:0:0:
448,192,48467,1,0,0:0:0:0:
192,192,48506,1,0,0:0:0:0:
320,192,48546,1,0,0:0:0:0:
64,192,48585,1,0,0:0:0:0:
192,192,48625,1,0,0:0:0:0:
320,192,48664,1,0,0:0:0:0:
448,192,48664,1,0,0:0:0:0:
64,192,48704,1,0,0:0:0:0:
448,192,48743,1,0,0:0:0:0:
320,192,48782,1,0,0:0:0:0:
64,192,48822,1,0,0:0:0:0:
192,192,48822,1,0,0:0:0:0:
448,192,48861,1,0,0:0:0:0:
320,192,48901,1,0,0:0:0:0:
64,192,48940,1,0,0:0:0:0:
448,192,48980,1,0,0:0:0:0:
192,192,49019,1,0,0:0:0:0:
320,192,49059,1,0,0:0:0:0:
64,192,49098,1,0,0:0:0:0:
192,192,49138,1,0,0:0:0:0:
448,192,49138,1,0,0:0:0:0:
320,192,49177,1,0,0:0:0:0:
448,192,49217,1,0,0:0:0:0:
64,192,49256,1,0,0:0:0:0:
320,192,49296,1,0,0:0:0:0:
192,192,49335,1,0,0:0:0:0:
448,192,49375,1,0,0:0:0:0:
64,192,49414,1,0,0:0:0:0:
192,192,49454,1,0,0:0:0:0:
320,192,49454,1,0,0:0:0:0:
448,192,49493,1,0,0:0:0:0:
64,192,49532,1,0,0:0:0:0:
320,192,49572,1,0,0:0:0:0:
192,192,49611,1,0,0:0:0:0:
448,192,49651,1,0,0:0:0:0:
64,192,49690,1,0,0:0:0:0:
192,192,49730,1,0,0:0:0:0:
448,192,49769,1,0,0:0:0:0:
320,192,49769,1,0,0:0:0:0:
320,192,49927,1,0,0:0:0:0:
448,192,49927,1,0,0:0:0:0:
192,192,49980,1,0,0:0:0:0:
64,192,50032,1,0,0:0:0:0:
448,192,50032,1,0,0:0:0:0:
320,192,50085,1,0,0:0:0:0:
192,192,50138,1,0,0:0:0:0:
64,192,50138,1,0,0:0:0:0:
320,192,50190,1,0,0:0:0:0:
448,192,50243,1,0,0:0:0:0:
64,192,50243,1,0,0:0:0:0:
192,192,50296,1,0,0:0:0:0:
320,192,50348,1,0,0:0:0:0:
448,192,50348,1,0,0:0:0:0:
192,192,50559,1,0,0:0:0:0:
64,192,50559,1,0,0:0:0:0:
448,192,50611,1,0,0:0:0:0:
320,192,50664,1,0,0:0:0:0:
192,192,50664,1,0,0:0:0:0:
64,192,50717,1,0,0:0:0:0:
448,192,50769,1,0,0:0:0:0:
192,192,50769,1,0,0:0:0:0:
320,192,50822,1,0,0:0:0:0:
64,192,50875,1,0,0:0:0:0:
192,192,50875,1,0,0:0:0:0:
448,192,50927,1,0,0:0:0:0:
320,192,50980,1,0,0:0:0:0:
192,192,50980,1,0,0:0:0:0:
64,192,51032,1,0,0:0:0:0:
448,192,51190,1,0,0:0:0:0:
64,192,51190,1,0,0:0:0:0:
320,192,51243,1,0,0:0:0:0:
192,192,51296,1,0,0:0:0:0:
64,192,51296,1,0,0:0:0:0:
448,192,51348,1,0,0:0:0:0:
320,192,51401,1,0,0:0:0:0:
192,192,51401,1,0,0:0:0:0:
64,192,51454,1,0,0:0:0:0:
192,192,51506,1,0,0:0:0:0:
448,192,51506,1,0,0:0:0:0:
320,192,51559,1,0,0:0:0:0:
192,192,51611,1,0,0:0:0:0:
64,192,51611,1,0,0:0:0:0:
64,192,51822,1,0,0:0:0:0:
320,192,51822,1,0,0:0:0:0:
448,192,51822,1,0,0:0:0:0:
192,192,51861,1,0,0:0:0:0:
448,192,51901,1,0,0:0:0:0:
64,192,51940,1,0,0:0:0:0:
320,192,51980,1,0,0:0:0:0:
192,192,52454,1,0,0:0:0:0:
320,192,52454,1,0,0:0:0:0:
448,192,52493,1,0,0:0:0:0:
64,192,52532,1,0,0:0:0:0:
320,192,52572,1,0,0:0:0:0:
192,192,52611,1,0,0:0:0:0:
448,192,52651,1,0,0:0:0:0:
64,192,52690,1,0,0:0:0:0:
192,192,52730,1,0,0:0:0:0:
448,192,52769,1,0,0:0:0:0:
320,192,52769,1,0,0:0:0:0:
64,192,52809,1,0,0:0:0:0:
448,192,52848,1,0,0:0:0:0:
192,192,52888,1,0,0:0:0:0:
320,192,52927,1,0,0:0:0:0:
64,192,52967,1,0,0:0:0:0:
448,192,53006,1,0,0:0:0:0:
192,192,53046,1,0,0:0:0:0:
320,192,53085,1,0,0:0:0:0:
448,192,53085,1,0,0:0:0:0:
64,192,53125,1,0,0:0:0:0:
320,192,53164,1,0,0:0:0:0:
192,192,53204,1,0,0:0:0:0:
448,192,53243,1,0,0:0:0:0:
64,192,53282,1,0,0:0:0:0:
320,192,53322,1,0,0:0:0:0:
192,192,53361,1,0,0:0:0:0:
64,192,53401,1,0,0:0:0:0:
448,192,53401,1,0,0:0:0:0:
320,192,53440,1,0,0:0:0:0:
192,192,53480,1,0,0:0:0:0:
448,192,53519,1,0,0:0:0:0:
64,192,53559,1,0,0:0:0:0:
320,192,53598,1,0,0:0:0:0:
64,192,53638,1,0,0:0:0:0:
192,192,53677,1,0,0:0:0:0:
448,192,53717,1,0,0:0:0:0:
320,192,53717,1,0,0:0:0:0:
64,192,53756,1,0,0:0:0:0:
448,192,53796,1,0,0:0:0:0:
192,192,53835,1,0,0:0:0:0:
320,192,53875,1,0,0:0:0:0:
192,192,54032,1,0,0:0:0:0:
320,192,54032,1,0,0:0:0:0:
448,192,54085,1,0,0:0:0:0:
192,192,54138,1,0,0:0:0:0:
64,192,54138,1,0,0:0:0:0:
320,192,54190,1,0,0:0:0:0:
448,192,54243,1,0,0:0:0:0:
64,192,54243,1,0,0:0:0:0:
192,192,54296,1,0,0:0:0:0:
320,192,54348,1,0,0:0:0:0:
448,192,54348,1,0,0:0:0:0:
192,192,54401,1,0,0:0:0:0:
64,192,54454,1,0,0:0:0:0:
448,192,54454,1,0,0:0:0:0:
64,192,54664,1,0,0:0:0:0:
448,192,54664,1,0,0:0:0:0:
192,192,54717,1,0,0:0:0:0:
320,192,54769,1,0,0:0:0:0:
448,192,54769,1,0,0:0:0:0:
192,192,54822,1,0,0:0:0:0:
64,192,54875,1,0,0:0:0:0:
448,192,54875,1,0,0:0:0:0:
320,192,54927,1,0,0:0:0:0:
192,192,54980,1,0,0:0:0:0:
64,192,54980,1,0,0:0:0:0:
448,192,55032,1,0,0:0:0:0:
320,192,55085,1,0,0:0:0:0:
192,192,55085,1,0,0:0:0:0:
64,192,55138,1,0,0:0:0:0:
192,192,55190,1,0,0:0:0:0:
448,192,55190,1,0,0:0:0:0:
320,192,55243,1,0,0:0:0:0:
64,192,55296,1,0,0:0:0:0:
192,192,55296,1,0,0:0:0:0:
448,192,55348,1,0,0:0:0:0:
320,192,55401,1,0,0:0:0:0:
64,192,55401,1,0,0:0:0:0:
192,192,55454,1,0,0:0:0:0:
320,192,55506,1,0,0:0:0:0:
448,192,55506,1,0,0:0:0:0:
192,192,55611,1,0,0:0:0:0:
64,192,55611,1,0,0:0:0:0:
320,192,55769,1,0,0:0:0:0:
192,192,55769,1,0,0:0:0:0:
64,192,55927,1,0,0:0:0:0:
320,192,55927,1,0,0:0:0:0:
448,192,55967,1,0,0:0:0:0:
192,192,56006,1,0,0:0:0:0:
320,192,56046,1,0,0:0:0:0:
64,192,56085,1,0,0:0:0:0:
448,192,56125,1,0,0:0:0:0:
192,192,56164,1,0,0:0:0:0:
64,192,56204,1,0,0:0:0:0:
448,192,56243,1,0,0:0:0:0:
320,192,56243,1,0,0:0:0:0:
192,192,56282,1,0,0:0:0:0:
448,192,56322,1,0,0:0:0:0:
320,192,56361,1,0,0:0:0:0:
192,192,56401,1,0,0:0:0:0:
64,192,56401,1,0,0:0:0:0:
448,192,56440,1,0,0:0:0:0:
320,192,56480,1,0,0:0:0:0:
64,192,56519,1,0,0:0:0:0:
448,192,56559,1,0,0:0:0:0:
192,192,56598,1,0,0:0:0:0:
320,192,56638,1,0,0:0:0:0:
64,192,56677,1,0,0:0:0:0:
448,192,56717,1,0,0:0:0:0:
192,192,56717,1,0,0:0:0:0:
320,192,56756,1,0,0:0:0:0:
64,192,56796,1,0,0:0:0:0:
448,192,56835,1,0,0:0:0:0:
192,192,56875,1,0,0:0:0:0:
320,192,56914,1,0,0:0:0:0:
64,192,56954,1,0,0:0:0:0:
448,192,56993,1,0,0:0:0:0:
320,192,57032,1,0,0:0:0:0:
192,192,57032,1,0,0:0:0:0:
64,192,57072,1,0,0:0:0:0:
448,192,57111,1,0,0:0:0:0:
192,192,57151,1,0,0:0:0:0:
320,192,57190,1,0,0:0:0:0:
448,192,57348,1,0,0:0:0:0:
64,192,57348,1,0,0:0:0:0:
192,192,57401,1,0,0:0:0:0:
320,192,57454,1,0,0:0:0:0:
448,192,57454,1,0,0:0:0:0:
192,192,57506,1,0,0:0:0:0:
64,192,57559,1,0,0:0:0:0:
448,192,57559,1,0,0:0:0:0:
320,192,57611,1,0,0:0:0:0:
192,192,57664,1,0,0:0:0:0:
64,192,57664,1,0,0:0:0:0:
448,192,57717,1,0,0:0:0:0:
320,192,57769,1,0,0:0:0:0:
64,192,57769,1,0,0:0:0:0:
192,192,57822,1,0,0:0:0:0:
320,192,57875,1,0,0:0:0:0:
448,192,57875,1,0,0:0:0:0:
64,192,57927,1,0,0:0:0:0:
320,192,57980,1,0,0:0:0:0:
192,192,57980,1,0,0:0:0:0:
448,192,58032,1,0,0:0:0:0:
64,192,58085,1,0,0:0:0:0:
192,192,58085,1,0,0:0:0:0:
320,192,58296,1,0,0:0:0:0:
192,192,58296,1,0,0:0:0:0:
192,192,58454,1,0,0:0:0:0:
448,192,58454,1,0,0:0:0:0:
320,192,58493,1,0,0:0:0:0:
64,192,58532,1,0,0:0:0:0:
448,192,58572,1,0,0:0:0:0:
192,192,58611,1,0,0:0:0:0:
320,192,58651,1,0,0:0:0:0:
64,192,58690,1,0,0:0:0:0:
192,192,58730,1,0,0:0:0:0:
320,192,58769,1,0,0:0:0:0:
448,192,58769,1,0,0:0:0:0:
64,192,58809,1,0,0:0:0:0:
320,192,58848,1,0,0:0:0:0:
192,192,58888,1,0,0:0:0:0:
64,192,58927,1,0,0:0:0:0:
448,192,58927,1,0,0:0:0:0:
320,192,58967,1,0,0:0:0:0:
192,192,59006,1,0,0:0:0:0:
448,192,59046,1,0,0:0:0:0:
64,192,59085,1,0,0:0:0:0:
320,192,59125,1,0,0:0:0:0:
192,192,59164,1,0,0:0:0:0:
448,192,59204,1,0,0:0:0:0:
192,192,59243,1,0,0:0:0:0:
320,192,59243,1,0,0:0:0:0:
64,192,59282,1,0,0:0:0:0:
448,192,59322,1,0,0:0:0:0:
192,192,59361,1,0,0:0:0:0:
320,192,59401,1,0,0:0:0:0:
64,192,59440,1,0,0:0:0:0:
448,192,59480,1,0,0:0:0:0:
192,192,59519,1,0,0:0:0:0:
448,192,59559,1,0,0:0:0:0:
320,192,59559,1,0,0:0:0:0:
64,192,59598,1,0,0:0:0:0:
320,192,59638,1,0,0:0:0:0:
192,192,59677,1,0,0:0:0:0:
448,192,59717,1,0,0:0:0:0:
64,192,59756,1,0,0:0:0:0:
320,192,59796,1,0,0:0:0:0:
192,192,59835,1,0,0:0:0:0:
448,192,59875,1,0,0:0:0:0:
64,192,59875,1,0,0:0:0:0:
320,192,59914,1,0,0:0:0:0:
192,192,59954,1,0,0:0:0:0:
448,192,59993,1,0,0:0:0:0:
64,192,60032,1,0,0:0:0:0:
320,192,60032,1,0,0:0:0:0:
192,192,60085,1,0,0:0:0:0:
320,192,60138,1,0,0:0:0:0:
448,192,60138,1,0,0:0:0:0:
192,192,60190,1,0,0:0:0:0:
64,192,60243,1,0,0:0:0:0:
448,192,60243,1,0,0:0:0:0:
320,192,60296,1,0,0:0:0:0:
192,192,60348,1,0,0:0:0:0:
64,192,60348,1,0,0:0:0:0:
448,192,60506,1,0,0:0:0:0:
320,192,60506,1,0,0:0:0:0:
320,192,60664,1,0,0:0:0:0:
192,192,60664,1,0,0:0:0:0:
448,192,60717,1,0,0:0:0:0:
64,192,60769,1,0,0:0:0:0:
192,192,60769,1,0,0:0:0:0:
320,192,60822,1,0,0:0:0:0:
448,192,60875,1,0,0:0:0:0:
64,192,60875,1,0,0:0:0:0:
192,192,60927,1,0,0:0:0:0:
320,192,60980,1,0,0:0:0:0:
448,192,60980,1,0,0:0:0:0:
64,192,61032,1,0,0:0:0:0:
192,192,61085,1,0,0:0:0:0:
320,192,61085,1,0,0:0:0:0:
64,192,61296,1,0,0:0:0:0:
448,192,61296,1,0,0:0:0:0:
320,192,61348,1,0,0:0:0:0:
192,192,61401,1,0,0:0:0:0:
64,192,61401,1,0,0:0:0:0:
320,192,61454,1,0,0:0:0:0:
448,192,61506,1,0,0:0:0:0:
192,192,61506,1,0,0:0:0:0:
64,192,61559,1,0,0:0:0:0:
192,192,61611,1,0,0:0:0:0:
320,192,61611,1,0,0:0:0:0:
448,192,61664,1,0,0:0:0:0:
64,192,61717,1,0,0:0:0:0:
192,192,61717,1,0,0:0:0:0:
320,192,61769,1,0,0:0:0:0:
448,192,61822,1,0,0:0:0:0:
64,192,61822,1,0,0:0:0:0:
192,192,61875,1,0,0:0:0:0:
320,192,61927,1,0,0:0:0:0:
448,192,61927,1,0,0:0:0:0:
64,192,61980,1,0,0:0:0:0:
320,192,62032,1,0,0:0:0:0:
192,192,62032,1,0,0:0:0:0:
448,192,62085,1,0,0:0:0:0:
320,192,62138,1,0,0:0:0:0:
64,192,62138,1,0,0:0:0:0:
192,192,62190,1,0,0:0:0:0:
320,192,62243,1,0,0:0:0:0:
448,192,62243,1,0,0:0:0:0:
192,192,62296,1,0,0:0:0:0:
64,192,62348,1,0,0:0:0:0:
448,192,62348,1,0,0:0:0:0:
320,192,62401,1,0,0:0:0:0:
192,192,62454,1,0,0:0:0:0:
64,192,62454,1,0,0:0:0:0:
320,192,62506,1,0,0:0:0:0:
448,192,62559,1,0,0:0:0:0:
64,192,62559,1,0,0:0:0:0:
192,192,62717,1,0,0:0:0:0:
320,192,62717,1,0,0:0:0:0:
448,192,62875,1,0,0:0:0:0:
64,192,62875,1,0,0:0:0:0:
320,192,62875,1,0,0:0:0:0:
192,192,63032,1,0,0:0:0:0:
320,192,63032,1,0,0:0:0:0:
64,192,63032,1,0,0:0:0:0:
448,192,63190,1,0,0:0:0:0:
320,192,63190,1,0,0:0:0:0:
64,192,63190,1,0,0:0:0:0:
192,192,63348,1,0,0:0:0:0:
448,192,63348,1,0,0:0:0:0:
320,192,63506,1,0,0:0:0:0:
192,192,63506,1,0,0:0:0:0:
64,192,63506,1,0,0:0:0:0:
448,192,63664,1,0,0:0:0:0:
64,192,63664,1,0,0:0:0:0:
320,192,63822,1,0,0:0:0:0:
192,192,63822,1,0,0:0:0:0:
448,192,63822,1,0,0:0:0:0:
64,192,63980,1,0,0:0:0:0:
192,192,64138,1,0,0:0:0:0:
320,192,64138,1,0,0:0:0:0:
64,192,64138,1,0,0:0:0:0:
448,192,64296,1,0,0:0:0:0:
320,192,64454,1,0,0:0:0:0:
192,192,64454,1,0,0:0:0:0:
64,192,64454,1,0,0:0:0:0:
448,192,64454,1,0,0:0:0:0:
320,192,64611,1,0,0:0:0:0:
192,192,64611,1,0,0:0:0:0:
320,192,64769,1,0,0:0:0:0:
448,192,64769,1,0,0:0:0:0:
64,192,64769,1,0,0:0:0:0:
192,192,64769,1,0,0:0:0:0:
64,192,64927,1,0,0:0:0:0:
448,192,64927,1,0,0:0:0:0:
320,192,65085,1,0,0:0:0:0:
448,192,65085,1,0,0:0:0:0:
192,192,65085,1,0,0:0:0:0:
64,192,65085,1,0,0:0:0:0:
320,192,65243,1,0,0:0:0:0:
448,192,65401,1,0,0:0:0:0:
192,192,65401,1,0,0:0:0:0:
448,192,65559,1,0,0:0:0:0:
64,192,65559,1,0,0:0:0:0:
320,192,65559,1,0,0:0:0:0:
320,192,65717,1,0,0:0:0:0:
192,192,65717,1,0,0:0:0:0:
448,192,65875,1,0,0:0:0:0:
64,192,65875,1,0,0:0:0:0:
320,192,66032,1,0,0:0:0:0:
448,192,66032,1,0,0:0:0:0:
192,192,66032,1,0,0:0:0:0:
320,192,66190,1,0,0:0:0:0:
64,192,66190,1,0,0:0:0:0:
448,192,66348,1,0,0:0:0:0:
320,192,66348,1,0,0:0:0:0:
64,192,66348,1,0,0:0:0:0:
192,192,66506,1,0,0:0:0:0:
320,192,66506,1,0,0:0:0:0:
448,192,66506,1,0,0:0:0:0:
320,192,66664,1,0,0:0:0:0:
64,192,66664,1,0,0:0:0:0:
448,192,66822,1,0,0:0:0:0:
320,192,66980,1,0,0:0:0:0:
192,192,66980,1,0,0:0:0:0:
64,192,66980,1,0,0:0:0:0:
448,192,67138,1,0,0:0:0:0:
64,192,67138,1,0,0:0:0:0:
64,192,67296,1,0,0:0:0:0:
192,192,67296,1,0,0:0:0:0:
320,192,67296,1,0,0:0:0:0:
448,192,67454,1,0,0:0:0:0:
64,192,67454,1,0,0:0:0:0:
192,192,67611,1,0,0:0:0:0:
320,192,67611,1,0,0:0:0:0:
448,192,67611,1,0,0:0:0:0:
192,192,67769,1,0,0:0:0:0:
320,192,67769,1,0,0:0:0:0:
64,192,67927,1,0,0:0:0:0:
448,192,67927,1,0,0:0:0:0:
320,192,68085,1,0,0:0:0:0:
192,192,68085,1,0,0:0:0:0:
64,192,68085,1,0,0:0:0:0:
448,192,68243,1,0,0:0:0:0:
64,192,68243,1,0,0:0:0:0:
192,192,68401,1,0,0:0:0:0:
448,192,68401,1,0,0:0:0:0:
320,192,68559,1,0,0:0:0:0:
448,192,68559,1,0,0:0:0:0:
64,192,68559,1,0,0:0:0:0:
192,192,68717,1,0,0:0:0:0:
320,192,68717,1,0,0:0:0:0:
448,192,68875,1,0,0:0:0:0:
64,192,68875,1,0,0:0:0:0:
192,192,69032,1,0,0:0:0:0:
320,192,69032,1,0,0:0:0:0:
448,192,69032,1,0,0:0:0:0:
64,192,69190,1,0,0:0:0:0:
320,192,69190,1,0,0:0:0:0:
448,192,69348,1,0,0:0:0:0:
192,192,69348,1,0,0:0:0:0:
320,192,69506,1,0,0:0:0:0:
448,192,69506,1,0,0:0:0:0:
64,192,69506,1,0,0:0:0:0:
192,192,69664,1,0,0:0:0:0:
448,192,69664,1,0,0:0:0:0:
320,192,69822,1,0,0:0:0:0:
64,192,69822,1,0,0:0:0:0:
192,192,69822,1,0,0:0:0:0:
64,192,69980,1,0,0:0:0:0:
448,192,69980,1,0,0:0:0:0:
192,192,70138,1,0,0:0:0:0:
320,192,70138,1,0,0:0:0:0:
448,192,70138,1,0,0:0:0:0:
64,192,70296,1,0,0:0:0:0:
448,192,70296,1,0,0:0:0:0:
320,192,70454,1,0,0:0:0:0:
64,192,70454,1,0,0:0:0:0:
192,192,70611,1,0,0:0:0:0:
320,192,70611,1,0,0:0:0:0:
448,192,70611,1,0,0:0:0:0:
64,192,70769,1,0,0:0:0:0:
448,192,70769,1,0,0:0:0:0:
320,192,70927,1,0,0:0:0:0:
192,192,70927,1,0,0:0:0:0:
64,192,71085,1,0,0:0:0:0:
192,192,71085,1,0,0:0:0:0:
448,192,71085,1,0,0:0:0:0:
320,192,71243,1,0,0:0:0:0:
64,192,71243,1,0,0:0:0:0:
192,192,71401,1,0,0:0:0:0:
448,192,71401,128,0,72032:0:0:0:0:
64,192,71401,128,0,72032:0:0:0:0:
320,192,72032,128,0,72506:0:0:0:0:
192,192,72032,128,0,72506:0:0:0:0:
192,192,72664,1,0,0:0:0:0:
64,192,72664,1,0,0:0:0:0:
448,192,72704,1,0,0:0:0:0:
192,192,72743,1,0,0:0:0:0:
320,192,72782,1,0,0:0:0:0:
64,192,72822,1,0,0:0:0:0:
448,192,72861,1,0,0:0:0:0:
192,192,72901,1,0,0:0:0:0:
320,192,72940,1,0,0:0:0:0:
448,192,72980,1,0,0:0:0:0:
64,192,72980,1,0,0:0:0:0:
192,192,73019,1,0,0:0:0:0:
448,192,73059,1,0,0:0:0:0:
64,192,73098,1,0,0:0:0:0:
320,192,73138,1,0,0:0:0:0:
192,192,73177,1,0,0:0:0:0:
448,192,73217,1,0,0:0:0:0:
64,192,73256,1,0,0:0:0:0:
448,192,73296,1,0,0:0:0:0:
192,192,73296,1,0,0:0:0:0:
320,192,73335,1,0,0:0:0:0:
64,192,73375,1,0,0:0:0:0:
448,192,73414,1,0,0:0:0:0:
192,192,73454,1,0,0:0:0:0:
320,192,73493,1,0,0:0:0:0:
448,192,73532,1,0,0:0:0:0:
64,192,73572,1,0,0:0:0:0:
192,192,73611,1,0,0:0:0:0:
320,192,73611,1,0,0:0:0:0:
448,192,73651,1,0,0:0:0:0:
64,192,73690,1,0,0:0:0:0:
320,192,73730,1,0,0:0:0:0:
192,192,73769,1,0,0:0:0:0:
448,192,73809,1,0,0:0:0:0:
64,192,73848,1,0,0:0:0:0:
320,192,73888,1,0,0:0:0:0:
192,192,73927,1,0,0:0:0:0:
64,192,73927,1,0,0:0:0:0:
448,192,73967,1,0,0:0:0:0:
192,192,74006,1,0,0:0:0:0:
320,192,74046,1,0,0:0:0:0:
64,192,74085,1,0,0:0:0:0:
320,192,74243,1,0,0:0:0:0:
192,192,74243,1,0,0:0:0:0:
448,192,74296,1,0,0:0:0:0:
64,192,74348,1,0,0:0:0:0:
192,192,74348,1,0,0:0:0:0:
320,192,74401,1,0,0:0:0:0:
448,192,74454,1,0,0:0:0:0:
64,192,74454,1,0,0:0:0:0:
192,192,74506,1,0,0:0:0:0:
320,192,74559,1,0,0:0:0:0:
448,192,74559,1,0,0:0:0:0:
64,192,74611,1,0,0:0:0:0:
448,192,74664,1,0,0:0:0:0:
192,192,74664,1,0,0:0:0:0:
448,192,74875,1,0,0:0:0:0:
64,192,74875,1,0,0:0:0:0:
320,192,74927,1,0,0:0:0:0:
192,192,74980,1,0,0:0:0:0:
64,192,74980,1,0,0:0:0:0:
448,192,75032,1,0,0:0:0:0:
320,192,75085,1,0,0:0:0:0:
192,192,75085,1,0,0:0:0:0:
64,192,75138,1,0,0:0:0:0:
448,192,75190,1,0,0:0:0:0:
192,192,75190,1,0,0:0:0:0:
320,192,75243,1,0,0:0:0:0:
64,192,75296,1,0,0:0:0:0:
192,192,75296,1,0,0:0:0:0:
448,192,75348,1,0,0:0:0:0:
192,192,75401,1,0,0:0:0:0:
320,192,75401,1,0,0:0:0:0:
64,192,75454,1,0,0:0:0:0:
448,192,75506,1,0,0:0:0:0:
320,192,75506,1,0,0:0:0:0:
320,192,75822,1,0,0:0:0:0:
448,192,75822,1,0,0:0:0:0:
320,192,75980,1,0,0:0:0:0:
192,192,75980,1,0,0:0:0:0:
192,192,76138,1,0,0:0:0:0:
64,192,76138,1,0,0:0:0:0:
448,192,76177,1,0,0:0:0:0:
192,192,76217,1,0,0:0:0:0:
320,192,76256,1,0,0:0:0:0:
64,192,76296,1,0,0:0:0:0:
448,192,76335,1,0,0:0:0:0:
320,192,76375,1,0,0:0:0:0:
192,192,76414,1,0,0:0:0:0:
320,192,76454,1,0,0:0:0:0:
64,192,76454,1,0,0:0:0:0:
448,192,76493,1,0,0:0:0:0:
192,192,76532,1,0,0:0:0:0:
320,192,76572,1,0,0:0:0:0:
448,192,76611,1,0,0:0:0:0:
64,192,76611,1,0,0:0:0:0:
192,192,76651,1,0,0:0:0:0:
320,192,76690,1,0,0:0:0:0:
64,192,76730,1,0,0:0:0:0:
448,192,76769,1,0,0:0:0:0:
192,192,76809,1,0,0:0:0:0:
64,192,76848,1,0,0:0:0:0:
448,192,76888,1,0,0:0:0:0:
192,192,76927,1,0,0:0:0:0:
320,192,76927,1,0,0:0:0:0:
64,192,76967,1,0,0:0:0:0:
448,192,77006,1,0,0:0:0:0:
192,192,77046,1,0,0:0:0:0:
320,192,77085,1,0,0:0:0:0:
448,192,77125,1,0,0:0:0:0:
64,192,77164,1,0,0:0:0:0:
320,192,77204,1,0,0:0:0:0:
64,192,77243,1,0,0:0:0:0:
192,192,77243,1,0,0:0:0:0:
448,192,77282,1,0,0:0:0:0:
320,192,77322,1,0,0:0:0:0:
64,192,77361,1,0,0:0:0:0:
192,192,77401,1,0,0:0:0:0:
320,192,77559,1,0,0:0:0:0:
192,192,77559,1,0,0:0:0:0:
448,192,77611,1,0,0:0:0:0:
64,192,77664,1,0,0:0:0:0:
192,192,77664,1,0,0:0:0:0:
320,192,77717,1,0,0:0:0:0:
64,192,77769,1,0,0:0:0:0:
448,192,77769,1,0,0:0:0:0:
320,192,77822,1,0,0:0:0:0:
192,192,77875,1,0,0:0:0:0:
64,192,77875,1,0,0:0:0:0:
448,192,77927,1,0,0:0:0:0:
64,192,77980,1,0,0:0:0:0:
320,192,77980,1,0,0:0:0:0:
192,192,78032,1,0,0:0:0:0:
320,192,78085,1,0,0:0:0:0:
448,192,78085,1,0,0:0:0:0:
192,192,78138,1,0,0:0:0:0:
64,192,78190,1,0,0:0:0:0:
448,192,78190,1,0,0:0:0:0:
320,192,78348,1,0,0:0:0:0:
192,192,78348,1,0,0:0:0:0:
448,192,78506,1,0,0:0:0:0:
320,192,78506,1,0,0:0:0:0:
192,192,78664,1,0,0:0:0:0:
64,192,78664,1,0,0:0:0:0:
448,192,78704,1,0,0:0:0:0:
320,192,78743,1,0,0:0:0:0:
64,192,78782,1,0,0:0:0:0:
448,192,78822,1,0,0:0:0:0:
192,192,78861,1,0,0:0:0:0:
320,192,78901,1,0,0:0:0:0:
64,192,78940,1,0,0:0:0:0:
320,192,78980,1,0,0:0:0:0:
192,192,78980,1,0,0:0:0:0:
448,192,79019,1,0,0:0:0:0:
192,192,79059,1,0,0:0:0:0:
64,192,79098,1,0,0:0:0:0:
448,192,79138,1,0,0:0:0:0:
320,192,79138,1,0,0:0:0:0:
192,192,79177,1,0,0:0:0:0:
64,192,79217,1,0,0:0:0:0:
448,192,79256,1,0,0:0:0:0:
192,192,79296,1,0,0:0:0:0:
320,192,79335,1,0,0:0:0:0:
448,192,79375,1,0,0:0:0:0:
64,192,79414,1,0,0:0:0:0:
192,192,79454,1,0,0:0:0:0:
320,192,79454,1,0,0:0:0:0:
448,192,79493,1,0,0:0:0:0:
64,192,79532,1,0,0:0:0:0:
320,192,79572,1,0,0:0:0:0:
192,192,79611,1,0,0:0:0:0:
448,192,79651,1,0,0:0:0:0:
64,192,79690,1,0,0:0:0:0:
192,192,79730,1,0,0:0:0:0:
320,192,79769,1,0,0:0:0:0:
448,192,79769,1,0,0:0:0:0:
64,192,79809,1,0,0:0:0:0:
320,192,79848,1,0,0:0:0:0:
448,192,79888,1,0,0:0:0:0:
192,192,79927,1,0,0:0:0:0:
64,192,79967,1,0,0:0:0:0:
320,192,80006,1,0,0:0:0:0:
192,192,80046,1,0,0:0:0:0:
448,192,80085,1,0,0:0:0:0:
320,192,80085,1,0,0:0:0:0:
64,192,80125,1,0,0:0:0:0:
192,192,80243,1,0,0:0:0:0:
64,192,80243,1,0,0:0:0:0:
448,192,80296,1,0,0:0:0:0:
320,192,80348,1,0,0:0:0:0:
192,192,80348,1,0,0:0:0:0:
64,192,80401,1,0,0:0:0:0:
448,192,80454,1,0,0:0:0:0:
192,192,80454,1,0,0:0:0:0:
320,192,80506,1,0,0:0:0:0:
64,192,80559,1,0,0:0:0:0:
448,192,80559,1,0,0:0:0:0:
192,192,80611,1,0,0:0:0:0:
320,192,80664,1,0,0:0:0:0:
448,192,80664,1,0,0:0:0:0:
320,192,80875,1,0,0:0:0:0:
192,192,80875,1,0,0:0:0:0:
448,192,80927,1,0,0:0:0:0:
64,192,80980,1,0,0:0:0:0:
192,192,80980,1,0,0:0:0:0:
320,192,81032,1,0,0:0:0:0:
448,192,81085,1,0,0:0:0:0:
64,192,81085,1,0,0:0:0:0:
192,192,81138,1,0,0:0:0:0:
320,192,81190,1,0,0:0:0:0:
448,192,81190,1,0,0:0:0:0:
64,192,81243,1,0,0:0:0:0:
448,192,81296,1,0,0:0:0:0:
192,192,81296,1,0,0:0:0:0:
320,192,81348,1,0,0:0:0:0:
64,192,81401,1,0,0:0:0:0:
192,192,81454,1,0,0:0:0:0:
448,192,81506,1,0,0:0:0:0:
320,192,81506,1,0,0:0:0:0:
64,192,81559,1,0,0:0:0:0:
192,192,81611,1,0,0:0:0:0:
320,192,81611,1,0,0:0:0:0:
448,192,81664,1,0,0:0:0:0:
64,192,81717,1,0,0:0:0:0:
320,192,81717,1,0,0:0:0:0:
192,192,81769,1,0,0:0:0:0:
320,192,81822,1,0,0:0:0:0:
448,192,81822,1,0,0:0:0:0:
64,192,81875,1,0,0:0:0:0:
448,192,81927,1,0,0:0:0:0:
192,192,81927,1,0,0:0:0:0:
320,192,81980,1,0,0:0:0:0:
64,192,82032,1,0,0:0:0:0:
192,192,82032,1,0,0:0:0:0:
448,192,82085,1,0,0:0:0:0:
320,192,82138,1,0,0:0:0:0:
192,192,82138,1,0,0:0:0:0:
64,192,82190,1,0,0:0:0:0:
448,192,82243,1,0,0:0:0:0:
192,192,82243,1,0,0:0:0:0:
320,192,82296,1,0,0:0:0:0:
448,192,82348,1,0,0:0:0:0:
64,192,82401,1,0,0:0:0:0:
192,192,82401,1,0,0:0:0:0:
320,192,82454,1,0,0:0:0:0:
448,192,82506,1,0,0:0:0:0:
64,192,82506,1,0,0:0:0:0:
192,192,82559,1,0,0:0:0:0:
320,192,82611,1,0,0:0:0:0:
448,192,82611,1,0,0:0:0:0:
64,192,82664,1,0,0:0:0:0:
192,192,82717,1,0,0:0:0:0:
320,192,82769,1,0,0:0:0:0:
448,192,82769,1,0,0:0:0:0:
192,192,82927,1,0,0:0:0:0:
320,192,82927,1,0,0:0:0:0:
64,192,83085,1,0,0:0:0:0:
448,192,83085,1,0,0:0:0:0:
192,192,83243,1,0,0:0:0:0:
448,192,83243,1,0,0:0:0:0:
320,192,83243,1,0,0:0:0:0:
320,192,83401,1,0,0:0:0:0:
64,192,83401,1,0,0:0:0:0:
448,192,83559,1,0,0:0:0:0:
192,192,83559,1,0,0:0:0:0:
320,192,83717,1,0,0:0:0:0:
448,192,83717,1,0,0:0:0:0:
64,192,83717,1,0,0:0:0:0:
192,192,83875,1,0,0:0:0:0:
320,192,83875,1,0,0:0:0:0:
448,192,84032,1,0,0:0:0:0:
192,192,84032,1,0,0:0:0:0:
320,192,84190,1,0,0:0:0:0:
448,192,84190,1,0,0:0:0:0:
64,192,84190,1,0,0:0:0:0:
64,192,84348,1,0,0:0:0:0:
192,192,84348,1,0,0:0:0:0:
448,192,84506,1,0,0:0:0:0:
192,192,84506,1,0,0:0:0:0:
448,192,84664,1,0,0:0:0:0:
320,192,84664,1,0,0:0:0:0:
64,192,84664,1,0,0:0:0:0:
192,192,84822,1,0,0:0:0:0:
64,192,84822,1,0,0:0:0:0:
320,192,84980,5,0,0:0:0:0:
448,192,84980,1,0,0:0:0:0:
320,192,85138,1,0,0:0:0:0:
192,192,85138,1,0,0:0:0:0:
448,192,85296,128,0,86243:0:0:0:0:
192,192,85296,128,0,86243:0:0:0:0:
64,192,85296,128,0,86243:0:0:0:0:
