osu file format v14

[General]
AudioFilename: audio.mp3
AudioLeadIn: 0
PreviewTime: -1
Countdown: 1
SampleSet: None
StackLeniency: 0.5
Mode: 0
LetterboxInBreaks: 0
WidescreenStoryboard: 0

[Editor]
DistanceSpacing: 1
BeatDivisor: 4
GridSize: 4
TimelineZoom: 1

[Metadata]
Title:rapid life syndrome
TitleUnicode:rapid life シンドローム
Artist:LiSA
ArtistUnicode:LiSA
Creator:Bacwux
Version:Extreme
Source:
Tags:
BeatmapID:1436916
BeatmapSetID:679506

[Difficulty]
HPDrainRate:7
CircleSize:4
OverallDifficulty:8
ApproachRate:9.3
SliderMultiplier:1.9
SliderTickRate:1

[Events]
//Background and Video events
//Break Periods
//Storyboard Layer 0 (Background)
//Storyboard Layer 1 (Fail)
//Storyboard Layer 2 (Pass)
//Storyboard Layer 3 (Foreground)
//Storyboard Sound Samples

[TimingPoints]
1850,324.324324324324,4,1,0,40,1,0
1850,-133.333333333333,4,1,0,40,0,0
9633,-80,4,1,0,60,0,0
12228,-100,4,1,0,60,0,0
14174,-80,4,1,0,60,0,0
14822,-100,4,1,0,60,0,0
16768,-80,4,1,0,60,0,0
17417,-100,4,1,0,60,0,0
22606,-133.333333333333,4,1,0,60,0,0
27795,-100,4,1,0,60,0,0

[HitObjects]
165,123,1850,6,0,L|157:283,1,142.500005435944
201,161,2336,1,0,0:0:0:0:
196,253,2498,2,0,L|191:337,1,71.2500027179719
192,324,2985,1,0,0:0:0:0:
290,100,3147,6,0,L|298:260,1,142.500005435944
254,157,3633,1,0,0:0:0:0:
366,166,3795,2,0,L|370:263,1,71.2500027179719
224,222,4120,2,0,L|228:319,1,71.2500027179719
391,343,4444,6,0,L|398:200,1,142.500005435944
432,328,4931,1,0,0:0:0:0:
358,271,5093,2,0,L|361:199,1,71.2500027179719
361,199,5579,1,0,0:0:0:0:
210,273,5741,6,0,L|202:130,1,142.500005435944
175,235,6228,1,0,0:0:0:0:
278,197,6390,2,0,L|274:125,1,71.2500027179719
126,105,6714,2,0,L|129:176,1,71.2500027179719
289,274,7039,1,0,0:0:0:0:
256,192,7120,12,0,9309,0:0:0:0:
342,78,9633,6,0,P|287:125|384:150,1,178.125
412,124,9958,5,0,0:0:0:0:
206,245,10120,1,0,0:0:0:0:
382,86,10282,5,0,0:0:0:0:
214,256,10444,1,0,0:0:0:0:
350,56,10606,6,0,L|303:127,1,59.375
215,253,10768,2,0,L|247:203,1,59.375
421,21,10931,1,0,0:0:0:0:
448,341,12066,5,0,0:0:0:0:
366,206,12228,6,0,P|298:183|212:282,1,190
309,282,12714,1,0,0:0:0:0:
396,124,12877,2,0,L|394:25,1,95
312,101,13201,1,0,0:0:0:0:
456,194,13363,1,0,0:0:0:0:
303,94,13525,6,0,B|160:90|160:90|199:115,1,190
259,171,14012,1,0,0:0:0:0:
109,28,14174,2,0,P|82:106|110:153,1,118.75
369,157,14498,2,0,P|396:79|368:32,1,118.75
157,184,14822,6,0,B|176:236|152:299|152:299|192:272|229:284,1,190
208,360,15309,1,0,0:0:0:0:
80,241,15471,1,0,0:0:0:0:
301,287,15633,2,0,L|406:295,1,95
471,248,15958,1,0,0:0:0:0:
287,102,16120,6,0,B|283:173|283:173|305:214|305:214|300:302,1,190
366,154,16606,1,0,0:0:0:0:
140,178,16768,2,0,B|174:227|174:227|242:236,1,118.75
370,68,17093,2,0,B|336:19|336:19|268:10,1,118.75
321,234,17417,6,0,B|362:218|415:240|415:240|374:197|390:143,1,190
436,138,17822,1,0,0:0:0:0:
473,175,17904,1,0,0:0:0:0:
357,298,18066,5,0,0:0:0:0:
353,98,18228,1,0,0:0:0:0:
321,234,18390,5,0,0:0:0:0:
233,54,18552,1,0,0:0:0:0:
262,192,18714,5,0,0:0:0:0:
105,65,18877,1,0,0:0:0:0:
190,177,19039,5,0,0:0:0:0:
113,297,19201,1,0,0:0:0:0:
203,99,19363,2,0,P|252:126|269:164,1,95
177,255,19687,1,0,0:0:0:0:
134,234,19768,1,0,0:0:0:0:
111,194,19849,1,0,0:0:0:0:
273,180,20012,6,0,B|285:230|259:275|259:275|317:273|358:303,1,190
191,215,20498,1,0,0:0:0:0:
356,211,20660,1,0,0:0:0:0:
356,211,20741,1,0,0:0:0:0:
356,211,20822,1,0,0:0:0:0:
282,361,20985,1,0,0:0:0:0:
258,160,21147,1,0,0:0:0:0:
411,51,21309,6,0,B|417:104|417:104|451:146|451:146|459:200,1,142.5
460,205,21633,5,0,0:0:0:0:
115,102,21795,1,0,0:0:0:0:
494,78,21958,5,0,0:0:0:0:
149,181,22120,1,0,0:0:0:0:
296,315,22282,6,0,P|310:265|231:189,1,142.5
229,267,22606,2,0,L|368:252,1,106.875004076958
363,257,22931,1,0,0:0:0:0:
190,204,23093,1,0,0:0:0:0:
287,335,23255,1,0,0:0:0:0:
356,183,23417,2,0,P|326:149|291:130,1,71.2500027179719
149,271,23741,5,0,0:0:0:0:
199,124,23904,2,0,L|198:205,1,71.2500027179719
100,91,24228,2,0,L|101:172,1,71.2500027179719
222,37,24552,2,0,L|221:118,1,71.2500027179719
68,281,24877,5,0,0:0:0:0:
180,207,25039,1,0,0:0:0:0:
311,254,25201,1,0,0:0:0:0:
343,78,25363,5,0,0:0:0:0:
305,267,25525,1,0,0:0:0:0:
426,154,25687,1,0,0:0:0:0:
241,119,25849,1,0,0:0:0:0:
431,281,26012,5,0,0:0:0:0:
334,86,26174,1,0,0:0:0:0:
299,280,26336,1,0,0:0:0:0:
439,144,26498,1,0,0:0:0:0:
234,107,26660,6,0,P|162:110|149:117,1,71.2500027179719
222,286,26985,2,0,P|294:283|307:276,1,71.2500027179719
368,50,27309,1,0,0:0:0:0:
280,190,27471,1,0,0:0:0:0:
361,333,27633,1,0,0:0:0:0:
503,139,27795,6,0,P|442:126|372:164,1,142.5
358,175,28120,1,0,0:0:0:0:
241,91,28282,2,0,L|131:85,2,95
358,175,28768,1,0,0:0:0:0:
258,277,28931,1,0,0:0:0:0:
102,180,29093,6,0,P|178:181|214:210,1,95
140,294,29417,1,0,0:0:0:0:
135,91,29579,1,0,0:0:0:0:
155,303,29741,6,0,P|231:302|267:273,1,95
292,95,30066,1,0,0:0:0:0:
222,213,30228,1,0,0:0:0:0:
315,318,30390,1,0,0:0:0:0:
338,315,30471,1,0,0:0:0:0:
361,312,30552,6,0,P|401:273|380:180,1,142.5
329,240,30877,5,0,0:0:0:0:
128,160,31039,1,0,0:0:0:0:
337,237,31201,5,0,0:0:0:0:
136,317,31363,1,0,0:0:0:0:
315,159,31525,5,0,0:0:0:0:
229,357,31687,1,0,0:0:0:0:
307,152,31849,5,0,0:0:0:0:
393,350,32011,1,0,0:0:0:0:
225,239,32174,1,0,0:0:0:0:
279,68,32336,2,0,P|344:57|385:79,1,95
427,236,32660,2,0,P|362:247|321:225,1,95
