osu file format v14

[General]
AudioFilename: audio.ogg
AudioLeadIn: 0
PreviewTime: 52577
Countdown: 0
SampleSet: Soft
StackLeniency: 0.8
Mode: 2
LetterboxInBreaks: 0
WidescreenStoryboard: 1

[Editor]
Bookmarks: 13301,25933,38959,44880,48038,52577,59091,62248,65406
DistanceSpacing: 1.8
BeatDivisor: 4
GridSize: 32
TimelineZoom: 1.3

[Metadata]
Title:oath sign (TV Size)
TitleUnicode:oath sign (TV Size)
Artist:LiSA
ArtistUnicode:LiSA
Creator:Secre
Version:Deluge
Source:Fate/Zero
Tags:chickenbible -joakh フェイト/ゼロ type-moon opening 1 light novel ufotable aniplex lover''s''mile Anime Japanese pop j-pop jpop short ver version typemoon 渡辺翔 watanabe shou sho one first 1st season op op1 f/z rock jrock j-rock
BeatmapID:4316407
BeatmapSetID:1985082

[Difficulty]
HPDrainRate:5
CircleSize:4.3
OverallDifficulty:9.2
ApproachRate:9.2
SliderMultiplier:2.15
SliderTickRate:2

[Events]
//Background and Video events
0,0,"ame in fate with a sword.jpeg",0,0
Video,-350,"video.avi"
//Break Periods
//Storyboard Layer 0 (Background)
//Storyboard Layer 1 (Fail)
//Storyboard Layer 2 (Pass)
//Storyboard Layer 3 (Foreground)
//Storyboard Layer 4 (Overlay)
//Storyboard Sound Samples

[TimingPoints]
670,394.736842105263,4,2,2,69,1,0
670,-100,4,2,2,69,0,0
3729,-100,4,2,2,69,0,0
3827,-100,4,2,2,69,0,0
13301,-100,4,2,1,59,0,0
24156,-100,4,2,1,65,0,0
25538,-100,4,2,1,80,0,0
36788,-100,4,2,1,95,0,0
38564,-100,4,2,1,55,0,0
38959,-100,4,2,2,55,0,0
39058,-100,4,2,1,55,0,0
39354,-100,4,2,2,55,0,0
39452,-100,4,2,1,55,0,0
39748,-100,4,2,2,55,0,0
39847,-100,4,2,1,55,0,0
40143,-100,4,2,2,55,0,0
40242,-100,4,2,1,55,0,0
40538,-100,4,2,2,55,0,0
40637,-100,4,2,1,55,0,0
40933,-100,4,2,2,55,0,0
41031,-100,4,2,1,55,0,0
41327,-100,4,2,2,55,0,0
41426,-100,4,2,1,55,0,0
41722,-100,4,2,2,55,0,0
41821,-100,4,2,1,55,0,0
42117,-100,4,2,2,55,0,0
42216,-100,4,2,1,55,0,0
42512,-100,4,2,2,55,0,0
42610,-100,4,2,1,55,0,0
42906,-100,4,2,2,55,0,0
43005,-100,4,2,1,55,0,0
43301,-100,4,2,2,55,0,0
43400,-100,4,2,1,55,0,0
43696,-100,4,2,2,55,0,0
43794,-100,4,2,1,55,0,0
44091,-100,4,2,1,100,0,0
44880,-100,4,2,1,69,0,0
50012,-100,4,2,2,85,0,0
50110,-100,4,2,1,85,0,0
52775,-100,4,2,1,100,0,1
59091,-100,4,2,1,89,0,1
63926,-100,4,2,1,89,0,1
64025,-100,4,2,1,89,0,1
64617,-100,4,2,1,70,0,0
65012,-100,4,2,1,86,0,0
65406,-100,4,2,1,100,0,1
71722,-100,4,2,1,89,0,1
74880,-100,4,2,1,80,0,1
78038,-100,4,2,1,60,0,0
79617,-100,4,2,1,75,0,0
81196,-100,4,2,1,85,0,1
84255,-100,4,2,1,55,0,1
84354,-100,4,2,1,55,0,0
85933,-100,4,2,1,45,0,0

[Colours]
Combo1 : 192,192,192
Combo2 : 255,128,0
Combo3 : 128,128,128
Combo4 : 164,82,0

[HitObjects]
286,182,670,6,0,L|170:178,1,107.5,2|0,0:0|0:0,0:0:0:0:
362,203,1064,2,0,P|426:203|467:334,1,215,2|2,0:0|0:0,0:0:0:0:
181,316,1854,6,0,L|412:293,1,215,2|2,0:0|0:0,0:0:0:0:
204,218,2643,2,0,L|331:209,1,107.5,2|0,0:0|0:0,0:0:0:0:
125,180,3038,2,0,P|113:118|251:54,1,215,2|0,0:0|0:0,0:0:0:0:
374,72,3630,1,0,0:0:0:0:
109,238,3827,6,0,L|338:229,1,215,2|2,0:0|0:0,0:0:0:0:
54,165,4617,2,0,P|2:110|89:21,1,215,2|2,0:0|0:0,0:0:0:0:
196,33,5209,1,0,0:0:0:0:
366,212,5406,6,0,L|141:179,1,215,2|2,0:0|0:0,0:0:0:0:
480,277,6196,2,0,L|484:52,1,215,2|2,0:0|0:0,0:0:0:0:
374,36,6788,1,0,0:0:0:0:
209,171,6985,6,0,L|424:148,1,215,2|2,0:0|0:0,0:0:0:0:
131,116,7775,2,0,P|66:123|31:257,1,215,2|2,0:0|0:0,0:0:0:0:
319,317,8564,6,0,L|324:86,1,215,2|0,0:0|0:0,0:0:0:0:
46,168,9354,1,2,0:0:0:0:
199,100,9551,1,2,0:0:0:0:
46,168,9748,1,2,0:0:0:0:
199,100,9946,1,2,0:0:0:0:
460,110,10143,6,0,P|463:198|337:267,1,215,2|0,0:0|0:0,0:0:0:0:
223,236,10735,1,0,0:0:0:0:
371,196,10933,2,0,L|376:42,1,107.5,2|0,0:0|0:0,0:0:0:0:
228,73,11327,2,0,L|101:83,1,107.5
264,135,11673,1,2,0:0:0:0:
391,116,11722,5,2,0:0:0:0:
256,192,11919,12,0,12906,0:0:0:0:
133,246,13301,6,0,P|89:223|141:150,1,161.25,4|0,3:2|0:0,0:0:0:0:
306,139,13696,1,0,3:0:0:0:
142,199,13893,2,0,L|141:79,1,107.5,0|0,0:0|3:0,0:0:0:0:
299,70,14288,1,0,0:0:0:0:
143,67,14485,1,0,3:0:0:0:
299,70,14683,1,0,0:0:0:0:
234,69,14781,1,0,0:0:0:0:
414,69,14880,6,0,P|459:79|402:140,1,161.25,0|0,3:0|0:0,0:0:0:0:
196,158,15275,1,0,3:0:0:0:
360,218,15472,2,0,L|361:98,1,107.5,0|0,0:0|3:0,0:0:0:0:
203,89,15867,1,0,0:0:0:0:
359,86,16064,1,0,3:0:0:0:
203,89,16262,1,0,0:0:0:0:
271,90,16360,1,0,0:0:0:0:
56,207,16459,6,0,P|15:185|77:113,1,161.25,0|0,3:0|0:0,0:0:0:0:
238,106,16854,1,0,3:0:0:0:
389,83,17051,2,0,L|268:81,2,107.5,0|0|0,0:0|3:0|0:0,0:0:0:0:
225,77,17643,1,0,3:0:0:0:
390,81,17841,2,0,L|329:80,1,53.75
494,90,18038,5,0,3:0:0:0:
334,120,18235,2,0,L|334:187,1,53.75
141,246,18433,1,0,3:0:0:0:
302,159,18630,2,0,L|288:156,1,13.4375,8|8,3:0|3:0,0:0:0:0:
357,85,18729,1,0,0:0:0:0:
162,87,18827,1,0,3:0:0:0:
342,116,19025,2,0,L|328:113,1,13.4375,8|8,3:0|3:0,0:0:0:0:
397,42,19124,1,0,0:0:0:0:
202,44,19222,1,0,3:0:0:0:
378,109,19419,2,0,L|364:106,1,13.4375,4|0,3:0|0:0,0:0:0:0:
433,35,19518,1,4,3:0:0:0:
260,33,19617,6,0,P|222:36|175:143,1,161.25,4|0,3:2|0:0,0:0:0:0:
353,226,20012,1,0,3:0:0:0:
194,158,20209,1,0,0:0:0:0:
257,157,20307,1,0,0:0:0:0:
194,158,20406,1,0,3:0:0:0:
359,157,20604,2,0,L|358:40,1,107.5,0|0,0:0|3:0,0:0:0:0:
197,41,20998,1,0,0:0:0:0:
262,40,21096,1,0,0:0:0:0:
75,182,21196,6,0,P|28:146|111:88,1,161.25,0|0,3:0|0:0,0:0:0:0:
272,71,21591,1,0,3:0:0:0:
432,92,21788,1,0,0:0:0:0:
369,91,21886,1,0,0:0:0:0:
432,92,21985,1,0,3:0:0:0:
265,162,22183,1,0,0:0:0:0:
350,163,22281,1,0,0:0:0:0:
265,162,22380,1,0,3:0:0:0:
435,97,22577,2,0,L|369:94,1,53.75
193,121,22775,6,0,P|259:114|293:29,1,161.25,0|0,3:0|0:0,0:0:0:0:
108,211,23169,1,0,3:0:0:0:
257,148,23367,2,0,L|265:68,1,53.75
432,93,23564,2,0,L|325:76,2,107.5,0|0|0,3:0|0:0|3:0,0:0:0:0:
284,162,24156,1,2,0:0:0:0:
436,109,24354,6,0,L|439:86,1,13.4375
357,59,24551,2,0,L|409:41,1,53.75
309,89,24748,2,0,L|308:112,1,13.4375
388,79,24946,2,0,L|336:61,1,53.75
436,109,25143,2,0,L|437:132,1,13.4375
295,157,25341,1,0,0:0:0:0:
16,86,25538,1,8,0:0:0:0:
359,87,25735,6,0,P|415:94|428:196,1,161.25,4|0,3:2|0:0,0:0:0:0:
237,199,26130,2,0,L|233:259,1,53.75,0|0,3:0|0:0,0:0:0:0:
36,306,26327,1,8,0:0:0:0:
200,194,26525,1,0,0:0:0:0:
135,192,26623,1,0,0:0:0:0:
327,134,26722,2,0,L|471:127,1,107.5,0|0,3:0|3:0,0:0:0:0:
156,94,27117,1,8,2:0:0:0:
311,50,27314,6,0,L|80:33,1,215,0|0,3:0|3:0,0:0:0:0:
186,134,27808,1,0,3:0:0:0:
20,132,27906,1,8,0:0:0:0:
166,62,28104,1,0,0:0:0:0:
97,62,28202,1,0,0:0:0:0:
293,133,28301,1,0,3:0:0:0:
133,152,28498,2,0,L|130:268,1,107.5,0|8,3:0|0:0,0:0:0:0:
418,267,28893,6,0,P|481:248|416:158,1,215,0|0,3:0|3:0,0:0:0:0:
167,160,29485,1,8,0:0:0:0:
335,97,29683,1,0,0:0:0:0:
244,93,29781,1,0,0:0:0:0:
335,97,29880,1,0,3:0:0:0:
167,160,30077,1,0,3:0:0:0:
477,159,30275,1,8,0:0:0:0:
305,96,30472,6,0,P|366:92|394:188,1,161.25,0|0,3:0|0:0,0:0:0:0:
291,199,30867,2,0,L|289:263,1,53.75,0|0,3:0|3:0,0:0:0:0:
490,313,31064,1,8,0:0:0:0:
341,212,31262,1,0,3:0:0:0:
34,130,31459,1,0,0:0:0:0:
291,77,31656,1,2,3:2:0:0:
144,54,31854,1,8,0:0:0:0:
407,130,32051,6,0,L|174:117,1,215,4|0,3:2|3:0,0:0:0:0:
451,229,32643,1,8,0:0:0:0:
286,162,32841,2,0,L|280:81,1,53.75
452,62,33038,1,0,3:0:0:0:
186,113,33235,1,0,3:0:0:0:
343,56,33433,1,8,0:0:0:0:
85,211,33630,6,0,P|22:183|99:96,1,215,0|0,3:0|3:0,0:0:0:0:
162,88,34123,1,0,3:0:0:0:
345,79,34222,1,8,0:0:0:0:
184,163,34419,1,0,0:0:0:0:
246,162,34518,1,0,0:0:0:0:
463,164,34617,1,0,3:0:0:0:
299,94,34814,1,0,3:0:0:0:
475,60,35012,1,8,0:0:0:0:
181,44,35209,6,0,P|92:45|79:165,1,215,0|0,3:0|3:0,0:0:0:0:
159,195,35702,1,0,0:0:0:0:
38,148,35801,1,8,0:0:0:0:
200,96,35998,1,0,0:0:0:0:
131,91,36096,1,0,0:0:0:0:
347,49,36196,1,0,3:0:0:0:
200,96,36393,1,2,3:2:0:0:
469,57,36591,1,8,0:0:0:0:
82,212,36788,6,0,L|297:193,1,215,4|8,3:2|3:0,0:0:0:0:
36,138,37380,1,8,0:0:0:0:
105,132,37478,1,0,0:0:0:0:
339,184,37577,2,0,L|124:165,1,215,4|8,3:2|3:0,0:0:0:0:
203,111,38071,1,0,0:0:0:0:
40,62,38169,1,8,3:0:0:0:
129,43,38268,1,0,0:0:0:0:
40,62,38367,1,4,3:0:0:0:
129,43,38466,1,0,0:0:0:0:
320,56,38564,6,0,P|376:62|430:212,1,215,4|8,3:2|0:0,0:0:0:0:
306,197,39156,1,0,3:0:0:0:
458,149,39354,1,8,0:0:0:0:
481,57,39748,1,8,0:0:0:0:
317,38,39946,6,0,P|250:41|211:180,1,215,0|0,3:0|0:0,0:0:0:0:
301,203,40735,1,0,3:0:0:0:
146,215,40933,2,0,L|138:88,1,107.5,8|0,0:0|3:0,0:0:0:0:
281,72,41327,2,0,L|430:51,1,107.5,8|0,3:2|3:0,0:0:0:0:
101,147,41722,6,0,P|50:101|131:9,1,215,8|8,3:2|0:0,0:0:0:0:
253,77,42314,1,0,3:0:0:0:
89,121,42512,1,8,0:0:0:0:
65,62,42906,1,8,0:0:0:0:
223,57,43104,6,0,L|232:178,1,107.5,0|8,3:0|3:2,0:0:0:0:
406,192,43498,2,0,P|461:206|381:294,1,215,0|0,0:0|3:0,0:0:0:0:
105,174,44091,2,0,L|89:52,1,107.5,2|8,0:0|0:0,0:0:0:0:
379,41,44485,2,0,L|507:32,1,107.5,8|8,3:0|3:0,0:0:0:0:
155,183,44880,5,4,3:2:0:0:
340,138,45077,2,0,L|342:22,1,107.5,2|0,0:0|3:0,0:0:0:0:
159,87,45472,2,0,L|311:78,1,107.5,2|0,0:0|3:0,0:0:0:0:
80,28,45867,1,2,0:0:0:0:
155,29,45965,1,0,0:0:0:0:
80,28,46064,1,0,3:0:0:0:
382,197,46262,6,0,L|148:190,1,215,2|2,0:0|0:0,0:0:0:0:
330,123,46854,1,0,3:0:0:0:
63,181,47051,2,0,P|126:162|57:73,1,215,10|2,0:0|0:0,0:0:0:0:
363,82,47643,1,8,0:0:0:0:
182,51,47841,1,8,0:0:0:0:
27,42,47939,1,8,0:0:0:0:
182,51,48038,6,0,P|253:51|308:144,1,161.25,4|0,3:2|0:0,0:0:0:0:
308,157,48433,1,8,0:0:0:0:
38,221,48630,2,0,L|257:211,1,215,4|2,3:2|0:0,0:0:0:0:
81,134,49222,1,8,0:0:0:0:
399,183,49419,6,0,P|455:165|381:65,1,215,4|0,3:2|3:0,0:0:0:0:
236,165,50012,2,0,L|348:161,1,107.5,8|0,0:0|0:0,0:0:0:0:
64,91,50406,2,0,L|172:88,1,107.5,0|8,3:0|3:0,0:0:0:0:
16,30,50801,1,8,0:0:0:0:
344,185,50998,6,0,L|121:189,1,215,4|8,3:2|3:2,0:0:0:0:
481,108,51591,2,0,L|352:108,1,107.5,8|10,3:2|3:2,0:0:0:0:
50,118,51985,1,8,3:2:0:0:
224,52,52248,2,0,L|189:50,1,35.8333333333333,0|0,3:0|3:0,0:0:0:0:
363,61,52380,2,0,L|370:176,1,107.5,10|0,3:2|0:0,0:0:0:0:
447,202,52676,1,0,0:0:0:0:
245,181,52775,5,4,3:2:0:0:
389,108,52972,1,0,0:0:0:0:
135,115,53169,1,8,0:0:0:0:
195,108,53267,1,0,0:0:0:0:
37,59,53367,1,0,0:0:0:0:
112,59,53465,1,0,0:0:0:0:
37,59,53564,1,0,3:0:0:0:
360,61,53762,1,0,3:0:0:0:
269,60,53860,1,0,0:0:0:0:
360,61,53959,1,8,0:0:0:0:
195,167,54156,1,0,0:0:0:0:
268,167,54254,1,0,0:0:0:0:
42,114,54354,6,0,L|157:115,1,107.5,0|0,3:0|0:0,0:0:0:0:
469,126,54748,1,8,0:0:0:0:
313,63,54946,1,0,0:0:0:0:
385,63,55044,1,0,0:0:0:0:
313,63,55143,1,0,3:0:0:0:
55,164,55341,1,0,3:0:0:0:
142,167,55439,1,0,0:0:0:0:
55,164,55538,1,8,0:0:0:0:
218,115,55735,2,0,L|223:39,1,53.75
385,97,55933,6,0,P|329:91|297:193,1,161.25,0|0,3:0|0:0,0:0:0:0:
460,273,56327,1,8,0:0:0:0:
290,190,56525,2,0,L|495:169,1,161.25
235,121,56919,1,0,3:0:0:0:
492,84,57117,2,0,L|352:81,1,107.5,8|0,0:0|3:0,0:0:0:0:
67,191,57512,6,0,L|65:57,1,107.5,4|0,3:2|0:0,0:0:0:0:
356,162,57906,2,0,L|149:148,1,161.25,8|0,0:0|0:0,0:0:0:0:
386,73,58301,2,0,L|453:62,3,53.75,4|0|0|0,3:2|0:0|0:0|0:0,0:0:0:0:
195,195,58696,2,0,L|402:181,1,161.25,4|0,3:2|0:0,0:0:0:0:
128,124,59091,6,0,L|18:116,1,107.5,4|2,3:2|0:0,0:0:0:0:
337,143,59485,1,8,0:0:0:0:
167,197,59683,2,0,L|164:83,1,107.5,4|0,3:2|0:0,0:0:0:0:
352,67,60077,2,0,L|211:64,1,107.5,10|8,0:0|3:0,0:0:0:0:
499,156,60472,6,0,L|318:157,1,161.25,4|0,3:2|0:0,0:0:0:0:
140,90,60867,1,10,0:0:0:0:
308,46,61064,1,8,3:0:0:0:
31,200,61262,2,0,P|97:167|27:81,1,215,4|8,3:2|3:2,0:0:0:0:
185,76,61854,1,8,3:2:0:0:
30,80,62051,1,8,3:2:0:0:
319,110,62248,5,0,3:0:0:0:
490,89,62446,1,0,0:0:0:0:
319,110,62643,1,8,0:0:0:0:
490,89,62841,1,0,0:0:0:0:
148,152,63038,1,0,3:0:0:0:
423,51,63235,2,0,L|280:47,1,107.5,0|8,3:0|0:0,0:0:0:0:
48,78,63630,6,0,L|241:64,1,161.25,4|0,3:2|0:0,0:0:0:0:
408,56,64025,2,0,L|340:47,1,53.75,8|0,3:2|0:0,0:0:0:0:
178,212,64222,2,0,L|332:208,1,107.5,8|0,3:2|3:0,0:0:0:0:
21,122,64617,5,10,0:0:0:0:
99,114,64715,1,0,0:0:0:0:
21,122,64814,1,8,0:0:0:0:
99,114,64912,1,8,0:0:0:0:
300,84,65012,1,0,3:0:0:0:
225,89,65110,1,0,3:0:0:0:
432,56,65209,1,0,3:0:0:0:
362,46,65307,1,0,3:0:0:0:
155,166,65406,5,4,3:2:0:0:
312,120,65604,1,0,0:0:0:0:
42,74,65801,1,8,0:0:0:0:
399,63,65998,1,0,0:0:0:0:
326,55,66096,1,0,0:0:0:0:
399,63,66196,1,0,3:0:0:0:
125,117,66393,1,0,3:0:0:0:
211,112,66492,1,0,0:0:0:0:
125,117,66591,1,8,0:0:0:0:
398,99,66788,1,0,0:0:0:0:
463,97,66886,1,0,0:0:0:0:
276,163,66985,5,0,3:0:0:0:
136,119,67183,1,0,0:0:0:0:
396,66,67380,1,8,0:0:0:0:
54,160,67577,1,0,0:0:0:0:
132,161,67675,1,0,0:0:0:0:
54,160,67775,1,0,3:0:0:0:
338,91,67972,1,0,3:0:0:0:
260,92,68070,1,0,0:0:0:0:
338,91,68170,1,8,0:0:0:0:
180,141,68367,2,0,L|174:66,1,53.75
336,49,68564,6,0,L|418:37,1,53.75,0|0,3:0|0:0,0:0:0:0:
216,23,68762,2,0,L|139:21,1,53.75
336,132,68959,2,0,L|343:206,1,53.75,8|0,0:0|0:0,0:0:0:0:
160,286,69156,2,0,P|218:285|253:171,1,161.25
46,154,69551,1,0,3:0:0:0:
298,107,69748,1,8,0:0:0:0:
151,74,69946,1,0,3:0:0:0:
410,82,70143,6,0,L|418:196,1,107.5,4|0,3:2|0:0,0:0:0:0:
54,224,70538,2,0,L|228:198,1,161.25,8|0,0:0|0:0,0:0:0:0:
424,147,70933,2,0,L|329:143,3,53.75,4|0|0|0,3:2|0:0|0:0|0:0,0:0:0:0:
172,113,71327,2,0,L|358:88,1,161.25,12|0,3:2|0:0,0:0:0:0:
103,177,71722,6,0,L|94:296,1,107.5,4|2,3:2|0:0,0:0:0:0:
383,322,72117,1,8,0:0:0:0:
84,262,72314,2,0,L|307:237,1,215,4|10,3:2|0:0,0:0:0:0:
132,162,72906,1,8,3:0:0:0:
422,114,73104,6,0,L|256:99,1,161.25,4|0,3:2|0:0,0:0:0:0:
419,35,73498,2,0,L|486:24,1,53.75,10|0,0:0|0:0,0:0:0:0:
241,69,73696,2,0,L|172:62,1,53.75,8|0,3:0|0:0,0:0:0:0:
436,91,73893,2,0,L|443:213,1,107.5,4|0,3:2|0:0,0:0:0:0:
183,242,74288,1,8,3:2:0:0:
449,201,74485,1,8,3:2:0:0:
119,134,74683,2,0,L|206:121,1,53.75,0|0,3:0|3:0,0:0:0:0:
416,100,74880,6,0,L|224:82,1,161.25,4|0,3:2|0:0,0:0:0:0:
435,70,75275,2,0,P|486:101|433:181,1,161.25,8|0,0:0|0:0,0:0:0:0:
213,222,75669,2,0,L|283:213,1,53.75,2|0,3:2|0:0,0:0:0:0:
367,178,75867,2,0,L|305:167,1,53.75,0|0,3:0|0:0,0:0:0:0:
102,98,76064,1,8,0:0:0:0:
372,96,76262,6,0,P|437:98|478:232,1,215,4|0,3:2|3:0,0:0:0:0:
309,244,76854,2,0,L|304:126,1,107.5,8|8,0:0|0:0,0:0:0:0:
208,127,77150,1,8,0:0:0:0:
416,83,77248,1,0,3:0:0:0:
347,80,77346,1,0,0:0:0:0:
416,83,77446,1,8,0:0:0:0:
248,57,77643,1,8,3:0:0:0:
329,53,77742,1,8,3:0:0:0:
410,46,77841,1,4,3:0:0:0:
127,228,78038,5,4,3:2:0:0:
256,192,78235,12,0,79419,0:0:0:0:
218,166,79617,5,0,0:0:0:0:
366,98,79814,1,0,3:0:0:0:
81,112,80012,1,8,0:0:0:0:
228,49,80209,1,0,3:0:0:0:
160,49,80307,1,0,0:0:0:0:
367,248,80406,1,10,0:0:0:0:
220,161,80604,1,0,3:0:0:0:
285,162,80702,1,0,3:0:0:0:
71,108,80801,1,8,3:2:0:0:
140,110,80899,1,8,3:2:0:0:
71,108,80998,1,8,3:0:0:0:
140,110,81096,1,8,3:0:0:0:
347,87,81196,6,0,L|215:79,2,107.5,8|8|8,3:2|3:0|3:2,0:0:0:0:
36,233,81788,1,2,3:2:0:0:
495,166,82183,2,0,L|373:166,1,107.5,12|0,3:2|0:0,0:0:0:0:
236,89,82577,1,8,0:0:0:0:
306,89,82675,1,8,0:0:0:0:
78,149,82775,5,0,3:0:0:0:
221,152,82972,1,0,3:0:0:0:
78,149,83169,1,8,0:0:0:0:
466,156,83367,1,4,3:2:0:0:
16,214,83762,2,0,P|84:196|11:71,1,268.75,0|0,3:0|0:0,0:0:0:0:
267,76,84354,5,4,0:0:0:0:
256,192,84551,12,0,87512,0:0:0:0:
