osu file format v14

[General]
AudioFilename: audio.ogg
AudioLeadIn: 0
PreviewTime: 52479
Countdown: 0
SampleSet: Soft
StackLeniency: 0.7
Mode: 0
LetterboxInBreaks: 0
WidescreenStoryboard: 1

[Editor]
DistanceSpacing: 1.2
BeatDivisor: 8
GridSize: 32
TimelineZoom: 2.999999

[Metadata]
Title:oath sign (TV Size)
TitleUnicode:oath sign (TV Size)
Artist:LiSA
ArtistUnicode:LiSA
Creator:Froskya
Version:normal
Source:Fate/Zero
Tags:フェイト/ゼロ fate zero 0 fate0 fatezero type-moon opening op 1 1st first one visual novel フェイト ufotable aniplex anime japanese j pop j-pop jpop short ver version saber lightlover''s''mile typemoon 渡辺翔 watanabe shou sho season op1 f/z revialink killian
BeatmapID:4437979
BeatmapSetID:2091754

[Difficulty]
HPDrainRate:3
CircleSize:3
OverallDifficulty:4
ApproachRate:5
SliderMultiplier:1.2
SliderTickRate:1

[Events]
//Background and Video events
0,0,"saber.jpg",0,0
Video,-350,"video.avi"
//Break Periods
//Storyboard Layer 0 (Background)
//Storyboard Layer 1 (Fail)
//Storyboard Layer 2 (Pass)
//Storyboard Layer 3 (Foreground)
//Storyboard Layer 4 (Overlay)
//Storyboard Sound Samples

[TimingPoints]
670,394.736842105263,4,2,1,70,1,0
670,-125,4,2,1,70,0,0
13301,-111.111111111111,4,2,2,70,0,0
24156,-111.111111111111,4,2,0,70,0,0
24255,-111.111111111111,4,2,0,5,0,0
25538,-111.111111111111,4,2,1,70,0,0
25735,-100,4,2,1,70,0,0
36788,-100,4,2,1,70,0,0
38564,-111.111111111111,4,2,1,70,0,0
44880,-99.9999999999999,4,2,1,70,0,0
48038,-100,4,2,1,70,0,0
52775,394.736842105263,4,2,1,70,1,1
52775,-90.9090909090909,4,2,1,70,0,1
64617,-90.9090909090909,4,2,1,70,0,0
65406,-90.9090909090909,4,2,1,70,0,1
78038,-90.9090909090909,4,2,1,70,0,0
80011,-90.9090909090909,4,2,1,70,0,0
81196,-90.9090909090909,4,2,1,70,0,1
84353,-100,4,2,1,70,0,0
84551,-100,4,2,1,67,0,0
84748,-100,4,2,1,65,0,0
84946,-100,4,2,1,62,0,0
85143,-100,4,2,1,59,0,0
85341,-100,4,2,1,56,0,0
85538,-100,4,2,1,54,0,0
85735,-100,4,2,1,51,0,0
85933,-100,4,2,1,48,0,0
86130,-100,4,2,1,46,0,0
86327,-100,4,2,1,43,0,0
86525,-100,4,2,1,40,0,0
86722,-100,4,2,1,37,0,0
86920,-100,4,2,1,35,0,0
87117,-100,4,2,1,32,0,0
87314,-100,4,2,1,29,0,0
87512,-100,4,2,1,27,0,0
87709,-100,4,2,1,24,0,0
87906,-100,4,2,1,21,0,0
88104,-100,4,2,1,19,0,0
88301,-100,4,2,1,16,0,0
88498,-100,4,2,1,13,0,0
88696,-100,4,2,1,10,0,0
88893,-100,4,2,1,8,0,0
89091,-100,4,2,1,5,0,0

[Colours]
Combo1 : 255,219,108
Combo2 : 136,211,244
Combo3 : 250,190,124
Combo4 : 202,202,202

[HitObjects]
95,137,670,5,2,0:0:0:0:
109,232,1064,2,0,P|55:240|6:252,2,96,2|2|2,0:0|0:0|0:0,0:0:0:0:
171,307,2248,2,0,P|217:313|254:284,1,96,2|2,0:0|0:0,0:0:0:0:
320,215,3038,2,0,P|295:145|277:47,1,144,2|0,0:0|0:0,0:0:0:0:
317,46,3827,6,0,P|363:49|394:85,1,96,2|2,0:0|0:0,0:0:0:0:
481,126,4617,2,0,P|477:172|441:203,1,96,2|2,0:0|0:0,0:0:0:0:
381,278,5406,1,2,0:0:0:0:
299,226,5801,1,2,0:0:0:0:
241,302,6196,1,2,0:0:0:0:
159,250,6591,1,2,0:0:0:0:
216,173,6985,6,0,L|198:78,1,96,2|2,0:0|0:0,0:0:0:0:
112,121,7775,2,0,L|94:26,1,96,2|2,0:0|0:0,0:0:0:0:
0,39,8564,2,0,L|25:180,1,144,2|0,0:0|0:0,0:0:0:0:
33,227,9354,2,0,L|87:217,1,48,2|2,0:0|0:0,0:0:0:0:
127,209,9748,1,2,0:0:0:0:
256,192,10143,12,2,11722,0:0:0:0:
479,118,12709,6,0,P|486:165|492:217,1,96,4|0,0:3|0:0,0:0:0:0:
497,256,13301,6,0,B|421:269|464:304|353:317,1,107.999996704102,4|2,1:0|3:2,0:0:0:0:
350,316,13893,1,2,0:0:0:0:
276,236,14288,1,2,0:0:0:0:
184,291,14683,1,2,0:0:0:0:
184,291,14880,2,0,L|155:153,1,107.999996704102,0|2,3:2|3:2,0:0:0:0:
113,159,15472,1,2,0:0:0:0:
133,52,15867,1,2,0:0:0:0:
243,72,16262,5,2,0:0:0:0:
243,72,16459,2,0,P|278:33|331:31,1,107.999996704102,0|2,3:2|3:2,0:0:0:0:
374,63,17051,2,0,L|436:50,1,53.9999983520508,2|0,0:0|3:0,0:0:0:0:
455,156,17643,1,2,3:2:0:0:
455,156,17841,2,0,L|340:180,1,107.999996704102,2|2,0:0|0:0,0:0:0:0:
316,222,18433,1,2,3:2:0:0:
316,222,18630,1,10,3:2:0:0:
386,303,19025,1,10,3:2:0:0:
297,361,19419,5,0,3:0:0:0:
297,361,19617,2,0,P|244:346|192:334,1,107.999996704102,4|2,1:0|3:2,0:0:0:0:
145,361,20209,1,2,0:0:0:0:
106,260,20604,1,2,0:0:0:0:
211,226,20998,1,2,0:0:0:0:
211,226,21196,2,0,P|236:170|191:120,1,107.999996704102,0|2,3:0|3:2,0:0:0:0:
173,94,21788,1,2,0:0:0:0:
251,20,22183,1,2,0:0:0:0:
355,63,22577,5,2,0:0:0:0:
355,63,22775,2,0,B|366:127|401:101|402:193,1,107.999996704102,0|0,3:0|3:0,0:0:0:0:
429,204,23367,1,2,0:0:0:0:
429,204,23564,1,2,3:2:0:0:
386,305,23959,1,2,3:2:0:0:
386,305,24156,2,0,B|323:211|126:234|225:394|27:358,1,377.999988464356,2|8,0:0|0:0,0:0:0:0:
16,319,25735,6,0,P|33:261|45:202,1,120,4|0,1:0|3:0,0:0:0:0:
23,151,26327,1,10,1:2:0:0:
23,151,26525,2,0,P|64:110|122:108,1,120,2|2,0:0|3:2,0:0:0:0:
239,134,27314,2,0,P|297:132|338:90,1,120,2|0,3:2|3:0,0:0:0:0:
365,39,27906,1,10,1:2:0:0:
365,39,28104,2,0,P|428:52|505:61,1,120,2|2,0:0|3:2,0:0:0:0:
421,162,28893,6,0,B|429:226|429:226|457:242|457:242|469:331,1,180,2|10,3:2|1:2,0:0:0:0:
434,373,29683,1,2,0:0:0:0:
344,291,30077,1,2,3:2:0:0:
234,339,30472,2,0,L|215:220,1,120,2|2,3:2|3:2,0:0:0:0:
174,184,31064,1,10,1:2:0:0:
174,184,31262,2,0,L|192:65,1,120,2|4,3:2|3:2,0:0:0:0:
84,11,32051,6,0,B|48:37|48:37|64:124,1,120,4|0,1:0|3:0,0:0:0:0:
21,154,32643,1,10,1:2:0:0:
21,154,32841,2,0,B|7:228|7:228|43:254,1,120,2|2,0:0|3:2,0:0:0:0:
95,362,33630,2,0,P|142:328|201:335,1,120,2|0,3:2|3:0,0:0:0:0:
245,383,34222,1,10,1:2:0:0:
245,383,34419,2,0,P|263:329|279:247,1,120,2|2,0:0|3:2,0:0:0:0:
396,279,35209,6,0,P|376:199|361:94,1,180,2|8,3:2|1:2,0:0:0:0:
310,0,36196,2,0,P|268:11|234:14,1,60,2|6,3:2|3:2,0:0:0:0:
195,10,36591,1,10,1:2:0:0:
195,10,36788,2,0,P|215:90|230:195,1,180,4|10,1:0|1:2,0:0:0:0:
238,245,37577,2,0,P|104:201|19:314,1,300,4|4,1:0|1:0,0:0:0:0:
103,382,38959,5,2,0:0:0:0:
206,351,39354,1,2,0:0:0:0:
312,322,39748,1,2,0:0:0:0:
312,322,39946,2,0,L|338:210,2,107.999996704102,2|2|0,0:0|0:0|3:0,0:0:0:0:
348,361,40933,1,2,0:0:0:0:
451,330,41328,1,2,0:0:0:0:
422,225,41722,1,2,3:2:0:0:
393,120,42117,5,2,0:0:0:0:
290,151,42512,1,2,0:0:0:0:
184,180,42906,1,2,0:0:0:0:
184,180,43104,2,0,L|158:292,2,107.999996704102,2|2|0,0:0|0:0|3:0,0:0:0:0:
148,141,44091,1,6,0:0:0:0:
45,172,44486,1,2,3:2:0:0:
5,64,44880,5,4,1:0:0:0:
5,64,45077,2,0,L|62:47,1,60,2|2,0:0|3:2,0:0:0:0:
120,28,45472,1,2,0:0:0:0:
148,141,45867,1,2,0:0:0:0:
263,108,46262,1,2,0:0:0:0:
300,227,46656,2,0,L|357:210,1,60,2|2,0:0|3:2,0:0:0:0:
414,191,47051,2,0,L|389:328,1,120,6|2,0:0|0:0,0:0:0:0:
276,340,47841,5,10,1:2:0:0:
276,340,48038,2,0,P|226:299|163:316,1,120,4|8,1:0|1:2,0:0:0:0:
120,336,48630,2,0,P|102:267|85:216,1,120,4|2,1:0|3:2,0:0:0:0:
39,190,49222,1,10,1:2:0:0:
39,190,49419,2,0,P|57:132|88:5,1,180,4|8,1:0|1:2,0:0:0:0:
190,74,50406,2,0,P|178:108|172:145,1,60,4|8,3:0|3:0,0:0:0:0:
201,190,50801,5,10,1:2:0:0:
201,190,50998,2,0,P|272:157|317:148,1,120,4|10,1:0|1:2,0:0:0:0:
342,95,51591,2,0,P|376:101|413:114,1,60,10|10,1:2|1:2,0:0:0:0:
454,134,51985,1,10,1:2:0:0:
482,250,52380,1,8,1:2:0:0:
365,274,52775,6,0,P|310:244|235:291,1,132.00000402832,4|10,1:0|1:2,0:0:0:0:
214,316,53367,2,0,L|140:297,1,66.0000020141602,2|0,3:2|3:0,0:0:0:0:
92,284,53761,1,2,3:2:0:0:
35,179,54156,1,2,0:0:0:0:
35,179,54353,2,0,B|109:163|70:129|152:112,1,132.00000402832,2|10,3:2|1:2,0:0:0:0:
199,139,54946,1,2,3:2:0:0:
271,45,55340,1,2,3:2:0:0:
271,45,55538,1,8,1:2:0:0:
362,120,55932,6,0,P|351:162|344:192,1,66.0000020141602,2|2,3:2|0:0,0:0:0:0:
298,218,56327,1,10,1:2:0:0:
298,218,56525,2,0,P|317:284|329:353,1,132.00000402832,2|2,3:2|3:2,0:0:0:0:
379,376,57117,2,0,P|421:366|451:360,1,66.0000020141602,10|2,1:2|3:2,0:0:0:0:
480,315,57511,1,4,1:0:0:0:
453,199,57906,1,10,1:2:0:0:
362,120,58301,1,6,3:2:0:0:
389,4,58696,1,6,3:2:0:0:
272,23,59090,6,0,B|215:31|215:31|206:43|206:43|134:54,1,132.00000402832,4|10,1:0|1:2,0:0:0:0:
99,87,59682,2,0,P|144:133|128:199,1,132.00000402832,4|2,1:0|3:2,0:0:0:0:
98,246,60275,1,10,1:2:0:0:
98,246,60472,2,0,P|174:259|246:304,1,132.00000402832,4|2,1:0|3:2,0:0:0:0:
264,334,61064,1,10,1:2:0:0:
264,334,61261,1,4,1:0:0:0:
381,352,61656,2,0,P|367:287|357:222,1,132.00000402832,8|4,3:0|3:0,0:0:0:0:
299,204,62248,6,0,P|308:168|321:121,1,66.0000020141602,4|2,1:0|0:0,0:0:0:0:
333,83,62643,1,10,1:2:0:0:
246,5,63038,1,2,3:2:0:0:
246,5,63235,1,2,3:2:0:0:
128,22,63630,2,0,B|90:191|263:114|208:342,1,330.000010070801,4|10,1:0|1:2,0:0:0:0:
316,377,65011,1,10,1:2:0:0:
422,324,65406,6,0,P|408:259|399:193,1,132.00000402832,4|8,1:0|1:2,0:0:0:0:
442,152,65998,2,0,P|458:123|453:91,1,66.0000020141602,2|0,0:2|3:0,0:0:0:0:
417,44,66393,1,2,3:2:0:0:
311,93,66788,1,2,0:0:0:0:
311,93,66985,2,0,P|263:50|200:61,1,132.00000402832,2|10,3:2|1:2,0:0:0:0:
161,106,67577,1,2,0:0:0:0:
219,215,67972,1,2,3:2:0:0:
219,215,68169,1,8,1:2:0:0:
172,324,68564,6,0,P|142:314|108:305,1,66.0000020141602,4|2,1:0|0:0,0:0:0:0:
54,320,68959,1,10,1:2:0:0:
54,320,69156,2,0,B|25:288|25:288|57:186,1,132.00000402832,2|2,3:2|3:2,0:0:0:0:
105,177,69748,2,0,L|84:114,1,66.0000020141602,10|2,1:2|3:2,0:0:0:0:
65,57,70143,1,4,1:0:0:0:
180,27,70538,1,10,1:2:0:0:
215,140,70932,1,4,3:2:0:0:
330,170,71327,1,6,3:2:0:0:
242,250,71722,6,0,B|207:306|207:306|244:369,1,132.00000402832,4|10,1:0|1:2,0:0:0:0:
299,368,72314,2,0,P|337:321|419:332,1,132.00000402832,4|2,1:0|3:2,0:0:0:0:
464,346,72906,1,10,1:2:0:0:
464,346,73103,2,0,P|449:281|439:196,1,132.00000402832,4|2,1:0|3:2,0:0:0:0:
436,161,73696,1,10,1:2:0:0:
436,161,73893,1,4,1:0:0:0:
374,65,74288,1,2,3:2:0:0:
374,65,74485,2,0,P|343:88|290:76,1,66.0000020141602,10|2,1:2|0:0,0:0:0:0:
259,70,74880,6,0,P|273:134|282:199,2,132.00000402832,4|8|2,1:0|1:2|3:2,0:0:0:0:
157,19,76064,1,10,1:2:0:0:
157,19,76261,2,0,B|141:94|107:66|93:143,1,132.00000402832,4|0,1:0|3:0,0:0:0:0:
56,178,76853,1,10,1:2:0:0:
74,295,77248,2,0,L|148:282,1,66.0000020141602,10|0,1:2|3:0,0:0:0:0:
197,272,77643,1,10,1:2:0:0:
256,192,78038,12,2,79617,0:0:0:0:
197,272,80406,6,0,L|262:283,1,66.0000020141602,12|0,1:2|3:0,0:0:0:0:
304,324,80801,2,0,L|369:312,1,66.0000020141602,10|2,1:2|3:2,0:0:0:0:
427,301,81196,6,0,L|445:377,2,66.0000020141602,4|2|10,1:0|3:2|1:2,0:0:0:0:
453,247,81788,1,6,3:2:0:0:
424,131,82182,2,0,B|371:141|371:141|346:130|346:130|296:140,1,132.00000402832,4|0,1:0|3:0,0:0:0:0:
253,97,82774,6,0,L|271:21,2,66.0000020141602,4|2|10,1:0|3:2|1:2,0:0:0:0:
197,119,83367,1,6,3:2:0:0:
176,235,83761,2,0,P|128:218|52:273,1,132.00000402832,4|0,1:0|0:0,0:0:0:0:
43,306,84353,1,4,3:2:0:0:
256,192,84748,12,0,89288,0:0:0:0:
