osu file format v14

[General]
AudioFilename: audio.ogg
AudioLeadIn: 0
PreviewTime: 52479
Countdown: 0
SampleSet: Soft
StackLeniency: 0.4
Mode: 0
LetterboxInBreaks: 0
WidescreenStoryboard: 1

[Editor]
Bookmarks: 30867
DistanceSpacing: 1.2
BeatDivisor: 8
GridSize: 4
TimelineZoom: 2.999999

[Metadata]
Title:oath sign (TV Size)
TitleUnicode:oath sign (TV Size)
Artist:LiSA
ArtistUnicode:LiSA
Creator:Froskya
Version:killian's bind
Source:Fate/Zero
Tags:フェイト/ゼロ fate zero 0 fate0 fatezero type-moon opening op 1 1st first one visual novel フェイト ufotable aniplex anime japanese j pop j-pop jpop short ver version saber lightlover''s''mile typemoon 渡辺翔 watanabe shou sho season op1 f/z revialink killian
BeatmapID:4460192
BeatmapSetID:2091754

[Difficulty]
HPDrainRate:5.5
CircleSize:4
OverallDifficulty:8
ApproachRate:8.8
SliderMultiplier:1.7
SliderTickRate:1

[Events]
//Background and Video events
0,0,"saber.jpg",0,0
Video,-350,"video.avi"
//Break Periods
//Storyboard Layer 0 (Background)
//Storyboard Layer 1 (Fail)
//Storyboard Layer 2 (Pass)
//Storyboard Layer 3 (Foreground)
//Storyboard Layer 4 (Overlay)
//Storyboard Sound Samples

[TimingPoints]
670,394.736842105263,4,2,1,70,1,0
670,-133.333333333333,4,2,1,70,0,0
11722,-285.714285714286,4,2,1,70,0,0
12512,-285.714285714286,4,2,1,70,0,0
12709,-400,4,2,1,70,0,0
13301,-125,4,2,2,70,0,0
24156,-125,4,2,0,70,0,0
25538,-111.111111111111,4,2,1,70,0,0
36788,-100,4,2,1,70,0,0
38564,-153.846153846154,4,2,1,70,0,0
44880,-117.647058823529,4,2,1,70,0,0
52248,-153.846153846154,4,2,1,70,0,0
52775,394.736842105263,4,2,1,70,1,1
52775,-86.9565217391304,4,2,1,70,0,1
78038,-333.333333333333,4,2,1,70,0,0
78087,-333.333333333333,4,2,1,5,0,0
79222,-333.333333333333,4,2,1,70,0,0
81196,-86.9565217391304,4,2,1,70,0,1
84353,-86.9565217391304,4,2,1,70,0,0
84551,-133.33333,4,2,1,67,0,0
84748,-133.33333,4,2,1,65,0,0
84946,-133.33333,4,2,1,62,0,0
85143,-133.33333,4,2,1,59,0,0
85341,-133.33333,4,2,1,56,0,0
85538,-133.33333,4,2,1,54,0,0
85735,-133.33333,4,2,1,51,0,0
85933,-133.33333,4,2,1,48,0,0
86130,-133.33333,4,2,1,46,0,0
86327,-133.33333,4,2,1,43,0,0
86525,-133.33333,4,2,1,40,0,0
86722,-133.33333,4,2,1,37,0,0
86920,-133.33333,4,2,1,35,0,0
87117,-133.33333,4,2,1,32,0,0
87314,-133.33333,4,2,1,29,0,0
87512,-133.33333,4,2,1,27,0,0
87709,-133.33333,4,2,1,24,0,0
87906,-133.33333,4,2,1,21,0,0
88104,-133.33333,4,2,1,19,0,0
88301,-133.33333,4,2,1,16,0,0
88498,-133.33333,4,2,1,13,0,0
88696,-133.33333,4,2,1,10,0,0
88893,-133.33333,4,2,1,8,0,0
89091,-133.33333,4,2,1,5,0,0

[Colours]
Combo1 : 255,219,108
Combo2 : 136,211,244
Combo3 : 250,190,124
Combo4 : 202,202,202

[HitObjects]
0,130,670,5,2,0:0:0:0:
66,187,867,1,2,0:0:0:0:
140,94,1064,2,0,P|129:61|118:12,1,63.7500024318696,2|0,0:0|0:0,0:0:0:0:
220,73,1459,2,0,P|209:40|198:-9,1,63.7500024318696,2|0,0:0|0:0,0:0:0:0:
293,145,1854,2,0,P|304:108|313:71,1,63.7500024318696,2|0,0:0|0:0,0:0:0:0:
373,166,2248,2,0,P|384:129|393:92,1,63.7500024318696,2|0,0:0|0:0,0:0:0:0:
457,251,2643,2,0,P|446:284|435:333,1,63.7500024318696,2|0,0:0|0:0,0:0:0:0:
301,374,3038,2,0,B|268:385|242:362|242:362|215:338|183:348,1,127.500004863739,2|0,0:0|0:0,0:0:0:0:
25,138,3827,6,0,P|77:104|78:17,2,127.500004863739,2|2|2,0:0|0:0|0:0,0:0:0:0:
1,54,5012,1,2,0:0:0:0:
104,194,5406,6,0,P|141:185|194:186,1,63.7500024318696,2|0,0:0|0:0,0:0:0:0:
113,277,5801,2,0,P|150:268|203:269,1,63.7500024318696,2|0,0:0|0:0,0:0:0:0:
279,356,6196,2,0,P|275:282|334:238,1,127.500004863739,2|2,0:0|0:0,0:0:0:0:
358,320,6985,1,2,0:0:0:0:
499,200,7380,6,0,L|514:286,1,63.7500024318696,2|0,0:0|0:0,0:0:0:0:
406,180,7775,2,0,L|419:258,1,63.7500024318696,2|0,0:0|0:0,0:0:0:0:
325,116,8169,2,0,L|338:40,1,63.7500024318696,2|0,0:0|0:0,0:0:0:0:
232,152,8564,2,0,P|199:115|116:134,1,127.500004863739,2|0,0:0|0:0,0:0:0:0:
21,317,9354,6,0,P|13:278|-4:237,2,63.7500024318696,2|2|2,0:0|0:0|0:0,0:0:0:0:
94,384,9946,1,2,0:0:0:0:
184,284,10143,2,0,P|190:252|201:222,1,63.7500024318696,2|0,0:0|0:0,0:0:0:0:
300,323,10538,2,0,P|289:353|283:384,2,63.7500024318696,2|0|0,0:0|0:0|0:0,0:0:0:0:
426,289,11130,2,0,P|432:257|443:227,1,63.7500024318696,2|0,0:0|0:0,0:0:0:0:
512,92,11722,6,0,P|458:103|392:110,1,118.999996368408,2|0,0:0|0:0,0:0:0:0:
420,25,12709,6,0,P|445:22|469:17,1,42.5,4|0,0:3|0:0,0:0:0:0:
336,46,13301,6,0,P|303:29|263:32,1,68,4|0,1:0|0:0,0:0:0:0:
161,137,13696,1,2,3:2:0:0:
82,75,13893,2,0,L|67:-8,1,68,2|0,0:0|3:0,0:0:0:0:
9,148,14288,2,0,L|23:231,1,68,2|0,0:0|3:0,0:0:0:0:
66,345,14683,5,2,0:0:0:0:
144,294,14880,2,0,L|212:306,1,68,0|0,3:2|0:0,0:0:0:0:
329,384,15275,1,2,3:2:0:0:
402,312,15472,2,0,P|416:281|417:247,1,68,2|0,0:0|3:0,0:0:0:0:
315,212,15867,2,0,P|300:242|299:276,1,68,2|0,0:0|3:0,0:0:0:0:
394,157,16262,5,2,0:0:0:0:
328,93,16459,2,0,P|292:102|254:106,1,68,0|0,3:2|0:0,0:0:0:0:
129,11,16854,1,2,3:2:0:0:
171,87,17051,2,0,P|179:119|183:153,1,68,2|0,0:0|3:0,0:0:0:0:
176,326,17643,5,2,3:2:0:0:
268,222,17841,1,2,0:0:0:0:
259,226,17939,1,0,0:0:0:0:
250,230,18038,1,0,3:0:0:0:
102,199,18235,1,2,0:0:0:0:
198,151,18433,1,2,3:2:0:0:
36,135,18630,5,10,3:2:0:0:
9,225,18827,1,0,3:0:0:0:
129,289,19025,1,10,3:2:0:0:
102,199,19222,1,0,3:0:0:0:
68,363,19419,5,0,3:0:0:0:
68,363,19518,1,0,3:0:0:0:
68,363,19617,2,0,P|101:369|133:379,1,68,4|0,1:0|0:0,0:0:0:0:
299,322,20012,1,2,3:2:0:0:
226,265,20209,2,0,P|214:296|206:329,1,68,2|0,0:0|3:0,0:0:0:0:
311,236,20604,2,0,P|322:204|330:171,1,68,2|0,0:0|3:0,0:0:0:0:
233,34,20998,5,2,0:0:0:0:
325,0,21196,2,0,P|334:34|319:75,1,68,0|0,3:0|0:0,0:0:0:0:
182,109,21591,1,2,3:2:0:0:
90,75,21789,2,0,P|81:109|96:150,1,68,2|0,0:0|3:0,0:0:0:0:
218,230,22183,2,0,P|193:205|150:197,1,68,2|0,0:0|3:2,0:0:0:0:
55,339,22577,5,2,0:0:0:0:
144,384,22775,2,0,P|208:368|278:365,1,136,0|0,3:0|3:0,0:0:0:0:
402,288,23367,1,2,0:0:0:0:
312,211,23564,2,0,L|300:277,1,68,2|0,3:2|0:0,0:0:0:0:
385,160,23959,1,2,3:2:0:0:
224,231,24156,1,2,0:0:0:0:
363,383,24354,6,0,B|472:363|472:363|485:326,2,136,0|2|0,3:0|3:2|0:0,0:0:0:0:
363,383,25538,6,0,L|355:339,1,38.2499988327027,8|0,0:0|0:0,0:0:0:0:
367,331,25735,6,0,B|376:276|376:276|365:247|365:247|376:181,1,152.999995330811,4|0,1:0|3:0,0:0:0:0:
480,50,26327,1,10,1:2:0:0:
512,131,26525,2,0,B|473:142|473:142|440:126,1,76.4999976654053,2|0,0:0|3:0,0:0:0:0:
321,58,26919,2,0,B|354:42|354:42|392:53,1,76.4999976654053,2|8,3:2|1:2,0:0:0:0:
216,104,27314,6,0,P|184:40|241:0,1,152.999995330811,2|0,3:2|3:0,0:0:0:0:
299,147,27906,1,10,1:2:0:0:
218,194,28104,2,0,L|142:207,1,76.4999976654053,2|0,0:0|3:0,0:0:0:0:
273,268,28498,2,0,L|348:281,1,76.4999976654053,2|8,3:2|1:2,0:0:0:0:
199,367,28893,6,0,B|157:374|130:343|130:343|102:313|60:321,1,152.999995330811,2|0,3:2|3:0,0:0:0:0:
0,187,29485,1,10,1:2:0:0:
81,144,29683,2,0,P|93:182|82:226,1,76.4999976654053,2|0,0:0|3:0,0:0:0:0:
0,100,30077,2,0,P|26:70|70:58,1,76.4999976654053,2|8,3:2|1:2,0:0:0:0:
222,109,30472,6,0,L|236:25,1,76.4999976654053,2|0,3:2|0:0,0:0:0:0:
363,137,30867,1,2,3:2:0:0:
264,213,31064,1,10,1:2:0:0:
375,125,31262,2,0,L|389:208,1,76.4999976654053,2|2,3:2|0:0,0:0:0:0:
452,376,31656,5,4,3:2:0:0:
512,214,31854,1,8,1:2:0:0:
438,384,32051,6,0,P|375:341|289:354,1,152.999995330811,4|0,1:0|3:0,0:0:0:0:
148,384,32643,1,10,1:2:0:0:
205,305,32841,2,0,P|214:268|205:223,1,76.4999976654053,2|0,0:0|3:0,0:0:0:0:
91,222,33235,2,0,P|82:259|91:304,1,76.4999976654053,2|8,3:2|1:2,0:0:0:0:
199,142,33630,6,0,B|240:134|268:166|268:166|296:196|337:187,1,152.999995330811,2|0,3:2|3:0,0:0:0:0:
421,63,34222,1,10,1:2:0:0:
339,22,34419,2,0,P|326:61|337:101,1,76.4999976654053,2|0,0:0|3:0,0:0:0:0:
416,218,34814,2,0,P|423:180|410:145,1,76.4999976654053,2|8,3:2|1:2,0:0:0:0:
334,300,35209,6,0,P|412:312|501:333,1,152.999995330811,2|0,3:2|3:0,0:0:0:0:
342,384,35801,1,8,1:2:0:0:
416,218,35998,1,2,0:0:0:0:
421,227,36097,1,2,0:0:0:0:
425,236,36196,1,2,3:2:0:0:
316,306,36393,1,6,3:2:0:0:
509,253,36591,1,10,1:2:0:0:
316,150,36788,6,0,L|224:166,1,85,4|0,1:0|0:0,0:0:0:0:
116,30,37183,1,2,3:2:0:0:
257,76,37380,1,10,1:2:0:0:
142,199,37577,2,0,L|50:182,1,85,4|0,1:0|0:0,0:0:0:0:
207,260,37972,1,8,3:0:0:0:
119,113,38169,1,8,3:0:0:0:
215,245,38367,1,4,3:0:0:0:
166,351,38564,6,0,P|205:356|252:372,1,82.8749962062838,4|0,1:0|0:0,0:0:0:0:
261,360,38959,2,0,P|290:353|326:348,1,55.2499974708558,2|0,0:0|3:0,0:0:0:0:
451,376,39354,1,2,0:0:0:0:
451,376,39748,5,2,0:0:0:0:
378,252,39946,1,2,0:0:0:0:
437,189,40143,2,0,P|467:233|458:286,1,110.499994941712,0|0,3:0|0:0,0:0:0:0:
347,147,40735,6,0,L|357:85,1,55.2499974708558,0|2,3:0|0:0,0:0:0:0:
283,207,41130,1,0,3:0:0:0:
263,119,41327,2,0,L|273:57,1,55.2499974708558,2|0,0:0|0:0,0:0:0:0:
125,7,41722,6,0,P|109:3|89:0,4,36.8333316472372,2|0|0|2|0,3:2|0:0|0:0|0:0|0:0,0:0:0:0:
143,21,42380,6,0,P|160:16|179:13,4,36.8333316472372,2|2|0|0|2,0:0|0:0|0:0|0:0|0:0,0:0:0:0:
100,114,43104,5,2,0:0:0:0:
143,189,43301,1,0,3:0:0:0:
54,269,43498,2,0,L|-14:256,1,55.2499974708558,2|0,0:0|0:0,0:0:0:0:
50,185,43893,1,0,3:0:0:0:
143,286,44091,1,6,0:0:0:0:
130,202,44288,1,4,3:0:0:0:
82,347,44485,1,2,3:2:0:0:
212,232,44683,1,4,3:0:0:0:
0,259,44880,5,4,1:0:0:0:
172,369,45077,1,2,0:0:0:0:
127,279,45275,1,2,3:2:0:0:
304,220,45472,2,0,L|289:304,1,72.2500013780594,2|0,0:0|3:0,0:0:0:0:
430,380,45867,2,0,L|415:295,1,72.2500013780594,2|0,0:0|3:0,0:0:0:0:
435,152,46262,6,0,P|465:171|500:173,1,72.2500013780594,2|0,0:0|3:0,0:0:0:0:
394,66,46656,1,2,0:0:0:0:
337,144,46854,1,2,3:2:0:0:
259,34,47051,2,0,B|219:29|193:60|193:60|168:89|130:86,1,144.500002756119,6|2,0:0|0:0,0:0:0:0:
0,229,47643,5,8,3:2:0:0:
29,82,47841,1,10,1:2:0:0:
34,73,47939,1,8,1:2:0:0:
38,64,48038,2,0,L|55:162,1,72.2500013780594,4|0,1:0|3:0,0:0:0:0:
93,292,48433,1,8,1:2:0:0:
209,175,48630,2,0,L|110:192,1,72.2500013780594,4|0,1:0|0:0,0:0:0:0:
257,267,49025,1,2,3:2:0:0:
146,99,49222,1,10,1:2:0:0:
273,270,49419,5,4,1:0:0:0:
273,270,49814,5,0,3:0:0:0:
360,153,50012,1,8,1:2:0:0:
209,175,50209,1,0,0:0:0:0:
371,241,50406,1,4,3:0:0:0:
272,121,50604,1,8,3:0:0:0:
431,84,50801,1,10,1:2:0:0:
202,190,50998,5,4,1:0:0:0:
202,190,51393,5,10,1:2:0:0:
264,18,51591,1,10,1:2:0:0:
101,168,51788,1,10,1:2:0:0:
346,57,51985,1,10,1:2:0:0:
70,0,52248,6,0,L|76:34,2,18.4166658236186,4|4|8,3:0|3:0|1:2,0:0:0:0:
190,218,52577,5,2,0:0:0:0:
196,204,52676,1,2,0:0:0:0:
202,190,52775,1,4,1:0:0:0:
258,335,52972,1,2,0:0:0:0:
102,257,53169,1,10,1:2:0:0:
278,130,53367,2,0,P|291:177|297:225,1,97.7500018644333,2|0,3:2|3:0,0:0:0:0:
190,95,53761,2,0,P|196:46|209:0,1,97.7500018644333,2|8,3:2|1:2,0:0:0:0:
409,114,54156,5,2,0:0:0:0:
393,116,54255,1,2,0:0:0:0:
378,118,54353,1,2,3:2:0:0:
512,31,54551,1,2,0:0:0:0:
463,194,54748,1,10,1:2:0:0:
333,34,54946,2,0,L|438:15,1,97.7500018644333,2|0,3:2|3:0,0:0:0:0:
275,127,55340,2,0,L|169:108,1,97.7500018644333,2|8,3:2|1:2,0:0:0:0:
242,38,55735,1,2,0:0:0:0:
245,234,55932,5,2,3:2:0:0:
94,160,56130,1,2,0:0:0:0:
275,127,56327,1,10,1:2:0:0:
95,176,56525,2,0,P|45:162|-15:153,1,97.7500018644333,2|0,3:2|3:0,0:0:0:0:
128,272,56919,1,2,3:2:0:0:
180,109,57117,1,10,1:2:0:0:
95,176,57314,1,2,3:2:0:0:
254,250,57511,2,0,P|300:236|349:228,1,97.7500018644333,4|0,1:0|0:0,0:0:0:0:
452,31,57906,6,0,P|380:16|308:7,1,146.62500279665,10|0,1:2|0:0,0:0:0:0:
298,88,58301,2,0,P|371:96|443:111,1,146.62500279665,6|0,3:2|0:0,0:0:0:0:
434,191,58696,2,0,P|362:176|289:168,1,146.62500279665,6|0,3:2|0:0,0:0:0:0:
208,209,59090,6,0,P|198:257|196:305,1,97.7500018644333,4|0,1:0|3:0,0:0:0:0:
138,147,59485,1,10,1:2:0:0:
301,264,59682,2,0,P|299:215|289:167,1,97.7500018644333,4|0,1:0|0:0,0:0:0:0:
196,305,60077,1,2,3:2:0:0:
312,351,60275,1,10,1:2:0:0:
109,372,60472,6,0,L|92:275,1,97.7500018644333,4|0,1:0|0:0,0:0:0:0:
144,121,60867,1,2,3:2:0:0:
0,210,61064,1,10,1:2:0:0:
132,36,61261,2,0,B|187:29|215:70|215:70|249:118|301:110,1,195.500003728867,4|8,1:0|3:0,0:0:0:0:
404,3,61853,1,4,3:0:0:0:
297,26,62051,1,4,3:0:0:0:
461,181,62248,5,4,1:0:0:0:
300,110,62446,1,2,0:0:0:0:
416,260,62643,1,10,1:2:0:0:
456,88,62840,1,2,0:0:0:0:
318,239,63038,1,2,3:2:0:0:
297,26,63235,1,2,3:2:0:0:
443,178,63432,1,8,1:2:0:0:
210,229,63630,6,0,P|161:215|113:210,1,97.7500018644333,4|0,1:0|0:0,0:0:0:0:
277,329,64025,1,8,1:2:0:0:
258,152,64222,1,8,1:2:0:0:
140,306,64419,1,0,3:0:0:0:
301,231,64617,1,10,1:2:0:0:
112,111,64814,5,2,3:2:0:0:
81,121,64913,1,0,3:2:0:0:
55,141,65011,1,10,1:2:0:0:
36,167,65110,1,2,3:2:0:0:
26,198,65209,1,10,1:2:0:0:
26,231,65307,1,10,1:2:0:0:
36,262,65406,5,4,1:0:0:0:
174,168,65603,1,2,0:0:0:0:
12,76,65801,1,8,1:2:0:0:
163,186,65998,2,0,P|216:172|278:168,1,97.7500018644333,2|0,0:2|3:0,0:0:0:0:
120,298,66393,2,0,P|72:285|24:279,1,97.7500018644333,2|8,3:2|1:2,0:0:0:0:
241,384,66788,5,2,0:0:0:0:
255,378,66887,1,0,0:0:0:0:
269,372,66986,1,2,3:2:0:0:
395,214,67182,1,2,0:0:0:0:
238,269,67380,1,10,1:2:0:0:
362,384,67577,2,0,L|344:283,1,97.7500018644333,2|0,0:0|3:0,0:0:0:0:
498,182,67972,2,0,L|480:282,1,97.7500018644333,2|8,3:2|1:2,0:0:0:0:
395,214,68367,1,2,0:0:0:0:
512,86,68564,5,4,1:0:0:0:
337,131,68761,1,2,0:0:0:0:
444,22,68959,1,10,1:2:0:0:
261,79,69156,2,0,P|243:127|259:177,1,97.7500018644333,2|0,3:2|3:0,0:0:0:0:
349,42,69551,1,2,3:2:0:0:
167,71,69748,1,10,1:2:0:0:
338,28,69946,1,2,3:2:0:0:
169,154,70143,2,0,L|50:133,1,97.7500018644333,4|0,1:0|0:0,0:0:0:0:
91,370,70538,6,0,P|110:305|102:221,1,146.62500279665,10|0,1:2|0:0,0:0:0:0:
188,232,70932,2,0,P|194:304|175:374,1,146.62500279665,4|0,3:2|0:0,0:0:0:0:
259,378,71327,2,0,P|278:308|272:236,1,146.62500279665,6|0,3:2|0:0,0:0:0:0:
330,171,71722,6,0,P|377:156|440:167,1,97.7500018644333,4|0,1:0|3:0,0:0:0:0:
324,305,72117,1,10,1:2:0:0:
251,118,72314,2,0,P|204:103|141:114,1,97.7500018644333,4|0,1:0|0:0,0:0:0:0:
271,234,72709,1,2,3:2:0:0:
332,76,72906,1,10,1:2:0:0:
191,194,73103,6,0,L|173:291,1,97.7500018644333,4|0,1:0|0:0,0:0:0:0:
88,156,73498,1,2,3:2:0:0:
251,118,73696,1,10,1:2:0:0:
12,110,73893,2,0,B|-3:129|-3:129|16:230,1,97.7500018644333,4|0,1:0|0:0,0:0:0:0:
114,379,74288,5,2,3:2:0:0:
273,267,74485,1,10,1:2:0:0:
77,273,74682,1,2,0:0:0:0:
77,273,74781,1,2,0:0:0:0:
77,273,74880,2,0,L|195:293,1,97.7500018644333,4|0,1:0|0:0,0:0:0:0:
308,153,75275,2,0,L|189:173,1,97.7500018644333,8|0,1:2|0:0,0:0:0:0:
352,65,75669,1,2,3:2:0:0:
271,245,75867,1,0,3:0:0:0:
155,94,76064,1,10,1:2:0:0:
384,239,76261,6,0,P|393:191|406:143,1,97.7500018644333,4|0,1:0|0:0,0:0:0:0:
485,214,76656,1,0,3:0:0:0:
308,153,76853,1,10,1:2:0:0:
480,85,77051,1,0,3:2:0:0:
484,100,77150,1,0,3:0:0:0:
488,115,77249,1,10,1:2:0:0:
383,40,77446,1,0,3:0:0:0:
485,214,77643,1,10,1:2:0:0:
448,218,77741,1,0,3:2:0:0:
411,225,77840,1,0,3:0:0:0:
376,233,77939,1,0,3:0:0:0:
341,242,78038,6,0,B|298:245|280:280|280:280|261:313|216:317,1,152.999995330811,4|0,1:0|0:0,0:0:0:0:
88,61,79617,5,2,0:0:0:0:
196,136,79814,1,0,3:0:0:0:
17,114,80011,1,12,1:2:0:0:
182,43,80209,1,0,3:0:0:0:
2,197,80406,1,12,1:2:0:0:
225,271,80603,5,0,3:0:0:0:
253,261,80702,1,0,3:0:0:0:
282,254,80801,1,10,1:2:0:0:
311,247,80899,1,0,3:0:0:0:
341,242,80998,1,2,3:2:0:0:
370,239,81097,1,0,3:2:0:0:
401,237,81195,5,4,1:0:0:0:
244,167,81393,1,2,3:2:0:0:
345,327,81590,1,10,1:2:0:0:
399,147,81788,2,0,L|415:50,1,97.7500018644333,6|0,3:2|0:0,0:0:0:0:
496,240,82182,2,0,L|512:336,1,97.7500018644333,4|0,1:0|3:0,0:0:0:0:
240,182,82577,5,0,3:0:0:0:
244,167,82676,1,0,3:0:0:0:
248,152,82775,1,4,1:0:0:0:
94,59,82972,1,2,3:2:0:0:
165,223,83169,1,10,1:2:0:0:
310,82,83367,2,0,P|264:58|216:64,1,97.7500018644333,6|0,3:2|0:0,0:0:0:0:
392,214,83761,2,0,P|406:116|443:15,1,195.500003728867,4|0,1:0|0:0,0:0:0:0:
503,111,84353,5,4,3:2:0:0:
256,192,84452,12,0,89288,0:0:0:0:
