osu file format v14

[General]
AudioFilename: audio.ogg
AudioLeadIn: 0
PreviewTime: 52479
Countdown: 0
SampleSet: Soft
StackLeniency: 0.7
Mode: 0
LetterboxInBreaks: 0
WidescreenStoryboard: 1

[Editor]
DistanceSpacing: 1.2
BeatDivisor: 4
GridSize: 32
TimelineZoom: 2.999999

[Metadata]
Title:oath sign (TV Size)
TitleUnicode:oath sign (TV Size)
Artist:LiSA
ArtistUnicode:LiSA
Creator:Froskya
Version:hard
Source:Fate/Zero
Tags:フェイト/ゼロ fate zero 0 fate0 fatezero type-moon opening op 1 1st first one visual novel フェイト ufotable aniplex anime japanese j pop j-pop jpop short ver version saber lightlover''s''mile typemoon 渡辺翔 watanabe shou sho season op1 f/z revialink killian
BeatmapID:4420591
BeatmapSetID:2091754

[Difficulty]
HPDrainRate:5
CircleSize:3.8
OverallDifficulty:6.5
ApproachRate:7.5
SliderMultiplier:1.5
SliderTickRate:1

[Events]
//Background and Video events
0,0,"saber.jpg",0,0
Video,-350,"video.avi"
//Break Periods
//Storyboard Layer 0 (Background)
//Storyboard Layer 1 (Fail)
//Storyboard Layer 2 (Pass)
//Storyboard Layer 3 (Foreground)
//Storyboard Layer 4 (Overlay)
//Storyboard Sound Samples

[TimingPoints]
670,394.736842105263,4,2,1,70,1,0
670,-125,4,2,1,70,0,0
10143,-166.666666666667,4,2,1,70,0,0
10193,-166.666666666667,4,2,1,5,0,0
11722,-166.666666666667,4,2,1,70,0,0
12709,-100,4,2,1,70,0,0
13301,-111.111111111111,4,2,2,70,0,0
24156,-111.111111111111,4,2,0,70,0,0
25538,-111.111111111111,4,2,1,70,0,0
25735,-100,4,2,1,70,0,0
36788,-100,4,2,1,70,0,0
38564,-125,4,2,1,70,0,0
44880,-111.111111111111,4,2,1,70,0,0
48038,-100,4,2,1,70,0,0
52281,-100,4,2,1,5,0,0
52380,-100,4,2,1,70,0,0
52775,394.736842105263,4,2,1,70,1,1
52775,-83.3333333333333,4,2,1,70,0,1
58597,-83.3333333333333,4,2,1,5,0,1
58696,-83.3333333333333,4,2,1,70,0,1
58992,-83.3333333333333,4,2,1,5,0,1
59090,-83.3333333333333,4,2,1,70,0,1
64617,-83.3333333333333,4,2,1,70,0,0
65406,-83.3333333333333,4,2,1,70,0,1
71228,-83.3333333333333,4,2,1,5,0,1
71327,-83.3333333333333,4,2,1,70,0,1
71623,-83.3333333333333,4,2,1,5,0,1
71722,-83.3333333333333,4,2,1,70,0,1
78038,-125,4,2,1,70,0,0
78087,-125,4,2,1,5,0,0
79419,-125,4,2,1,70,0,0
80011,-100,4,2,1,70,0,0
81196,-83.3333333333333,4,2,1,70,0,1
84353,-100,4,2,1,70,0,0
84551,-100,4,2,1,67,0,0
84748,-100,4,2,1,65,0,0
84946,-100,4,2,1,62,0,0
85143,-100,4,2,1,59,0,0
85341,-100,4,2,1,56,0,0
85538,-100,4,2,1,54,0,0
85735,-100,4,2,1,51,0,0
85933,-100,4,2,1,48,0,0
86130,-100,4,2,1,46,0,0
86327,-100,4,2,1,43,0,0
86525,-100,4,2,1,40,0,0
86722,-100,4,2,1,37,0,0
86920,-100,4,2,1,35,0,0
87117,-100,4,2,1,32,0,0
87314,-100,4,2,1,29,0,0
87512,-100,4,2,1,27,0,0
87709,-100,4,2,1,24,0,0
87906,-100,4,2,1,21,0,0
88104,-100,4,2,1,19,0,0
88301,-100,4,2,1,16,0,0
88498,-100,4,2,1,13,0,0
88696,-100,4,2,1,10,0,0
88893,-100,4,2,1,8,0,0
89091,-100,4,2,1,5,0,0

[Colours]
Combo1 : 255,219,108
Combo2 : 136,211,244
Combo3 : 250,190,124
Combo4 : 202,202,202

[HitObjects]
98,190,670,5,2,0:0:0:0:
48,249,867,1,2,0:0:0:0:
95,310,1064,2,0,P|128:299|168:292,1,60,2|0,0:0|0:0,0:0:0:0:
190,225,1459,2,0,P|219:231|247:240,1,60,2|0,0:0|0:0,0:0:0:0:
270,165,1854,2,0,P|240:158|212:149,1,60,2|0,0:0|0:0,0:0:0:0:
189,75,2248,5,2,0:0:0:0:
326,0,2643,1,2,0:0:0:0:
448,96,3038,2,0,P|430:164|410:274,1,180,2|0,0:0|0:0,0:0:0:0:
361,332,3827,6,0,P|337:313|330:285,1,60,2|0,0:0|0:0,0:0:0:0:
252,291,4222,2,0,P|248:261|263:236,1,60,2|0,0:0|0:0,0:0:0:0:
201,188,4617,2,0,P|219:164|247:157,1,60,2|0,0:0|0:0,0:0:0:0:
241,79,5012,2,0,P|270:75|295:90,1,60,2|0,0:0|0:0,0:0:0:0:
333,158,5406,5,2,0:0:0:0:
252,291,5801,1,2,0:0:0:0:
113,218,6196,1,2,0:0:0:0:
194,85,6591,1,2,0:0:0:0:
333,158,6985,6,0,P|362:151|403:144,1,60,2|0,0:0|0:0,0:0:0:0:
407,222,7380,2,0,P|377:227|348:234,1,60,2|0,0:0|0:0,0:0:0:0:
364,310,7775,2,0,P|393:302|422:297,1,60,2|0,0:0|0:0,0:0:0:0:
497,277,8169,2,0,P|489:247|484:218,1,60,2|0,0:0|0:0,0:0:0:0:
469,141,8564,6,0,B|394:126|394:126|381:108|381:108|298:93,1,180,2|0,0:0|0:0,0:0:0:0:
224,78,9354,1,2,0:0:0:0:
178,141,9551,1,2,0:0:0:0:
101,126,9748,1,2,0:0:0:0:
55,189,9945,1,2,0:0:0:0:
106,248,10143,6,0,B|211:198|319:236|255:382|422:365,1,359.999989013672,2|2,0:0|0:0,0:0:0:0:
429,356,12709,1,4,0:3:0:0:
429,356,13301,6,0,P|411:280|398:204,1,134.999995880127,4|2,1:0|3:2,0:0:0:0:
453,162,13893,2,0,P|463:113|472:89,1,67.4999979400635,2|0,0:0|3:0,0:0:0:0:
389,80,14288,2,0,P|378:112|373:145,1,67.4999979400635,2|0,0:0|3:0,0:0:0:0:
314,200,14683,5,2,0:0:0:0:
314,200,14781,1,0,0:0:0:0:
314,200,14880,2,0,P|264:157|199:165,1,134.999995880127,0|2,3:2|3:2,0:0:0:0:
155,234,15472,2,0,P|175:274|160:304,1,67.4999979400635,2|0,0:0|3:0,0:0:0:0:
88,308,15867,2,0,P|68:268|83:238,1,67.4999979400635,2|0,0:0|3:0,0:0:0:0:
102,170,16262,5,2,0:0:0:0:
102,170,16360,1,0,0:0:0:0:
102,170,16459,2,0,P|87:103|64:32,1,134.999995880127,0|2,3:2|3:2,0:0:0:0:
145,21,17051,2,0,P|172:54|214:58,1,67.4999979400635,2|0,0:0|3:0,0:0:0:0:
265,20,17446,1,0,0:0:0:0:
316,82,17643,1,2,3:2:0:0:
249,137,17841,5,2,0:0:0:0:
249,137,17939,1,0,0:0:0:0:
249,137,18038,1,0,3:0:0:0:
256,217,18235,1,2,0:0:0:0:
336,204,18433,1,2,3:2:0:0:
349,283,18630,2,0,P|396:277|421:273,1,67.4999979400635,10|0,3:2|3:0,0:0:0:0:
425,355,19025,2,0,P|391:359|358:363,1,67.4999979400635,10|0,3:2|3:0,0:0:0:0:
277,377,19419,5,0,3:0:0:0:
277,377,19518,1,0,3:0:0:0:
277,377,19617,2,0,B|251:345|251:345|158:359,1,134.999995880127,4|2,1:0|3:2,0:0:0:0:
78,371,20209,2,0,B|60:342|60:342|74:311,1,67.4999979400635,2|0,0:0|3:0,0:0:0:0:
139,264,20604,2,0,B|153:233|153:233|135:204,1,67.4999979400635,2|0,0:0|3:0,0:0:0:0:
96,137,20998,5,2,0:0:0:0:
96,137,21097,1,0,0:0:0:0:
96,137,21196,2,0,P|141:124|231:91,1,134.999995880127,0|2,3:0|3:2,0:0:0:0:
267,25,21788,2,0,P|299:39|329:47,1,67.4999979400635,2|0,0:0|3:0,0:0:0:0:
402,10,22183,2,0,P|414:42|430:70,1,67.4999979400635,2|0,0:0|3:0,0:0:0:0:
491,138,22577,5,2,0:0:0:0:
491,138,22676,1,0,0:0:0:0:
491,138,22775,2,0,B|402:154|459:194|355:214,1,134.999995880127,0|0,3:0|3:0,0:0:0:0:
324,266,23367,1,2,0:0:0:0:
252,228,23564,2,0,P|262:195|267:162,1,67.4999979400635,2|2,3:2|0:0,0:0:0:0:
223,93,23959,1,2,3:2:0:0:
276,31,24156,6,0,P|216:8|156:43,1,134.999995880127,2|2,0:0|0:0,0:0:0:0:
132,119,24748,2,0,P|77:104|-8:87,2,134.999995880127,2|0|8,3:2|0:0|0:0,0:0:0:0:
86,196,25735,6,0,P|104:252|122:363,1,150,4|0,1:0|3:0,0:0:0:0:
199,297,26327,1,10,1:2:0:0:
258,364,26525,2,0,P|293:353|310:321,1,75,2|0,0:0|3:0,0:0:0:0:
372,255,26919,2,0,P|358:219|350:183,1,75,2|8,3:2|1:2,0:0:0:0:
359,93,27314,6,0,B|296:106|296:106|289:121|289:121|205:139,1,150,2|0,3:2|3:0,0:0:0:0:
160,202,27906,1,10,1:2:0:0:
80,158,28104,2,0,P|89:119|96:84,1,75,2|0,0:0|3:0,0:0:0:0:
166,28,28498,2,0,P|201:21|232:41,1,75,2|8,3:2|1:2,0:0:0:0:
295,106,28893,6,0,B|261:131|261:131|272:181|284:245,1,150,2|0,3:2|3:0,0:0:0:0:
237,314,29485,1,10,1:2:0:0:
312,363,29683,2,0,P|349:346|397:335,1,75,2|0,0:0|3:0,0:0:0:0:
412,252,30077,2,0,P|449:269|497:280,1,75,2|8,3:2|1:2,0:0:0:0:
512,192,30472,6,0,P|475:182|441:166,1,75,2|0,3:2|0:0,0:0:0:0:
404,84,30867,1,2,3:2:0:0:
317,109,31064,1,10,1:2:0:0:
341,195,31262,2,0,P|304:204|270:219,1,75,2|2,3:2|0:0,0:0:0:0:
193,265,31656,1,4,3:2:0:0:
141,191,31854,1,8,1:2:0:0:
195,119,32051,6,0,P|148:67|63:87,1,150,4|0,1:0|3:0,0:0:0:0:
20,149,32643,1,10,1:2:0:0:
57,231,32841,2,0,P|39:274|26:323,1,75,2|0,0:0|3:0,0:0:0:0:
87,370,33235,2,0,P|125:372|163:342,1,75,2|8,3:2|1:2,0:0:0:0:
218,289,33630,6,0,B|309:305|258:353|360:364,1,150,2|0,3:2|3:0,0:0:0:0:
425,324,34222,1,10,1:2:0:0:
382,244,34419,2,0,B|366:209|366:209|384:173,1,75,2|0,0:0|3:0,0:0:0:0:
468,149,34814,2,0,B|484:116|484:116|468:81,1,75,2|8,3:2|1:2,0:0:0:0:
392,32,35209,6,0,P|326:47|217:61,1,150,2|0,3:2|3:0,0:0:0:0:
163,97,35801,1,8,1:2:0:0:
204,187,35998,1,2,0:0:0:0:
204,187,36097,1,2,0:0:0:0:
204,187,36196,1,2,3:2:0:0:
284,149,36393,1,6,3:2:0:0:
312,234,36591,1,10,1:2:0:0:
249,298,36788,6,0,P|178:272|104:262,1,150,4|2,1:0|3:2,0:0:0:0:
17,287,37380,1,10,1:2:0:0:
42,200,37577,2,0,P|16:129|6:55,1,150,4|8,1:0|3:0,0:0:0:0:
84,10,38169,1,8,3:0:0:0:
146,75,38367,1,4,3:0:0:0:
227,38,38564,1,4,1:0:0:0:
347,155,38959,6,0,P|335:114|329:79,1,60,2|0,0:0|3:0,0:0:0:0:
413,78,39354,2,0,P|426:136|444:193,1,120,2|2,0:0|0:0,0:0:0:0:
491,263,39946,2,0,P|463:278|423:269,1,60,2|0,0:0|3:0,0:0:0:0:
357,243,40341,2,0,P|329:228|251:271,1,120,2|0,0:0|3:0,0:0:0:0:
224,340,40933,2,0,P|181:328|145:322,1,60,2|0,0:0|3:0,0:0:0:0:
123,252,41327,2,0,P|93:258|64:266,1,60,2|0,0:0|0:0,0:0:0:0:
14,334,41722,1,2,3:2:0:0:
95,140,42117,6,0,P|123:132|153:125,1,60,2|0,0:0|3:0,0:0:0:0:
178,44,42512,2,0,B|244:62|212:88|302:105,1,120,2|2,0:0|0:0,0:0:0:0:
333,167,43104,2,0,P|305:178|288:202,1,60,2|0,0:0|3:0,0:0:0:0:
228,260,43498,2,0,P|263:306|321:308,1,120,2|0,0:0|3:0,0:0:0:0:
388,255,44091,1,6,0:0:0:0:
388,255,44288,1,4,3:0:0:0:
469,291,44485,1,2,3:2:0:0:
469,291,44683,1,4,3:0:0:0:
501,204,44880,5,4,1:0:0:0:
501,204,45077,2,0,P|492:172|487:139,1,67.4999979400635,2|2,0:0|3:2,0:0:0:0:
414,90,45472,2,0,P|404:122|399:155,1,67.4999979400635,2|0,0:0|3:0,0:0:0:0:
321,196,45867,2,0,P|311:163|306:130,1,67.4999979400635,2|0,0:0|3:0,0:0:0:0:
270,51,46262,6,0,P|236:47|207:63,1,67.4999979400635,2|0,0:0|3:0,0:0:0:0:
148,128,46656,1,2,0:0:0:0:
76,77,46854,1,2,3:2:0:0:
11,135,47051,2,0,P|21:170|31:207,1,67.4999979400635,6|0,0:0|3:0,0:0:0:0:
115,218,47446,2,0,P|104:253|94:290,1,67.4999979400635,2|8,0:0|3:2,0:0:0:0:
79,374,47841,5,10,1:2:0:0:
79,374,47939,1,8,1:2:0:0:
79,374,48038,2,0,P|142:358|177:351,1,75,4|0,1:0|3:0,0:0:0:0:
203,281,48433,1,8,1:2:0:0:
277,330,48630,2,0,P|318:281|402:295,1,150,4|2,1:0|3:2,0:0:0:0:
469,236,49222,1,10,1:2:0:0:
435,152,49419,6,0,P|371:142|285:102,1,150,4|0,1:0|3:0,0:0:0:0:
231,41,50012,2,0,P|204:73|215:130,1,75,8|0,1:2|0:0,0:0:0:0:
253,185,50406,1,4,3:0:0:0:
253,185,50604,1,8,3:0:0:0:
182,240,50801,1,10,1:2:0:0:
210,325,50998,6,0,P|146:335|60:375,1,150,4|10,1:0|1:2,0:0:0:0:
11,299,51591,1,10,1:2:0:0:
74,235,51788,1,10,1:2:0:0:
15,166,51985,2,0,P|19:102|72:79,1,112.5,10|0,1:2|0:0,0:0:0:0:
100,68,52380,1,8,1:2:0:0:
189,114,52577,5,2,0:0:0:0:
189,114,52676,1,2,0:0:0:0:
189,114,52775,2,0,P|178:162|169:226,1,89.9999972534181,4|2,1:0|0:0,0:0:0:0:
230,281,53169,1,10,1:2:0:0:
307,218,53367,2,0,P|350:226|373:263,1,89.9999972534181,2|0,3:2|3:0,0:0:0:0:
439,336,53761,2,0,P|482:328|505:291,1,89.9999972534181,2|8,3:2|1:2,0:0:0:0:
471,207,54156,5,2,0:0:0:0:
471,207,54255,1,2,0:0:0:0:
471,207,54353,2,0,P|460:159|451:95,1,89.9999972534181,2|2,3:2|0:0,0:0:0:0:
383,47,54748,1,10,1:2:0:0:
314,118,54946,2,0,B|270:133|270:133|230:107,1,89.9999972534181,2|0,3:2|3:0,0:0:0:0:
153,51,55340,2,0,B|116:27|116:27|72:42,2,89.9999972534181,2|8|2,3:2|1:2|0:0,0:0:0:0:
146,150,55932,6,0,P|99:142|30:137,1,89.9999972534181,2|2,3:2|0:0,0:0:0:0:
89,231,56327,1,10,1:2:0:0:
187,247,56525,2,0,P|179:291|175:336,1,89.9999972534181,2|0,3:2|3:0,0:0:0:0:
267,370,56919,1,2,3:2:0:0:
336,299,57117,1,10,1:2:0:0:
287,212,57314,1,2,3:2:0:0:
372,162,57511,6,0,P|416:166|461:173,1,89.9999972534181,4|0,1:0|0:0,0:0:0:0:
510,87,57906,2,0,P|477:55|435:49,1,89.9999972534181,10|0,1:2|0:0,0:0:0:0:
349,1,58301,2,0,B|260:33|305:66|223:88,1,134.999995880127,6|0,3:2|0:0,0:0:0:0:
194,73,58696,2,0,P|213:138|234:224,1,134.999995880127,6|0,3:2|0:0,0:0:0:0:
199,241,59090,6,0,P|160:222|105:251,1,89.9999972534181,4|0,1:0|3:0,0:0:0:0:
65,320,59485,1,10,1:2:0:0:
140,384,59682,2,0,P|213:362|327:343,1,179.999994506836,4|2,1:0|3:2,0:0:0:0:
394,283,60275,1,10,1:2:0:0:
324,213,60472,6,0,B|292:90|292:90|348:34,1,179.999994506836,4|2,1:0|3:2,0:0:0:0:
419,10,61064,1,10,1:2:0:0:
504,59,61261,2,0,B|485:134|485:134|494:150|494:150|473:231,1,179.999994506836,4|8,1:0|3:0,0:0:0:0:
394,283,61853,1,4,3:0:0:0:
394,283,62051,1,4,3:0:0:0:
324,213,62248,6,0,P|279:210|243:237,1,89.9999972534181,4|2,1:0|0:0,0:0:0:0:
186,316,62643,2,0,P|140:319|105:291,1,89.9999972534181,10|2,1:2|0:0,0:0:0:0:
48,212,63038,1,2,3:2:0:0:
115,140,63235,2,0,P|96:98|83:56,1,89.9999972534181,2|8,3:2|1:2,0:0:0:0:
178,29,63630,6,0,P|210:84|318:74,1,179.999994506836,4|8,1:0|1:2,0:0:0:0:
400,25,64222,1,8,1:2:0:0:
459,104,64419,1,0,3:0:0:0:
379,159,64617,1,10,1:2:0:0:
379,159,64715,1,0,3:2:0:0:
379,159,64814,1,2,3:2:0:0:
422,247,65011,1,10,1:2:0:0:
373,335,65209,5,10,1:2:0:0:
373,335,65307,1,10,1:2:0:0:
373,335,65406,2,0,P|331:316|289:303,1,89.9999972534181,4|2,1:0|0:0,0:0:0:0:
201,256,65801,1,8,1:2:0:0:
126,320,65998,2,0,P|98:285|100:242,1,89.9999972534181,2|0,0:2|3:0,0:0:0:0:
20,183,66393,2,0,P|24:139|57:110,1,89.9999972534181,2|8,3:2|1:2,0:0:0:0:
149,147,66788,1,2,0:0:0:0:
172,51,66985,6,0,P|231:44|267:35,1,89.9999972534181,2|2,3:2|0:0,0:0:0:0:
344,90,67380,1,10,1:2:0:0:
267,152,67577,2,0,P|257:195|252:240,1,89.9999972534181,2|0,0:0|3:0,0:0:0:0:
341,284,67972,2,0,P|345:328|355:372,2,89.9999972534181,2|8|2,3:2|1:2|0:0,0:0:0:0:
430,241,68564,6,0,P|434:196|444:152,1,89.9999972534181,4|2,1:0|0:0,0:0:0:0:
491,65,68959,1,10,1:2:0:0:
398,29,69156,2,0,B|321:41|321:41|306:31|306:31|223:44,1,179.999994506836,2|2,3:2|3:2,0:0:0:0:
125,59,69748,1,10,1:2:0:0:
138,157,69946,1,2,3:2:0:0:
236,146,70143,6,0,P|223:207|216:245,1,89.9999972534181,4|0,1:0|0:0,0:0:0:0:
302,286,70538,2,0,P|272:330|227:336,1,89.9999972534181,10|0,1:2|0:0,0:0:0:0:
150,383,70932,2,0,P|115:318|31:331,1,134.999995880127,4|0,3:2|0:0,0:0:0:0:
11,324,71327,2,0,P|27:258|45:174,1,134.999995880127,6|0,3:2|0:0,0:0:0:0:
14,150,71722,6,0,P|55:136|77:98,1,89.9999972534181,4|0,1:0|3:0,0:0:0:0:
149,29,72117,1,10,1:2:0:0:
221,96,72314,2,0,B|191:129|191:129|224:264,1,179.999994506836,4|2,1:0|3:2,0:0:0:0:
243,358,72906,1,10,1:2:0:0:
332,314,73103,6,0,B|378:312|405:356|405:356|416:307|464:292,1,179.999994506836,4|2,1:0|3:2,0:0:0:0:
506,205,73696,1,10,1:2:0:0:
465,115,73893,2,0,P|392:130|279:142,1,179.999994506836,4|2,1:0|3:2,0:0:0:0:
209,79,74485,1,10,1:2:0:0:
145,154,74682,5,2,0:0:0:0:
145,154,74781,1,2,0:0:0:0:
145,154,74880,2,0,B|42:180|109:231|-4:258,2,179.999994506836,4|8|2,1:0|1:2|3:2,0:0:0:0:
219,219,75867,1,0,3:0:0:0:
189,313,76064,1,10,1:2:0:0:
284,338,76261,6,0,P|308:252|338:146,1,179.999994506836,4|0,1:0|3:0,0:0:0:0:
414,117,76853,1,10,1:2:0:0:
366,29,77051,1,0,3:2:0:0:
366,29,77149,1,0,3:0:0:0:
366,29,77248,2,0,P|317:42|272:57,1,89.9999972534181,10|0,1:2|3:0,0:0:0:0:
183,80,77643,2,0,P|175:56|161:21,2,44.999998626709,10|0|0,1:2|3:2|3:0,0:0:0:0:
250,153,78038,6,0,B|17:220|17:220|149:188|198:261,1,420,4|0,1:0|0:0,0:0:0:0:
231,322,79617,1,2,0:0:0:0:
319,336,79814,1,0,3:0:0:0:
375,266,80011,2,0,P|361:219|350:180,1,75,12|0,1:2|3:0,0:0:0:0:
438,161,80406,2,0,P|448:124|459:89,1,75,12|0,1:2|3:0,0:0:0:0:
427,64,80702,1,0,3:0:0:0:
427,64,80801,2,0,P|379:56|322:113,1,112.5,10|0,1:2|3:2,0:0:0:0:
297,129,81196,6,0,P|253:130|220:100,1,89.9999972534181,4|2,1:0|3:2,0:0:0:0:
152,28,81590,1,10,1:2:0:0:
62,72,81788,2,0,P|82:129|87:162,1,89.9999972534181,6|0,3:2|0:0,0:0:0:0:
181,188,82182,2,0,P|148:271|127:359,1,179.999994506836,4|0,1:0|3:0,0:0:0:0:
171,383,82676,5,0,3:0:0:0:
171,383,82774,2,0,P|228:362|261:357,1,89.9999972534181,4|2,1:0|3:2,0:0:0:0:
310,274,83169,1,10,1:2:0:0:
385,338,83367,2,0,P|424:318|436:274,1,89.9999972534181,6|0,3:2|0:0,0:0:0:0:
501,201,83761,2,0,P|450:123|352:128,1,179.999994506836,4|0,1:0|0:0,0:0:0:0:
307,182,84353,5,4,3:2:0:0:
256,192,84551,12,0,89288,0:0:0:0:
