osu file format v14

[General]
AudioFilename: audio.ogg
AudioLeadIn: 0
PreviewTime: 52479
Countdown: 0
SampleSet: Soft
StackLeniency: 0.7
Mode: 0
LetterboxInBreaks: 0
WidescreenStoryboard: 0

[Editor]
DistanceSpacing: 1.2
BeatDivisor: 8
GridSize: 32
TimelineZoom: 2.999999

[Metadata]
Title:oath sign (TV Size)
TitleUnicode:oath sign (TV Size)
Artist:LiSA
ArtistUnicode:LiSA
Creator:Froskya
Version:bond
Source:Fate/Zero
Tags:フェイト/ゼロ fate zero 0 fate0 fatezero type-moon opening op 1 1st first one visual novel フェイト ufotable aniplex anime japanese j pop j-pop jpop short ver version saber lightlover''s''mile typemoon 渡辺翔 watanabe shou sho season op1 f/z revialink killian
BeatmapID:4384590
BeatmapSetID:2091754

[Difficulty]
HPDrainRate:5.5
CircleSize:4.5
OverallDifficulty:8.5
ApproachRate:9
SliderMultiplier:1.7
SliderTickRate:1

[Events]
//Background and Video events
0,0,"saber.jpg",0,0
Video,-350,"video.avi"
//Break Periods
//Storyboard Layer 0 (Background)
//Storyboard Layer 1 (Fail)
//Storyboard Layer 2 (Pass)
//Storyboard Layer 3 (Foreground)
//Storyboard Layer 4 (Overlay)
//Storyboard Sound Samples

[TimingPoints]
670,394.736842105263,4,2,1,70,1,0
670,-120.481927710843,4,2,1,70,0,0
10143,-166.666666666667,4,2,1,70,0,0
10193,-166.666666666667,4,2,1,5,0,0
11666,-166.666666666667,4,2,1,70,0,0
12709,-333.333333333333,4,2,1,70,0,0
13301,-111.111111111111,4,2,2,70,0,0
24156,-133.333333333333,4,2,0,70,0,0
25538,-133.333333333333,4,2,1,70,0,0
25735,-100,4,2,1,70,0,0
30768,-100,4,2,1,5,0,0
30867,-100,4,2,1,70,0,0
36788,-90.9090909090909,4,2,1,70,0,0
37084,-90.9090909090909,4,2,1,5,0,0
37183,-90.9090909090909,4,2,1,70,0,0
37873,-90.9090909090909,4,2,1,5,0,0
37972,-90.9090909090909,4,2,1,70,0,0
38564,-125,4,2,1,70,0,0
38860,-125,4,2,1,5,0,0
38959,-125,4,2,1,70,0,0
42018,-125,4,2,1,5,0,0
42117,-125,4,2,1,70,0,0
44091,-100,4,2,1,70,0,0
44880,-100,4,2,1,70,0,0
48038,-90.9090909090909,4,2,1,70,0,0
48926,-90.9090909090909,4,2,1,5,0,0
49025,-90.9090909090909,4,2,1,70,0,0
51294,-90.9090909090909,4,2,1,5,0,0
51393,-90.9090909090909,4,2,1,70,0,0
52775,394.736842105263,4,2,1,70,1,1
52775,-76.9230769230769,4,2,1,70,0,1
56821,-76.9230769230769,4,2,1,5,0,1
56919,-76.9230769230769,4,2,1,70,0,1
58301,-71.4285714285714,4,2,1,70,0,1
58597,-71.4285714285714,4,2,1,5,0,1
58696,-71.4285714285714,4,2,1,70,0,1
58992,-71.4285714285714,4,2,1,5,0,1
59090,-76.9230769230769,4,2,1,70,0,1
59979,-76.9230769230769,4,2,1,5,0,1
60077,-76.9230769230769,4,2,1,70,0,1
60768,-76.9230769230769,4,2,1,5,0,1
60867,-76.9230769230769,4,2,1,70,0,1
61557,-76.9230769230769,4,2,1,5,0,1
61656,-76.9230769230769,4,2,1,70,0,1
63926,-76.9230769230769,4,2,1,5,0,1
64025,-76.9230769230769,4,2,1,70,0,1
64617,-100,4,2,1,70,0,0
65406,-76.9230769230769,4,2,1,70,0,1
69452,-76.9230769230769,4,2,1,5,0,1
69551,-76.9230769230769,4,2,1,70,0,1
70932,-71.4285714285714,4,2,1,70,0,1
71228,-71.4285714285714,4,2,1,5,0,1
71327,-71.4285714285714,4,2,1,70,0,1
71623,-71.4285714285714,4,2,1,5,0,1
71722,-76.9230769230769,4,2,1,70,0,1
72610,-76.9230769230769,4,2,1,5,0,1
72709,-76.9230769230769,4,2,1,70,0,1
73400,-76.9230769230769,4,2,1,5,0,1
73498,-76.9230769230769,4,2,1,70,0,1
74189,-76.9230769230769,4,2,1,5,0,1
74288,-76.9230769230769,4,2,1,70,0,1
74880,-76.9230769230769,4,2,1,70,0,1
76557,-76.9230769230769,4,2,1,5,0,1
76656,-76.9230769230769,4,2,1,70,0,1
78038,-250,4,2,1,70,0,0
78087,-250,4,2,1,5,0,0
79617,-100,4,2,1,70,0,0
81196,-76.9230769230769,4,2,1,70,0,1
83761,-133.333333333333,4,2,1,70,0,1
84353,-133.33333,4,2,1,70,0,0
84551,-133.33333,4,2,1,67,0,0
84748,-133.33333,4,2,1,65,0,0
84946,-133.33333,4,2,1,62,0,0
85143,-133.33333,4,2,1,59,0,0
85341,-133.33333,4,2,1,56,0,0
85538,-133.33333,4,2,1,54,0,0
85735,-133.33333,4,2,1,51,0,0
85933,-133.33333,4,2,1,48,0,0
86130,-133.33333,4,2,1,46,0,0
86327,-133.33333,4,2,1,43,0,0
86525,-133.33333,4,2,1,40,0,0
86722,-133.33333,4,2,1,37,0,0
86920,-133.33333,4,2,1,35,0,0
87117,-133.33333,4,2,1,32,0,0
87314,-133.33333,4,2,1,29,0,0
87512,-133.33333,4,2,1,27,0,0
87709,-133.33333,4,2,1,24,0,0
87906,-133.33333,4,2,1,21,0,0
88104,-133.33333,4,2,1,19,0,0
88301,-133.33333,4,2,1,16,0,0
88498,-133.33333,4,2,1,13,0,0
88696,-133.33333,4,2,1,10,0,0
88893,-133.33333,4,2,1,8,0,0
89091,-133.33333,4,2,1,5,0,0

[Colours]
Combo1 : 255,219,108
Combo2 : 136,211,244
Combo3 : 250,190,124
Combo4 : 202,202,202

[HitObjects]
0,235,670,5,2,0:0:0:0:
68,220,867,1,2,0:0:0:0:
112,276,1064,2,0,L|188:295,1,70.5500010226822,2|0,0:0|0:0,0:0:0:0:
212,356,1459,2,0,L|279:315,1,70.5500010226822,2|0,0:0|0:0,0:0:0:0:
341,339,1854,2,0,L|360:263,1,70.5500010226822,2|0,0:0|0:0,0:0:0:0:
425,249,2248,2,0,L|405:173,1,70.5500010226822,2|0,0:0|0:0,0:0:0:0:
446,121,2643,2,0,L|378:80,1,70.5500010226822,2|0,0:0|0:0,0:0:0:0:
372,15,3038,2,0,L|166:66,1,211.650003068047,2|0,0:0|0:0,0:0:0:0:
177,135,3827,6,0,B|212:137|212:137|237:171,1,70.5500010226822,2|0,0:0|0:0,0:0:0:0:
298,138,4222,2,0,B|321:164|321:164|314:205,1,70.5500010226822,2|0,0:0|0:0,0:0:0:0:
375,237,4617,2,0,B|373:272|373:272|339:297,1,70.5500010226822,2|0,0:0|0:0,0:0:0:0:
351,363,5012,2,0,B|324:386|324:386|283:379,1,70.5500010226822,2|0,0:0|0:0,0:0:0:0:
222,360,5406,6,0,L|200:281,1,70.5500010226822,2|0,0:0|0:0,0:0:0:0:
134,276,5801,2,0,L|152:208,1,70.5500010226822,2|0,0:0|0:0,0:0:0:0:
117,146,6196,2,0,L|196:124,1,70.5500010226822,2|0,0:0|0:0,0:0:0:0:
201,58,6591,2,0,L|268:76,1,70.5500010226822,2|0,0:0|0:0,0:0:0:0:
336,97,6985,6,0,P|341:131|320:158,1,70.5500010226822,2|0,0:0|0:0,0:0:0:0:
355,220,7380,2,0,P|334:247|300:252,1,70.5500010226822,2|0,0:0|0:0,0:0:0:0:
289,322,7775,2,0,P|254:327|227:306,1,70.5500010226822,2|0,0:0|0:0,0:0:0:0:
163,336,8169,2,0,P|135:315|130:281,1,70.5500010226822,2|0,0:0|0:0,0:0:0:0:
59,277,8564,6,0,P|43:184|14:66,1,211.650003068047,2|0,0:0|0:0,0:0:0:0:
0,1,9354,1,2,0:0:0:0:
69,13,9551,1,2,0:0:0:0:
97,77,9748,1,2,0:0:0:0:
165,59,9946,1,2,0:0:0:0:
220,106,10143,6,0,B|466:173|296:309|498:375,1,407.999987548829,2|2,0:0|0:0,0:0:0:0:
488,323,12709,6,0,L|494:373,1,50.9999984436036,4|0,0:3|0:0,0:0:0:0:
466,179,13301,6,0,B|390:186|421:225|356:229,1,114.749996498108,4|0,1:0|0:0,0:0:0:0:
332,209,13696,1,2,3:2:0:0:
258,338,13893,2,0,P|266:301|276:264,1,76.4999976654053,2|0,0:0|3:0,0:0:0:0:
172,177,14288,2,0,P|181:214|189:251,1,76.4999976654053,2|0,0:0|3:0,0:0:0:0:
310,143,14683,5,2,0:0:0:0:
310,143,14781,1,0,0:0:0:0:
310,143,14880,2,0,P|266:144|221:78,1,114.749996498108,0|0,3:2|0:0,0:0:0:0:
222,55,15275,1,2,3:2:0:0:
366,95,15472,2,0,P|386:126|381:165,1,76.4999976654053,2|0,0:0|3:0,0:0:0:0:
283,289,15867,2,0,P|278:251|297:219,1,76.4999976654053,2|0,0:0|3:0,0:0:0:0:
458,322,16262,5,2,0:0:0:0:
458,322,16360,1,0,0:0:0:0:
458,322,16459,2,0,P|402:335|326:356,1,114.749996498108,0|0,3:2|0:0,0:0:0:0:
323,380,16854,1,2,3:2:0:0:
208,270,17051,2,0,P|245:278|282:288,1,76.4999976654053,2|0,0:0|3:0,0:0:0:0:
188,353,17446,1,0,0:0:0:0:
160,187,17643,1,2,3:2:0:0:
323,224,17841,5,2,0:0:0:0:
323,224,17939,1,0,0:0:0:0:
323,224,18038,1,0,3:0:0:0:
354,102,18235,1,2,0:0:0:0:
241,203,18433,1,2,3:2:0:0:
141,64,18630,2,0,P|100:69|45:79,1,76.4999976654053,10|0,3:2|3:0,0:0:0:0:
258,120,19025,2,0,P|263:82|273:24,1,76.4999976654053,10|0,3:2|3:0,0:0:0:0:
133,190,19419,5,0,3:0:0:0:
133,190,19518,1,0,3:0:0:0:
133,190,19617,2,0,P|145:252|160:327,1,114.749996498108,4|0,1:0|0:0,0:0:0:0:
187,322,20012,1,2,3:2:0:0:
308,244,20209,2,0,P|279:219|241:220,1,76.4999976654053,2|0,0:0|3:0,0:0:0:0:
305,340,20604,2,0,P|342:340|371:316,1,76.4999976654053,2|0,0:0|3:0,0:0:0:0:
460,171,20998,5,2,0:0:0:0:
460,171,21097,1,0,0:0:0:0:
460,171,21196,2,0,B|436:134|436:134|366:143,1,114.749996498108,0|0,3:0|0:0,0:0:0:0:
355,180,21591,1,2,3:2:0:0:
290,52,21788,2,0,B|327:41|327:41|357:63,1,76.4999976654053,2|0,0:0|3:0,0:0:0:0:
266,187,22183,2,0,B|229:198|229:198|198:175,1,76.4999976654053,2|0,0:0|3:0,0:0:0:0:
151,38,22577,5,2,0:0:0:0:
151,38,22676,1,0,0:0:0:0:
151,38,22775,2,0,B|165:110|88:95|113:198,1,152.999995330811,0|0,3:0|3:0,0:0:0:0:
198,272,23367,1,2,0:0:0:0:
52,368,23564,1,2,3:2:0:0:
118,250,23762,1,2,0:0:0:0:
204,306,23959,1,2,3:2:0:0:
298,169,24156,6,0,L|232:185,1,63.7500024318696,2|0,0:0|3:0,0:0:0:0:
316,245,24551,1,2,0:0:0:0:
414,129,24748,2,0,L|380:333,1,191.250007295609,2|0,3:2|0:0,0:0:0:0:
483,199,25538,1,8,0:0:0:0:
425,50,25735,6,0,B|310:46|361:137|251:117,1,170,4|0,1:0|3:0,0:0:0:0:
184,12,26327,1,10,1:2:0:0:
80,122,26525,2,0,P|126:110|189:94,1,85,2|0,0:0|3:0,0:0:0:0:
288,217,26919,2,0,P|246:206|205:195,1,85,2|8,3:2|1:2,0:0:0:0:
33,325,27314,6,0,P|101:343|150:244,1,170,2|0,3:2|3:0,0:0:0:0:
80,122,27906,1,10,1:2:0:0:
234,83,28104,2,0,P|223:124|214:165,1,85,2|0,0:0|3:0,0:0:0:0:
371,94,28498,2,0,P|360:53|351:12,1,85,2|8,3:2|1:2,0:0:0:0:
482,169,28893,6,0,P|398:185|316:206,1,170,2|0,3:2|3:0,0:0:0:0:
423,301,29485,1,10,1:2:0:0:
276,345,29683,2,0,P|324:373|361:361,1,85,2|0,0:0|3:0,0:0:0:0:
242,236,30077,2,0,P|200:232|167:258,1,85,2|8,3:2|1:2,0:0:0:0:
37,367,30472,6,0,B|67:336|67:336|57:291|46:235,1,127.5,2|0,3:2|0:0,0:0:0:0:
17,232,30867,1,2,3:2:0:0:
121,133,31064,1,10,1:2:0:0:
24,73,31262,2,0,B|107:59,1,85,2|2,3:2|0:0,0:0:0:0:
309,167,31656,5,4,3:2:0:0:
134,207,31854,1,8,1:2:0:0:
206,8,32051,6,0,B|274:19|274:19|294:43|294:43|374:55,1,170,4|0,1:0|3:0,0:0:0:0:
499,4,32643,1,10,1:2:0:0:
463,157,32841,2,0,P|457:114|450:73,1,85,2|0,0:0|3:0,0:0:0:0:
281,119,33235,2,0,P|275:159|268:202,1,85,2|8,3:2|1:2,0:0:0:0:
484,281,33630,6,0,B|465:237|419:246|419:246|332:265,1,170,2|0,3:2|3:0,0:0:0:0:
191,299,34222,1,10,1:2:0:0:
338,353,34419,2,0,B|301:375|301:375|260:362,1,85,2|0,0:0|3:0,0:0:0:0:
163,217,34814,2,0,B|204:206|204:206|240:226,1,85,2|8,3:2|1:2,0:0:0:0:
44,342,35209,6,0,B|19:243|99:259|84:184,1,170,2|0,3:2|3:0,0:0:0:0:
34,49,35801,1,8,1:2:0:0:
188,130,35998,1,2,0:0:0:0:
188,130,36097,1,2,0:0:0:0:
188,130,36196,1,2,3:2:0:0:
0,202,36393,5,6,3:2:0:0:
111,88,36591,1,10,1:2:0:0:
225,265,36788,6,0,P|287:251|368:235,1,140.25000428009,4|0,1:0|0:0,0:0:0:0:
392,259,37183,1,2,3:2:0:0:
269,153,37380,1,10,1:2:0:0:
181,340,37577,6,0,P|115:329|103:263,1,140.25000428009,4|0,1:0|0:0,0:0:0:0:
126,235,37972,1,8,3:0:0:0:
42,160,38169,1,8,3:0:0:0:
105,90,38367,1,4,3:0:0:0:
19,3,38564,6,0,L|136:21,1,102,4|0,1:0|0:0,0:0:0:0:
152,38,38959,2,0,L|224:28,1,68,2|0,0:0|3:0,0:0:0:0:
166,126,39354,1,2,0:0:0:0:
179,140,39748,5,2,0:0:0:0:
179,140,39946,2,0,P|172:176|166:219,1,68,2|0,0:0|3:0,0:0:0:0:
75,307,40341,2,0,P|62:240|49:173,1,136,2|0,0:0|3:0,0:0:0:0:
153,282,40933,2,0,P|183:296|215:288,1,68,2|0,0:0|3:0,0:0:0:0:
329,214,41327,2,0,P|296:206|266:220,1,68,2|0,0:0|0:0,0:0:0:0:
321,356,41722,6,0,B|341:376|341:376|419:363,1,102,2|0,3:2|0:0,0:0:0:0:
449,353,42117,2,0,B|458:320|458:320|440:291,1,68,2|0,0:0|3:0,0:0:0:0:
358,213,42512,1,2,0:0:0:0:
372,226,42906,5,2,0:0:0:0:
372,226,43104,2,0,P|379:195|388:156,1,68,2|0,0:0|3:0,0:0:0:0:
425,29,43498,2,0,B|331:30|375:84|283:90,1,136,2|0,0:0|3:0,0:0:0:0:
147,17,44090,5,6,0:0:0:0:
290,170,44288,1,4,3:0:0:0:
88,219,44485,1,2,3:2:0:0:
175,133,44683,1,4,3:0:0:0:
219,351,44880,5,4,1:0:0:0:
72,189,45077,1,2,0:0:0:0:
40,303,45275,1,2,3:2:0:0:
283,246,45472,2,0,P|241:254|200:264,1,85,2|0,0:0|3:0,0:0:0:0:
105,88,45867,2,0,P|146:97|187:106,1,85,2|0,0:0|3:0,0:0:0:0:
40,303,46262,6,0,P|28:262|45:224,1,85,2|0,0:0|3:0,0:0:0:0:
223,178,46656,1,2,0:0:0:0:
122,284,46854,1,2,3:2:0:0:
304,357,47051,2,0,P|292:316|284:274,1,85,6|0,0:0|3:0,0:0:0:0:
426,170,47446,2,0,P|414:210|406:252,1,85,2|8,0:0|3:2,0:0:0:0:
256,111,47841,5,10,1:2:0:0:
256,111,47940,1,8,1:2:0:0:
256,111,48038,1,4,1:0:0:0:
177,247,48235,1,0,3:0:0:0:
345,134,48433,1,8,1:2:0:0:
128,11,48630,6,0,L|158:163,1,140.25000428009,4|0,1:0|0:0,0:0:0:0:
132,175,49025,1,2,3:2:0:0:
278,236,49222,1,10,1:2:0:0:
70,305,49419,6,0,B|140:255|184:325|184:325|154:335|135:374,1,187.000005706787,4|0,1:0|3:0,0:0:0:0:
326,325,50012,2,0,P|314:279|306:233,1,93.5000028533936,8|0,1:2|0:0,0:0:0:0:
460,143,50406,1,4,3:0:0:0:
404,263,50604,1,8,3:0:0:0:
282,108,50801,1,10,1:2:0:0:
96,274,50998,6,0,B|124:236|124:236|238:256,1,140.25000428009,4|0,1:0|0:0,0:0:0:0:
250,259,51393,1,10,1:2:0:0:
132,147,51591,1,10,1:2:0:0:
169,345,51788,1,10,1:2:0:0:
244,123,51985,1,10,1:2:0:0:
21,176,52183,6,0,L|14:145,3,31.1666676177979,8|4|4|8,3:0|3:0|3:0|1:2,0:0:0:0:
106,38,52577,5,2,0:0:0:0:
106,38,52676,1,2,0:0:0:0:
106,38,52775,1,4,1:0:0:0:
231,141,52972,1,2,0:0:0:0:
73,236,53169,1,10,1:2:0:0:
195,378,53367,2,0,P|177:311|162:266,1,110.499994941712,2|0,3:2|3:0,0:0:0:0:
344,90,53762,2,0,P|327:142|313:196,1,110.499994941712,2|8,3:2|1:2,0:0:0:0:
485,366,54156,5,2,0:0:0:0:
436,354,54255,1,2,0:0:0:0:
395,384,54354,1,2,3:2:0:0:
512,278,54551,1,2,0:0:0:0:
415,200,54748,1,10,1:2:0:0:
267,333,54946,2,0,P|328:336|361:287,1,110.499994941712,2|0,3:2|3:0,0:0:0:0:
500,94,55341,2,0,P|439:91|406:140,2,110.499994941712,2|8|2,3:2|1:2|0:0,0:0:0:0:
301,41,55933,5,2,3:2:0:0:
340,225,56130,1,2,0:0:0:0:
203,97,56327,1,10,1:2:0:0:
175,293,56525,2,0,P|96:268|16:248,1,165.749992412568,2|0,3:2|0:0,0:0:0:0:
0,214,56919,1,2,3:2:0:0:
74,342,57117,1,10,1:2:0:0:
201,206,57314,1,2,3:2:0:0:
274,382,57512,6,0,B|248:333|248:333|279:287,1,110.499994941712,4|0,1:0|0:0,0:0:0:0:
505,242,57906,2,0,P|490:296|477:356,1,110.499994941712,10|0,1:2|0:0,0:0:0:0:
442,78,58301,6,0,B|331:89|388:177|292:179,1,178.499994552612,6|0,3:2|0:0,0:0:0:0:
240,220,58696,2,0,P|174:187|199:93,1,178.499994552612,6|0,3:2|0:0,0:0:0:0:
207,18,59090,6,0,P|274:35|320:41,1,110.499994941712,4|0,1:0|3:0,0:0:0:0:
237,151,59485,1,10,1:2:0:0:
112,1,59683,6,0,B|67:38|67:38|94:172,1,165.749992412568,4|0,1:0|0:0,0:0:0:0:
68,176,60077,1,2,3:2:0:0:
192,97,60275,1,10,1:2:0:0:
259,261,60472,6,0,P|339:278|419:301,1,165.749992412568,4|0,1:0|0:0,0:0:0:0:
442,333,60866,1,2,3:2:0:0:
358,196,61064,1,10,1:2:0:0:
238,344,61262,6,0,B|162:324|162:324|120:268|189:226,1,165.749992412568,4|0,1:0|0:0,0:0:0:0:
190,217,61656,1,8,3:0:0:0:
117,149,61854,1,4,3:0:0:0:
176,98,62051,1,4,3:0:0:0:
29,16,62248,5,4,1:0:0:0:
238,147,62446,1,2,0:0:0:0:
47,220,62643,1,10,1:2:0:0:
166,1,62841,1,2,0:0:0:0:
276,216,63038,1,2,3:2:0:0:
148,82,63235,2,0,P|137:135|124:194,1,110.499994941712,2|8,3:2|1:2,0:0:0:0:
356,213,63630,6,0,P|316:144|237:147,1,165.749992412568,4|0,1:0|0:0,0:0:0:0:
218,181,64025,1,8,1:2:0:0:
370,302,64222,1,8,1:2:0:0:
266,364,64419,1,0,3:0:0:0:
451,258,64617,5,10,1:2:0:0:
427,223,64715,1,0,3:2:0:0:
428,180,64814,1,2,3:2:0:0:
455,147,64913,1,0,3:2:0:0:
490,124,65011,1,10,1:2:0:0:
505,84,65110,1,2,3:2:0:0:
502,49,65209,5,10,1:2:0:0:
502,49,65307,1,10,1:2:0:0:
502,49,65405,1,4,1:0:0:0:
512,211,65603,1,2,0:0:0:0:
384,76,65801,1,8,1:2:0:0:
341,260,65998,2,0,P|281:273|240:231,1,110.499994941712,2|0,0:2|3:0,0:0:0:0:
84,46,66393,2,0,P|127:15|178:30,1,110.499994941712,2|8,3:2|1:2,0:0:0:0:
303,187,66788,1,2,0:0:0:0:
98,125,66985,5,2,3:2:0:0:
124,295,67182,1,2,0:0:0:0:
228,162,67380,1,10,1:2:0:0:
26,108,67577,2,0,P|13:161|0:215,1,110.499994941712,2|0,0:0|3:0,0:0:0:0:
223,348,67972,2,0,P|209:294|195:240,2,110.499994941712,2|8|2,3:2|1:2|0:0,0:0:0:0:
98,125,68564,5,4,1:0:0:0:
280,225,68761,1,2,0:0:0:0:
82,287,68959,1,10,1:2:0:0:
183,113,69156,2,0,B|213:146|213:146|341:133,1,165.749992412568,2|0,3:2|0:0,0:0:0:0:
350,101,69551,1,2,3:2:0:0:
280,225,69748,1,10,1:2:0:0:
257,38,69946,1,2,3:2:0:0:
428,142,70143,6,0,B|454:191|454:191|423:237,1,110.499994941712,4|0,1:0|0:0,0:0:0:0:
237,357,70538,2,0,P|251:303|263:249,1,110.499994941712,10|0,1:2|0:0,0:0:0:0:
82,6,70932,6,0,P|101:86|120:186,1,178.499994552612,4|0,3:2|0:0,0:0:0:0:
161,245,71327,2,0,P|128:311|34:286,1,178.499994552612,6|0,3:2|0:0,0:0:0:0:
0,228,71722,6,0,P|14:163|24:107,1,110.499994941712,4|0,1:0|3:0,0:0:0:0:
87,223,72117,1,10,1:2:0:0:
183,34,72314,6,0,P|199:121|219:207,1,165.749992412568,4|0,1:0|0:0,0:0:0:0:
227,233,72709,1,2,3:2:0:0:
103,129,72906,1,10,1:2:0:0:
262,21,73103,6,0,B|369:36|304:96|426:100,1,165.749992412568,4|0,1:0|0:0,0:0:0:0:
434,77,73498,1,2,3:2:0:0:
316,188,73696,1,10,1:2:0:0:
512,273,73893,6,0,P|428:291|329:326,1,165.749992412568,4|0,1:0|0:0,0:0:0:0:
325,344,74288,1,2,3:2:0:0:
407,204,74485,1,10,1:2:0:0:
198,110,74682,5,2,0:0:0:0:
198,110,74781,1,2,0:0:0:0:
198,110,74880,2,0,P|217:210|242:343,2,220.999989883423,4|8|2,1:0|1:2|3:2,0:0:0:0:
122,239,75867,1,0,3:0:0:0:
281,96,76064,1,10,1:2:0:0:
70,12,76261,6,0,P|21:54|65:160,1,165.749992412568,4|0,1:0|0:0,0:0:0:0:
70,171,76656,1,0,3:0:0:0:
225,37,76853,1,10,1:2:0:0:
303,191,77051,5,0,3:2:0:0:
303,191,77149,1,0,3:0:0:0:
303,191,77248,1,10,1:2:0:0:
151,106,77446,1,0,3:0:0:0:
418,26,77643,5,10,1:2:0:0:
410,70,77741,1,0,3:2:0:0:
402,114,77840,1,0,3:0:0:0:
394,158,77939,1,0,3:0:0:0:
386,202,78038,6,0,B|229:225|322:325|168:355,1,272,4|2,1:0|0:0,0:0:0:0:
100,306,79814,5,0,3:0:0:0:
211,189,80011,1,12,1:2:0:0:
19,95,80209,5,0,3:0:0:0:
156,248,80406,1,12,1:2:0:0:
245,52,80603,5,0,3:0:0:0:
202,52,80702,1,0,3:0:0:0:
168,77,80801,1,10,1:2:0:0:
150,115,80899,1,0,3:0:0:0:
125,149,80998,1,2,3:2:0:0:
88,171,81097,1,0,3:2:0:0:
45,171,81196,5,4,1:0:0:0:
205,324,81393,1,2,3:2:0:0:
3,246,81590,1,10,1:2:0:0:
233,124,81788,5,6,3:2:0:0:
227,135,82182,1,4,1:0:0:0:
203,302,82380,1,0,3:0:0:0:
392,220,82577,5,0,3:0:0:0:
392,220,82676,1,0,3:0:0:0:
392,220,82774,1,4,1:0:0:0:
329,9,82972,1,2,3:2:0:0:
508,167,83169,1,10,1:2:0:0:
266,259,83367,5,6,3:2:0:0:
252,269,83761,2,0,P|190:253|106:235,1,127.500004863739,4|0,1:0|0:0,0:0:0:0:
345,97,84353,5,4,3:2:0:0:
256,192,84452,12,0,89288,0:0:0:0:
